HD一条街

 找回密码
 立即注册
搜索
查看: 420|回复: 4

[欧美] Top Gear圣诞特辑 Top.Gear.From.A-Z.2015.Part.1.1080p.BluRay.x264-TAXES 9.83G

[复制链接]
发表于 2016-12-1 16:42:30 | 显示全部楼层 |阅读模式

马上注册,结交更多好友,享用更多功能,让你轻松玩转社区。

您需要 登录 才可以下载或查看,没有帐号?立即注册

x
: B* E4 J6 }. a" d( U
                               
登录/注册后可看大图

+ I- j& @) Y" f/ h1 I3 _8 O% M0 b. D0 o3 o8 G
9 w* e( v0 Y0 s4 T; Y, X
  1. Video
    1 K7 J5 H8 e- g7 t6 Y5 L
  2. ID                                       : 1
    2 o1 w" Q" v5 t/ V9 D
  3. Format                                   : AVC$ Y# Y# X& P7 e' N
  4. Format/Info                              : Advanced Video Codec
    $ D3 e  ?# ^7 g9 [% f
  5. Format profile                           : High@L4.12 E8 y5 T% k3 k" V) `
  6. Format settings, CABAC                   : Yes
    ! T# C( D6 E! v& \. ]
  7. Format settings, ReFrames                : 4 frames' ?+ H8 k/ y0 ?4 U3 _
  8. Codec ID                                 : V_MPEG4/ISO/AVC/ C1 e  t. c8 _9 q
  9. Duration                                 : 2h 23mn
    ) {4 B1 G; o$ D' e+ B% p+ {  [
  10. Bit rate                                 : 8 304 Kbps
    - x; S0 L5 ?$ u/ S  `2 q0 t
  11. Width                                    : 1 920 pixels5 _- w: n& a& ?( c! S4 Q
  12. Height                                   : 1 080 pixels
    # y2 {( y4 ~/ ~* U- X" C
  13. Display aspect ratio                     : 16:9
    & r  H% Q2 D& c' p
  14. Frame rate mode                          : Constant7 l3 k* D8 U; ^, ?; v( r! r
  15. Frame rate                               : 25.000 fps2 |/ H4 X' J  u0 E' l( C
  16. Color space                              : YUV
    0 K6 z- H3 Z* W4 X% }/ Q' W
  17. Chroma subsampling                       : 4:2:0
    - M& P$ X7 d* [) A: u$ x' L
  18. Bit depth                                : 8 bits4 N( _5 V- ~( |8 r3 {8 @
  19. Scan type                                : Progressive
    ) I: u- y% P& j% S, u
  20. Bits/(Pixel*Frame)                       : 0.160
      k% U8 g0 z/ b1 C: n' `! ~0 `
  21. Stream size                              : 8.32 GiB (85%)
    + [- w. n  |- @% w  Y
  22. Writing library                          : x264 core 148 r2705 3f5ed56
    ' a3 u- Z9 x% l; H: o
  23. Encoding settings                        : cabac=1 / ref=4 / deblock=1:0:0 / analyse=0x3:0x133 / me=umh / subme=9 / psy=1 / psy_rd=1.00:0.00 / mixed_ref=1 / me_range=16 / chroma_me=1 / trellis=1 / 8x8dct=1 / cqm=0 / deadzone=21,11 / fast_pskip=0 / chroma_qp_offset=-2 / threads=18 / lookahead_threads=1 / sliced_threads=0 / nr=0 / decimate=1 / interlaced=0 / bluray_compat=0 / constrained_intra=0 / bframes=3 / b_pyramid=2 / b_adapt=2 / b_bias=0 / direct=3 / weightb=1 / open_gop=0 / weightp=2 / keyint=250 / keyint_min=25 / scenecut=40 / intra_refresh=0 / rc_lookahead=50 / rc=2pass / mbtree=1 / bitrate=8304 / ratetol=1.0 / qcomp=0.60 / qpmin=0 / qpmax=69 / qpstep=4 / cplxblur=20.0 / qblur=0.5 / ip_ratio=1.40 / aq=1:1.00
    * R! o$ h- |: y! S: C8 v0 I& B
  24. Language                                 : English
    % U& _0 m+ e( s. _7 R
  25. Default                                  : Yes- ?4 T' n+ t- ]2 U) K
  26. Forced                                   : No3 Y& l) Q7 t6 O

  27. # z$ S" c* n% K1 `7 V
  28. Audio
    - N9 C" E4 G) c$ W9 d: {* O
  29. ID                                       : 2
    / ^2 y$ _) g3 I5 O
  30. Format                                   : DTS% K* P3 a7 y) n& l
  31. Format/Info                              : Digital Theater Systems
    2 a0 w* V7 C8 `' Z6 v0 @. ~
  32. Mode                                     : 16
    2 d5 u, d1 \2 ?) q' }
  33. Format settings, Endianness              : Big
    0 m" E/ a$ A- A! I" ]; g6 j+ Z- _
  34. Codec ID                                 : A_DTS
    ; G, Y3 Y1 x+ v+ w% _% t
  35. Duration                                 : 2h 23mn
    7 b" U/ e0 I, A; I7 K. x, q, p7 Q' u
  36. Bit rate mode                            : Constant
    8 `% b6 U" }) ?( J6 ?
  37. Bit rate                                 : 1 509 Kbps& ?" X# s1 C0 F" z. t- H
  38. Channel(s)                               : 2 channels
    0 D: i% e5 G% R' b
  39. Channel positions                        : Front: L R9 S% b# V. E, f0 S0 h! j0 f4 N
  40. Sampling rate                            : 48.0 KHz  f$ P9 {: O; D- t
  41. Frame rate                               : 93.750 fps (512 spf): J, {; k( Q1 K( X1 e8 u
  42. Bit depth                                : 24 bits
    & R, F# ]: \5 P2 w; R* c! }
  43. Compression mode                         : Lossy
    : z3 T* t' e6 D# E1 y
  44. Stream size                              : 1.51 GiB (15%)/ a9 P$ |$ U  e
  45. Language                                 : English
    # @0 W' n! a1 o
  46. Default                                  : Yes( x! b5 G5 B( w# N( [2 `
  47. Forced                                   : No+ G( p. M; p8 D* w% u1 X# H
  48. $ p9 ^" A1 a3 B% K
  49. Menu8 ~0 E7 x! @/ \' K/ J' ^
  50. 00:00:00.000                             : en:00:00:00.000
    8 K) {3 v! Q- q3 G
  51. 00:03:35.640                             : en:00:03:35.640) I9 t, T* N% D1 d' D$ k2 c
  52. 00:15:47.760                             : en:00:15:47.760
    ' d4 v! C+ [( D5 G& r* p6 c1 e7 U* m2 i
  53. 00:20:55.400                             : en:00:20:55.4002 G, D% `% U) \: H, f% t% z. A' M
  54. 00:26:09.960                             : en:00:26:09.960, W9 ?) U5 ^" a+ g; |. l5 h) D
  55. 00:32:01.920                             : en:00:32:01.920* x: i2 A. ~4 D
  56. 00:37:52.400                             : en:00:37:52.400/ D+ I0 p1 `- H; j3 M3 Q" A
  57. 00:39:41.520                             : en:00:39:41.520
    8 z6 }* A8 ^! c& v8 h# c: x
  58. 00:46:18.120                             : en:00:46:18.120. N% S2 h( L- u. H! G- y
  59. 00:50:43.600                             : en:00:50:43.600
    # K; ~" j8 ?7 u
  60. 00:55:50.080                             : en:00:55:50.080
    4 B% j: y7 d: P: f7 S
  61. 01:02:41.920                             : en:01:02:41.920
    + z2 M& T' R2 y) f$ b) C1 ?' ~
  62. 01:06:14.840                             : en:01:06:14.840* J; o" r8 t  @4 R( N
  63. 01:14:07.480                             : en:01:14:07.480( E, z# Y5 ]& b; l3 R7 D! Y
  64. 01:21:04.520                             : en:01:21:04.520
    6 s; \! A/ `" f" d' Y) q% ~5 {- W
  65. 01:29:27.800                             : en:01:29:27.800  u7 X/ q& Q  _+ w: h
  66. 01:33:12.400                             : en:01:33:12.400  C$ A4 Y" d: u. e9 C
  67. 01:35:54.320                             : en:01:35:54.320* |4 s8 h* t  O* f
  68. 01:36:51.040                             : en:01:36:51.040" P1 G0 c6 E+ ~; }, z9 y$ A1 v
  69. 01:41:29.440                             : en:01:41:29.440" z6 W4 j4 }4 o2 }' H" F2 ^
  70. 01:46:45.200                             : en:01:46:45.2001 w$ F( a+ G8 R' O3 B  H
  71. 01:57:19.360                             : en:01:57:19.360
    , t1 ]% f6 A* R. Y+ W- b& a
  72. 02:00:20.880                             : en:02:00:20.880
    . @  I% L" r$ I
  73. 02:07:06.080                             : en:02:07:06.0800 D: `2 h7 H2 \# E# b9 A
  74. 02:15:15.520                             : en:02:15:15.520* D4 U: Q; T( p$ f! ?
  75. 02:19:15.280                             : en:02:19:15.280
复制代码

# ]( F6 x! {. ?) d+ ~+ P+ a' p- h5 Z+ z6 p* K  M6 c4 B* y

/ q% C  c9 |6 b+ {" g; z% F3 H9 N- E, ?  e
# R5 V- j8 V% e' q' p6 H- Z0 Q

& ^' @- Q$ [: u. o+ i' j' M% G
8 O7 }2 ~, x- m" a; @2 B: W& g9 d7 I2 [3 J3 j! @% g) Q$ q
游客,如果您要查看本帖隐藏内容请回复  VIP可免回复查看隐藏内容 详情请点击
发表于 2016-12-1 19:53:53 | 显示全部楼层
游客无权限浏览该内容
发表于 2016-12-1 20:18:38 | 显示全部楼层
游客无权限浏览该内容
发表于 2016-12-2 21:14:13 | 显示全部楼层
游客无权限浏览该内容
发表于 2016-12-6 16:33:00 | 显示全部楼层
游客无权限浏览该内容
您需要登录后才可以回帖 登录 | 立即注册

本版积分规则

封号公示|有问题发邮件到admin#(换成@)hd1tj.org|微博|免责申明|HD一条街

GMT+8, 2021-5-15 23:12

快速回复 返回顶部 返回列表