HD一条街

 找回密码
 立即注册
搜索
查看: 481|回复: 3

[欧美] Top Gear圣诞特辑 Top.Gear.From.A-Z.2015.Part.1.720p.BluRay.x264-TAXES 6.56G

[复制链接]
发表于 2016-12-1 16:39:15 | 显示全部楼层 |阅读模式

马上注册,结交更多好友,享用更多功能,让你轻松玩转社区。

您需要 登录 才可以下载或查看,没有帐号?立即注册

x
168225_front.jpg
! c9 R: o0 H$ u+ B1 a. }7 ~. r7 Y$ |6 f% q/ f

/ C' N3 Q+ Z1 y, r3 N
  1. Video2 W+ H; l+ z( A4 P: X$ @
  2. ID                                       : 1$ e1 ?% E9 f  `' G$ g' P8 L. P
  3. Format                                   : AVC
    7 Y. d! R9 y* I6 M- }% t
  4. Format/Info                              : Advanced Video Codec
    4 i, x7 x5 ]# I' y3 h# c3 |7 R; G
  5. Format profile                           : High@L4.1
    & ~" @/ }9 v2 [; M/ a; P/ q
  6. Format settings, CABAC                   : Yes
    ! }- u) L8 r$ L( s  M; i9 b
  7. Format settings, ReFrames                : 5 frames6 h( D# t. I6 J' j! Z+ d* G1 u5 X
  8. Codec ID                                 : V_MPEG4/ISO/AVC% j5 c  W" a( N$ v0 {+ I' ]1 m+ K
  9. Duration                                 : 2h 23mn. K' Q. J* W1 T5 U) i6 N/ v
  10. Bit rate                                 : 5 035 Kbps
    - j7 b4 S6 K8 g& K) M: s' I2 ^
  11. Width                                    : 1 280 pixels
    - Y( O  K4 K) l/ b% T7 m  M2 S
  12. Height                                   : 720 pixels
    / f4 O( j1 S0 i9 |+ t
  13. Display aspect ratio                     : 16:9
    . {2 ?$ m8 P" }/ G7 H* n7 \
  14. Frame rate mode                          : Constant
    & h3 ]8 ?0 S2 E0 M! Y- ?
  15. Frame rate                               : 25.000 fps6 }7 x6 Z" e1 H& f9 Q/ ^
  16. Color space                              : YUV
    1 `. }9 h* _9 ~4 ]- T  n
  17. Chroma subsampling                       : 4:2:0& E& @' j/ y6 R! Y5 ^
  18. Bit depth                                : 8 bits6 M. k' v7 Z: K" L, j
  19. Scan type                                : Progressive
    % K3 y  p# E4 H, J/ v
  20. Bits/(Pixel*Frame)                       : 0.219$ W6 H9 c$ O% m3 f
  21. Stream size                              : 5.05 GiB (77%)7 i8 Q% V, H+ R# S4 G: K6 G
  22. Writing library                          : x264 core 148 r2705 3f5ed56* m/ i4 M6 h% i, b# E1 u3 F
  23. Encoding settings                        : cabac=1 / ref=5 / deblock=1:0:0 / analyse=0x3:0x133 / me=umh / subme=9 / psy=1 / psy_rd=1.00:0.00 / mixed_ref=1 / me_range=16 / chroma_me=1 / trellis=1 / 8x8dct=1 / cqm=0 / deadzone=21,11 / fast_pskip=0 / chroma_qp_offset=-2 / threads=18 / lookahead_threads=1 / sliced_threads=0 / nr=0 / decimate=1 / interlaced=0 / bluray_compat=0 / constrained_intra=0 / bframes=3 / b_pyramid=2 / b_adapt=2 / b_bias=0 / direct=3 / weightb=1 / open_gop=0 / weightp=2 / keyint=250 / keyint_min=25 / scenecut=40 / intra_refresh=0 / rc_lookahead=50 / rc=2pass / mbtree=1 / bitrate=5035 / ratetol=1.0 / qcomp=0.60 / qpmin=0 / qpmax=69 / qpstep=4 / cplxblur=20.0 / qblur=0.5 / ip_ratio=1.40 / aq=1:1.00
    , C, T, E; O0 o0 m+ I* y
  24. Language                                 : English+ p# h) `8 E" k  b
  25. Default                                  : Yes3 o! Q9 T( a) s& u9 g
  26. Forced                                   : No
    ( E2 I0 d' D/ k+ ~, b, n

  27. # C9 @# a. k; _7 k3 }7 }
  28. Audio" d, P6 @* `$ i
  29. ID                                       : 2
    : h: S0 v3 Y! H& `
  30. Format                                   : DTS" `& A- A# W4 L- g" @
  31. Format/Info                              : Digital Theater Systems
    % ~4 n9 ^" x0 W0 v9 U
  32. Mode                                     : 16; \- n+ H) V( x2 {) n5 M" n( {
  33. Format settings, Endianness              : Big
    ' E$ S- t5 c) p& O. z; N4 A
  34. Codec ID                                 : A_DTS+ b' k/ K' y7 `+ ]1 R7 |* e
  35. Duration                                 : 2h 23mn
    , v' i6 G, o1 g! k4 J
  36. Bit rate mode                            : Constant, t# @/ {. k5 [* ~1 a* J$ X
  37. Bit rate                                 : 1 509 Kbps, M/ A% V1 |2 {. o
  38. Channel(s)                               : 2 channels
    , ^7 ~" t, u0 a
  39. Channel positions                        : Front: L R
    . v/ j! B$ B0 w& N6 k7 b* |( ^$ T7 t
  40. Sampling rate                            : 48.0 KHz
      E* C& b, y1 h- l
  41. Frame rate                               : 93.750 fps (512 spf)
    * G# S6 z" i0 t0 O/ V
  42. Bit depth                                : 24 bits
    # w0 _' H) M* V  W0 p+ i8 }) r
  43. Compression mode                         : Lossy
    , f+ c8 b) b. T5 ~
  44. Stream size                              : 1.51 GiB (23%)4 m+ V9 q- ?3 w1 n( s+ M
  45. Language                                 : English7 j% j0 R2 Y2 v7 ^
  46. Default                                  : Yes, D( v! j( I. e7 o( D" a& j
  47. Forced                                   : No
    ' X- b5 q/ ^% P# i5 H$ E6 Y' L( Z' D' L
  48. # g+ B4 _2 w; |; G+ `/ ]  M4 p
  49. Menu
    " {. e' [) q+ t  `/ |
  50. 00:00:00.000                             : en:00:00:00.000
    8 @8 a) o: G/ _2 N
  51. 00:03:35.640                             : en:00:03:35.6402 R& p5 f8 X1 Z4 N
  52. 00:15:47.760                             : en:00:15:47.760$ i( ^/ d8 {7 p  Z+ ^
  53. 00:20:55.400                             : en:00:20:55.400. s) m5 p* g4 b0 h; {. K+ \3 e0 s3 [2 _
  54. 00:26:09.960                             : en:00:26:09.960. d  j* S: B9 x! Q) N; K# |
  55. 00:32:01.920                             : en:00:32:01.920+ u7 n' X7 N, ]
  56. 00:37:52.400                             : en:00:37:52.400
    - x' N1 [, E% O: t
  57. 00:39:41.520                             : en:00:39:41.520
    1 H( ?$ M. o/ D" j, y3 d
  58. 00:46:18.120                             : en:00:46:18.120. \# b8 Z& Y- b6 q
  59. 00:50:43.600                             : en:00:50:43.600* @8 u! }% \# v6 b* J: _) L- v
  60. 00:55:50.080                             : en:00:55:50.080) X9 J+ T- K4 @6 R$ \2 N% }
  61. 01:02:41.920                             : en:01:02:41.920
      a( v# ]9 L! N
  62. 01:06:14.840                             : en:01:06:14.8400 A5 Z" _# C, t' E. S( N
  63. 01:14:07.480                             : en:01:14:07.480
    ! s4 @$ p/ f) s/ }: g# V1 S( t
  64. 01:21:04.520                             : en:01:21:04.520
    8 I* m, i$ A# U8 K' f8 h
  65. 01:29:27.800                             : en:01:29:27.800& N1 o) ]# H' s6 W: l1 I8 ~) b
  66. 01:33:12.400                             : en:01:33:12.400
    6 O+ O+ v2 Q7 ?& L' D
  67. 01:35:54.320                             : en:01:35:54.320
    9 {& _+ }& {; x6 M
  68. 01:36:51.040                             : en:01:36:51.040
    / x1 J/ b4 [; C% x
  69. 01:41:29.440                             : en:01:41:29.4408 N7 V% q" f% D9 M
  70. 01:46:45.200                             : en:01:46:45.2001 N! l, \- Y1 v# \
  71. 01:57:19.360                             : en:01:57:19.360
    0 y  D9 C( ~# l# z9 ^& ~) v: O1 ?
  72. 02:00:20.880                             : en:02:00:20.880- W2 T3 P; w! i! d
  73. 02:07:06.080                             : en:02:07:06.080
    3 z1 M( I# j' m6 C5 u( k  x& i
  74. 02:15:15.520                             : en:02:15:15.520
    ' [1 j3 B! d( Y) \/ N
  75. 02:19:15.280                             : en:02:19:15.280
复制代码

% o; g* t4 B: m7 ]- [  G* o) w/ g4 L" q6 c- n' |% s! r8 R9 t4 H

: c* d. N0 W# v1 w& J4 Q
+ B# j4 ]& U' t( J' \
1 W2 R4 |5 W! @$ X/ g
9 A3 L8 ]$ q) K& R8 u2 A6 w, P; q  r" [, P0 O$ s9 \

' ]$ b  t3 U+ h' B0 d! R- [
游客,如果您要查看本帖隐藏内容请回复  VIP可免回复查看隐藏内容 详情请点击
发表于 2016-12-1 21:46:43 | 显示全部楼层
游客无权限浏览该内容
头像被屏蔽
发表于 2016-12-2 12:37:55 | 显示全部楼层
提示: 作者被禁止或删除 内容自动屏蔽
发表于 2016-12-11 08:56:22 | 显示全部楼层
游客无权限浏览该内容
您需要登录后才可以回帖 登录 | 立即注册

本版积分规则

封号公示|有问题发邮件到admin#(换成@)hd1tj.org|微博|免责申明|HD一条街

GMT+8, 2021-5-15 00:51

快速回复 返回顶部 返回列表