开启辅助访问 切换到窄版

HD一条街论坛

 找回密码
 立即注册
查看: 28|回复: 3

[1080i] 相爱十年/天堂向左,深圳向右 *慕容雪村小说改编,邓超、董洁主演 Ten Years of Love Complete WEB-DL 1080P H264 AAC-LeTV 31.65G

[复制链接]
发表于 2016-11-25 18:19:42 | 显示全部楼层 |阅读模式
628aabfdjw1ehkmlaa14tj21kw28g7wh.jpg
' N1 m0 M" U1 s: d  ?7 s9 V' r4 X0 ?  {' l2 n2 w3 S6 J7 h' y
中文名:相爱十年$ m; A, d$ `, t+ F$ `' c! T
外文名:Ten years of love
: v+ |/ V* v- c: _4 a7 _" k) I其它译名:《天堂向左》
+ t" U; W! G( c* A0 B8 }出品时间:2014年- p- U0 D, {$ O% R- b& L6 U- }
出品公司:新丽传媒股份有限公司( q) u+ Z$ \9 u: I8 x
制片地区:中国内地7 z" ?$ x. Z* |. d
拍摄地点:深圳
  m0 O/ x$ }* z  i  e& s导    演:刘惠宁7 i- L0 W+ z) _8 a' n9 L2 T6 b+ b
编    剧:霍昕
- @' X( p0 X& J7 G/ Q5 s主    演:邓超,董洁,高虎,王大治& q( }; [1 o: n
集    数:34集
. D- M" O+ ~* \( K" B8 S每集长度:45分钟# G& U1 z, z9 _' W$ T
类    型:都市,爱情,剧情
! e/ x- P( K3 q* L上映时间:2014年06月23日' ?) D: [- i3 D5 a- K$ D: K: n" h
制片人:张谦
: b. }6 V; p/ _出品人:肖秋凯. _$ k7 ]% W, b, B6 N! F. d
总监制:李晶晶% Y% ^) Y" p) J" t
播出平台:湖南卫视
) E5 F' R2 d* `播出剧场:金鹰独播剧场, n2 l; f1 |7 A$ q
播出时间:19:30
6 R9 K# u' O4 E* z% ^) g网络平台:待定
% i; t' a, H9 D1 T原    著:《天堂向左,深圳往右》慕容雪村
1 l( @8 `' {4 L5 ~1 e4 p0 B$ n
0 m3 l3 S, v- a7 t# y剧情简介& w3 X% K' R" s1 g" E: U/ \
     《相爱十年》描绘的邓超饰演的主角肖然从上世纪90年代一个普通白领奋斗成亿万富翁,创业暴富后在金钱和欲望中迷失自我,其间穿插了亲情、友情、爱情等元素,经历种种人性考验的际遇,具有很深刻的现实意义。本剧在2012年01月开拍,即将在2014年湖南卫视黄金强档隆重播出。$ v  f: y$ p" i& |' ?, w! u# \
上世纪80年代末,肖然、刘元、陈启明三位大学同学毕业后先后来到改革开放前沿深圳创业,出身农村的肖然和刘元共同喜欢上女同学韩灵。" j: o  @; K4 ^3 @& T4 p) a

2 q# d5 b2 B  O; D* c) A. ?     刘元发现了肖然跟韩灵的恋爱关系后狠狠地奚落了肖然,二人产生矛盾。肖然发誓要让韩灵过上富足的生活,他在商场上几经沉浮,终于站住了脚,最后发展成拥有两家上市公司的企业老板。可当他事业走上巅峰的时候,情感却走向了困境。刘元一开始处处与肖然为敌,可他最后发现这并不能让自己快乐起来,于是决定重新规划自己的人生,学会了珍惜和善待身边的每一个人。陈启明因不堪忍受生活的重压“嫁给”了蓝园村村长的女儿,可这段没有爱情的婚姻并没有使他得到幸福。儿子的失而复得、妻子的善良大度让他看到了人性的真善美,最终回归家庭。
4 t6 I  X# t8 T, Z0 ^
0 G; G+ j9 c( o' f' D; P

3 S8 }- x; F4 `4 k' d' x( `3 {2 z6 }2 ]& O                               
登录/注册后可看大图

1 X' H2 ^9 w- f" T' ~4 |* p1 [- W/ Q& S1 C: l/ P; ~
General* ^0 w* X' C9 x; @
Complete name                  : K:\Ten.Years.of.Love.Complete.WEB-DL.1080p.H264.AAC-LeTV\Ten.Years.of.Love.E01.WEB-DL.1080P.H264.AAC-LeTV.mp4
8 P0 _$ F' |) UFormat                         : MPEG-4( y: G3 C; I+ o: B9 b  w; Q" B
Format profile                 : Base Media
4 O0 b5 C* X8 A  |1 n( QCodec ID                       : isom (isom/iso2/avc1/mp41)8 D- z/ c* w; T0 ]0 ]! X
File size                      : 1 008 MiB
) l0 h/ F0 Z# t2 I* {Duration                       : 44 min
9 r, h& J, _+ I3 A  p! D; d. LOverall bit rate mode          : Variable- j6 A  n% T8 R8 z. q
Overall bit rate               : 3 136 kb/s# |" ^3 n9 Z: d
Writing application            : Lavf57.25.100
- Q+ y6 E* m( v7 ?0 o/ s0 l: T4 j9 {+ ?) E$ s: I
Video/ ~. h% [% Q" C  C$ }
ID                             : 1
& d3 [* E  A+ U8 R+ `Format                         : AVC& l3 u$ L8 t' C2 r
Format/Info                    : Advanced Video Codec) p8 [1 r3 o, E* p( o7 [9 D
Format profile                 : [email protected]
8 o; \3 ]2 |+ Q& w2 |- d- HFormat settings, CABAC         : Yes
" h* v5 F+ v3 T2 r# f$ w2 I. QFormat settings, ReFrames      : 4 frames6 y2 F0 Z; C+ x; E% [8 q4 ~
Codec ID                       : avc1
! W+ |$ k/ N' dCodec ID/Info                  : Advanced Video Coding
- X3 M+ \% T9 G! b/ qDuration                       : 44 min
' @+ K1 X% G6 ~Bit rate                       : 3 001 kb/s9 i+ l8 E$ |1 ]% m2 D+ x
Width                          : 1 920 pixels
$ d7 w) `& a& ]; B* tHeight                         : 1 072 pixels2 Y# A% z9 m5 H% W
Display aspect ratio           : 16:93 E/ |9 T$ F7 S, Z& `; h
Frame rate mode                : Constant
/ O+ S: Z7 U0 V! O) j9 c% [8 m. b# QFrame rate                     : 25.000 FPS
/ O( q# \1 U  fColor space                    : YUV
, u: Q; Q0 X' u7 |6 PChroma subsampling             : 4:2:0
4 S9 P: ~5 a( F; PBit depth                      : 8 bits
, H1 b1 N* V7 V; s% {3 [Scan type                      : Progressive
; M1 Z" O$ B% u3 V: v+ kBits/(Pixel*Frame)             : 0.0584 x8 g$ T4 o* f, I; A
Stream size                    : 964 MiB (96%); N4 a( V# Z* z- U" @% \
Writing library                : Provided by x264  :: H.264/MPEG-4 AVC codec -V 1.6.07
1 a/ o+ }6 u" \+ _* x7 VColor range                    : Limited9 r7 ?) o0 g" J+ T# W& s) h7 K
Color primaries                : BT.709
8 s( X, B7 _' OTransfer characteristics       : BT.7099 F/ X+ _( f7 T) N/ R% ~- `
Matrix coefficients            : BT.7090 d" v# T# X  e7 Z  y: Y3 o

3 \# h9 x/ s# c) a1 b. J9 U3 CAudio$ H/ U0 q/ w. V$ Z$ P1 W
ID                             : 2% h2 c$ \0 E  k5 B
Format                         : AAC
% R) v7 ~9 m, t- UFormat/Info                    : Advanced Audio Codec  I: U; Q8 z/ G4 f
Format profile                 : LC
0 n, O' ]5 F* v/ yCodec ID                       : 40( {  o1 H0 E+ P% a! m" ?# h
Duration                       : 44 min3 L3 A" V2 Q: a" Z
Bit rate mode                  : Variable/ L" {, t9 C1 _
Bit rate                       : 128 kb/s
4 E* C8 ?, Z# NMaximum bit rate               : 131 kb/s  [+ B5 |% q; B0 f
Channel(s)                     : 2 channels
& x  p) f7 S: ~( V% v( [Channel positions              : Front: L R
6 L: J4 W& f+ c& J3 P- ESampling rate                  : 44.1 kHz
4 ]8 a8 T* g$ E% k' G6 q) rFrame rate                     : 43.066 FPS (1024 spf)
4 x; M( }4 Z7 A" d7 HCompression mode               : Lossy" h5 I2 a0 ]/ x8 C' Z
Stream size                    : 41.1 MiB (4%)8 N( g  e4 K# {6 g, x$ X7 h& C
Default                        : Yes
7 ?$ `5 H0 Z8 K# j0 |' N: U& yAlternate group                : 1
/ _7 U' ~% \  N% `# X+ }, [8 N) K  g# x# ?$ z3 E
郑重声明:* S+ _6 a  V) s0 W
本站提供的所有影视综艺作品均是在网上搜集,任何涉及商业盈利目的均不得使用,否则产生的一切后果将由您自己承担!本站将不对本站的任何内容负任何法律责任!该下载内容仅做宽带测试使用,请在下载后24小时内删除。请购买正版!

% H7 L& v5 u* h+ C& v6 T/ L+ n1 W1 u, {6 a4 l4 `3 u; C( E
百度网盘
% e9 Q9 m6 _) ]% j* i# [% M) c& \1 P$ F4 z# D
游客,如果您要查看本帖隐藏内容请回复  捐助论坛可免回复查看隐藏内容详情请点击
HD一条街,身边的一条街。
发表于 2016-11-26 07:32:03 | 显示全部楼层
感謝樓主熱心製作和分享高清资源!
HD一条街,身边的一条街。
发表于 7 天前 | 显示全部楼层
好看好看啊
HD一条街,身边的一条街。
您需要登录后才可以回帖 登录 | 立即注册

本版积分规则

手机版|小黑屋|有问题发邮件到admin#(换成@)hd1tj.org|微博|免责申明|HD一条街

GMT+8, 2016-12-6 22:04

Powered by Discuz! X3.1

© 2001-2013 Comsenz Inc.

快速回复 返回顶部 返回列表