HD一条街

 找回密码
 立即注册
搜索
查看: 744|回复: 6

[1080i] 相爱十年/天堂向左,深圳向右 *慕容雪村小说改编,邓超、董洁主演 Ten Years of Love Complete WEB-DL 1080P H264 AA

[复制链接]
发表于 2016-11-25 18:19:42 | 显示全部楼层 |阅读模式

马上注册,结交更多好友,享用更多功能,让你轻松玩转社区。

您需要 登录 才可以下载或查看,没有帐号?立即注册

x
628aabfdjw1ehkmlaa14tj21kw28g7wh.jpg 7 J7 C( _  ^% W/ m% K+ N; v
4 i) v. D+ x! j0 @/ n
中文名:相爱十年
6 M7 J2 P, D* M. R2 l外文名:Ten years of love$ g7 @7 e$ h5 A: ?7 y" g1 p  n
其它译名:《天堂向左》
! T, B6 H, q7 C8 j. q$ b出品时间:2014年
; D# {9 s9 Y! v9 z; [5 ?0 r出品公司:新丽传媒股份有限公司) j: e! n  R7 e$ g3 l! w' ]! U, Z
制片地区:中国内地8 }5 K9 N$ k5 o0 |/ l# F
拍摄地点:深圳
' L, V$ @! F% g- |. y8 ^0 Z导    演:刘惠宁
$ u" i  Z3 V4 Z! a& T/ Y8 t5 U8 \4 W编    剧:霍昕
# _4 e$ K% M2 j+ |7 T; O$ q$ o6 S主    演:邓超,董洁,高虎,王大治
4 G  g+ H% ?" C7 @# p/ P集    数:34集
$ }  `6 x  V4 Z! D* {8 s2 }" {, p每集长度:45分钟
1 K; }- Y$ |  |7 y8 `类    型:都市,爱情,剧情9 Z% H' e) e0 E. a( v
上映时间:2014年06月23日! m4 D* t* t8 D- K2 J( o7 d
制片人:张谦8 w+ g/ n+ G- l/ x; k. y; D2 C
出品人:肖秋凯
6 I. x# x0 v3 L4 m- @2 n总监制:李晶晶
% I9 C8 V. r+ K2 P; E0 [$ ]% h播出平台:湖南卫视, ?( i" x) p3 M0 I  F4 m
播出剧场:金鹰独播剧场% g  u! J6 ^" Q$ `) d& [2 B6 |3 V6 D' Q
播出时间:19:302 Q8 D; W, N  X" C- _' _+ ]  M9 Z
网络平台:待定
2 M" H" z# P5 K, L$ ]2 |( S& ~0 \原    著:《天堂向左,深圳往右》慕容雪村
+ O& ^* L% |( x$ Z1 `! R, J- N
( z+ t1 C+ @- i! t剧情简介
1 t  H, B/ r1 W9 |' [* H& x     《相爱十年》描绘的邓超饰演的主角肖然从上世纪90年代一个普通白领奋斗成亿万富翁,创业暴富后在金钱和欲望中迷失自我,其间穿插了亲情、友情、爱情等元素,经历种种人性考验的际遇,具有很深刻的现实意义。本剧在2012年01月开拍,即将在2014年湖南卫视黄金强档隆重播出。
, q$ l0 d% a4 t0 x' H% o: U上世纪80年代末,肖然、刘元、陈启明三位大学同学毕业后先后来到改革开放前沿深圳创业,出身农村的肖然和刘元共同喜欢上女同学韩灵。
" u: c- L" F! \3 t/ L8 w1 h7 D- Q" s8 d) n% y2 l' f
     刘元发现了肖然跟韩灵的恋爱关系后狠狠地奚落了肖然,二人产生矛盾。肖然发誓要让韩灵过上富足的生活,他在商场上几经沉浮,终于站住了脚,最后发展成拥有两家上市公司的企业老板。可当他事业走上巅峰的时候,情感却走向了困境。刘元一开始处处与肖然为敌,可他最后发现这并不能让自己快乐起来,于是决定重新规划自己的人生,学会了珍惜和善待身边的每一个人。陈启明因不堪忍受生活的重压“嫁给”了蓝园村村长的女儿,可这段没有爱情的婚姻并没有使他得到幸福。儿子的失而复得、妻子的善良大度让他看到了人性的真善美,最终回归家庭。
" e6 P2 o1 s% w  K
1 f& ]: g  p. [+ }2 p% ?

5 i  C9 o2 n8 H/ T* a                               
登录/注册后可看大图

9 o- q, U( q3 Q8 p2 Z! w
* n1 ^; A/ P( S4 ~  gGeneral
3 C" Q- ~( Q7 L. b2 GComplete name                  : K:\Ten.Years.of.Love.Complete.WEB-DL.1080p.H264.AAC-LeTV\Ten.Years.of.Love.E01.WEB-DL.1080P.H264.AAC-LeTV.mp4
, p$ I/ N: Z+ B# AFormat                         : MPEG-4
3 a0 o. N+ ^3 D3 HFormat profile                 : Base Media
/ m# m$ B5 z( `" N9 sCodec ID                       : isom (isom/iso2/avc1/mp41)
" T0 l9 ]* E+ T6 K+ eFile size                      : 1 008 MiB/ [4 d0 ], U" G3 O0 E
Duration                       : 44 min
7 g. B+ ^5 d/ f& c; Z- lOverall bit rate mode          : Variable  ^+ a  y) _6 I
Overall bit rate               : 3 136 kb/s1 c1 {' x( I- j2 i1 m# y
Writing application            : Lavf57.25.100# B# V2 t7 ^3 z% V; h0 @- P
' L/ d2 R) K! |
Video# f2 S/ u0 C) w/ B
ID                             : 1
7 s" Z" h$ ]7 s: o7 s5 D; UFormat                         : AVC
0 e$ K, D3 K) z5 K  iFormat/Info                    : Advanced Video Codec) J% z8 |$ b' C2 S: \
Format profile                 : High@L40 U2 [" V% h7 F, `0 \$ \2 `
Format settings, CABAC         : Yes) O5 R1 H2 F: z0 N' x+ W' c- x
Format settings, ReFrames      : 4 frames  ~; K2 `1 a: C0 Q
Codec ID                       : avc1
, s3 [* s' X. {$ }Codec ID/Info                  : Advanced Video Coding
6 r; I3 ]+ M' w) s* VDuration                       : 44 min$ u( V8 d$ q6 o0 ?/ f
Bit rate                       : 3 001 kb/s8 `; i2 B1 i- U+ e, f
Width                          : 1 920 pixels0 H& |7 `' J) J2 |  c
Height                         : 1 072 pixels
8 _: d0 p: N4 l$ T4 _- I8 H. S/ @# EDisplay aspect ratio           : 16:9
, P! h2 N2 M* fFrame rate mode                : Constant! ~8 y: S6 _6 H$ u0 D
Frame rate                     : 25.000 FPS
/ V1 i; A8 Q. d3 ^  G. |Color space                    : YUV1 V5 R3 B# X' t7 [( [- w
Chroma subsampling             : 4:2:0
& ]! [3 Y/ J- n0 k- vBit depth                      : 8 bits1 Y& ~, U/ Z' Q9 C; `3 u% c/ B
Scan type                      : Progressive
. r, k9 j7 Q& x( RBits/(Pixel*Frame)             : 0.058+ p8 ~3 |0 f+ {
Stream size                    : 964 MiB (96%)* y4 M" g9 \( p( R0 F
Writing library                : Provided by x264  :: H.264/MPEG-4 AVC codec -V 1.6.07
5 @) u- |: m2 l) ~0 }Color range                    : Limited5 C; N5 ]9 K! Q4 G% K
Color primaries                : BT.709# B4 }& H4 \% N2 g( H
Transfer characteristics       : BT.709
8 ]' C9 T4 g% O5 e0 f/ h% EMatrix coefficients            : BT.709
( M( _0 X& Q. k, F7 `, v+ c
) i5 g% ~7 O  R; H7 }8 c% pAudio- j' y; j0 e& ]& C% i6 I/ m
ID                             : 22 @# z$ H0 U% [- Q: N8 G/ b
Format                         : AAC
4 `' M7 i4 w5 u2 ~9 u2 r& k. TFormat/Info                    : Advanced Audio Codec5 N, f: ]5 M; y; Z; I( H
Format profile                 : LC
7 Z2 A  T( [0 K" VCodec ID                       : 40% D9 ~8 i/ }& b1 M- |( \$ ?
Duration                       : 44 min, E3 T) W+ r1 ]/ I
Bit rate mode                  : Variable  E+ X( A* F. L. W0 w4 N
Bit rate                       : 128 kb/s
/ Z% K  z6 L* z3 q8 oMaximum bit rate               : 131 kb/s- k% c6 Z. l6 I) D  ]. w( H% W
Channel(s)                     : 2 channels
. F- E% n) Y( @: B$ o' PChannel positions              : Front: L R, \* j0 ]+ W; H/ e; E" \; f1 k: @
Sampling rate                  : 44.1 kHz
' g7 E, S) `1 E, e! QFrame rate                     : 43.066 FPS (1024 spf)
2 I# C( ~6 @; PCompression mode               : Lossy5 t- S3 K/ G0 r% o% U
Stream size                    : 41.1 MiB (4%)
3 r  o* O, x5 }6 P8 vDefault                        : Yes
6 s5 m% D) c7 U- R% T, n; JAlternate group                : 1' @7 M3 S; P7 y( M1 j3 O5 a4 ?
1 r- n* z& c6 W8 k0 [7 C  @4 z
郑重声明:( ?7 j5 y* I; J" l" r+ f+ M& {& T
本站提供的所有影视综艺作品均是在网上搜集,任何涉及商业盈利目的均不得使用,否则产生的一切后果将由您自己承担!本站将不对本站的任何内容负任何法律责任!该下载内容仅做宽带测试使用,请在下载后24小时内删除。请购买正版!

" y  y7 Z* e  B1 t% N7 I$ N! |0 ?$ o" |' w3 K
百度网盘
4 w  Z+ R: w, j. g( ~! m: Q3 Y$ g- n4 w7 @8 h. Z3 w5 ~) @5 n8 H4 D
游客,如果您要查看本帖隐藏内容请回复  VIP可免回复查看隐藏内容 详情请点击
发表于 2016-11-26 07:32:03 | 显示全部楼层
游客无权限浏览该内容
白折 该用户已被删除
发表于 2016-11-29 21:57:49 | 显示全部楼层
提示: 作者被禁止或删除 内容自动屏蔽
发表于 2016-12-26 11:26:56 | 显示全部楼层
游客无权限浏览该内容
发表于 2017-1-3 17:04:04 | 显示全部楼层
游客无权限浏览该内容
发表于 2017-11-8 20:37:40 | 显示全部楼层
游客无权限浏览该内容
您需要登录后才可以回帖 登录 | 立即注册

本版积分规则

封号公示|有问题发邮件到admin#(换成@)hd1tj.org|微博|免责申明|HD一条街

GMT+8, 2021-5-15 23:10

快速回复 返回顶部 返回列表