开启辅助访问 切换到窄版

HD一条街论坛

 找回密码
 立即注册
查看: 34|回复: 2

[欧美] 人类星球 第一季 Human.Planet.S01.720p.BluRay.x264-SHORTBREHD 21.2G

[复制链接]
发表于 2016-11-22 15:10:53 | 显示全部楼层 |阅读模式
21125_front.jpg
1 R2 n1 @8 @, b5 L# k
! K* \0 J8 X3 ?0 ~6 w; Y
: s4 B( e9 q3 D6 P/ f8 f! W' L6 E◎译  名 人类星球7 O# I+ B6 @) P: C6 O+ C( Q+ @  X
◎片  名 Human Planet& R) z$ H8 R3 U2 P7 `' E7 H; z
◎年  代 2011
$ v& j% E( P/ I5 C8 k, N7 o◎国  家 英国
4 {5 ~. }* P2 r1 @6 g◎类  别 纪录片
3 C( Q9 t( o" D+ f2 t# i◎语  言 英语
" J3 V6 J$ v8 V6 W. E: I  H+ H◎字  幕   N/A. ^& x' y: W4 ~" ?
◎整  理   HD一条街 www.hd1tj.org- u* D" C8 t1 Y- ?8 G/ Q9 W
◎上映日期 2011-01-12(英国)
. H8 q, u# H! |◎IMDb评分  9.1/10 from 13,645 users! B3 r) a8 s  e* f2 q+ N* D
◎IMDb链接  http://www.imdb.com/title/tt1806234/
7 l* x+ s% I5 n* O1 v◎豆瓣评分 9.8/10 from 8,530 users* v" c4 r+ K$ K) D4 O6 p
◎豆瓣链接 https://movie.douban.com/subject/5950117/7 t  w! C, ~# y! d- W) |
◎集  数 8) l/ _6 i" g. I! N; s
◎片  长 59分钟
; M$ S+ g( O# A8 b( J- C◎导  演 Tom Hugh-Jones / Tuppence Stone / Nicolas Brown / Mark Flowers
; S) [# n/ Y  E7 v- e7 F  I) Z◎主  演 约翰·赫特 John Hurt1 L3 o1 e  D2 I7 ]# h2 S3 h
5 @7 Z% q* Q5 \2 Z
◎简  介. \9 N* j$ |" ^4 K5 p& U
" @5 X9 Z, n! ?
  BBC8集大型电视系列片 - Human Planet (人类星球),探讨人与自然的关系。8集节目分别探讨极地、山区、海洋、丛林、草原、河流、沙漠和城市的人类活动。世界一流的自然与人类专家以及摄影师,从空中、陆地和水下抓拍珍贵镜头。BBC摄制组前往世界80个地方,抓拍了从未在电视屏幕上出现过的罕见精彩的人类活动。
  1. Video- h* Y5 j9 ~6 {; e2 A& m$ h
  2. ID                                       : 1
    $ a3 p0 k, ?% r  Z
  3. Format                                   : AVC
    ! h; B5 @5 ?  n# {. B
  4. Format/Info                              : Advanced Video Codec% I% O6 s8 U0 |# O6 q- A3 _
  5. Format profile                           : [email protected]4 g) m& d( ]& p4 {% N( p
  6. Format settings, CABAC                   : Yes/ F' u0 ^, ]+ m
  7. Format settings, ReFrames                : 5 frames/ r7 R2 |# V, I
  8. Codec ID                                 : V_MPEG4/ISO/AVC
    ' B) p+ i" V' G. V* O- D
  9. Duration                                 : 58mn 12s5 N% K  z( \# Z( n! n3 o
  10. Bit rate                                 : 4 998 Kbps
    / K# C' c& X, @8 E' n6 r. D
  11. Width                                    : 1 280 pixels. U8 j" G5 A5 [- P1 o( B
  12. Height                                   : 720 pixels
    - h. k* |' |  B2 I( F5 r
  13. Display aspect ratio                     : 16:9
      G" D0 R8 k$ d5 p3 t
  14. Frame rate mode                          : Constant7 ]$ C0 u9 y6 |0 x4 ]9 N/ |
  15. Frame rate                               : 25.000 fps
    * ~% O8 X* w6 U3 U# Q  R
  16. Color space                              : YUV# ]( g$ F* O- I) s* B2 W
  17. Chroma subsampling                       : 4:2:0# [7 T+ d: ~" }4 @8 Q
  18. Bit depth                                : 8 bits0 Y# x* q3 b  l) l# J
  19. Scan type                                : Progressive/ q+ s" ]/ H* h  a- |- T1 u7 _
  20. Bits/(Pixel*Frame)                       : 0.217  P1 x; ~, N# c$ n+ {. U$ _
  21. Stream size                              : 1.99 GiB (75%)
    0 e6 z7 |% z6 Q7 C
  22. Writing library                          : x264 core 114 r1900 60ef1f8
    8 l0 w- S0 W& h
  23. Encoding settings                        : cabac=1 / ref=5 / deblock=1:0:0 / analyse=0x3:0x113 / me=umh / subme=8 / psy=1 / psy_rd=1.00:0.00 / mixed_ref=1 / me_range=16 / chroma_me=1 / trellis=1 / 8x8dct=1 / cqm=0 / deadzone=21,11 / fast_pskip=1 / chroma_qp_offset=-2 / threads=12 / sliced_threads=0 / nr=0 / decimate=1 / interlaced=0 / constrained_intra=0 / bframes=3 / b_pyramid=2 / b_adapt=2 / b_bias=0 / direct=3 / weightb=1 / open_gop=0 / weightp=2 / keyint=250 / keyint_min=25 / scenecut=40 / intra_refresh=0 / rc_lookahead=50 / rc=2pass / mbtree=1 / bitrate=4998 / ratetol=1.0 / qcomp=0.60 / qpmin=0 / qpmax=69 / qpstep=4 / cplxblur=20.0 / qblur=0.5 / ip_ratio=1.40 / aq=1:1.00( W! {/ H4 ?2 {" m/ b! W, y+ W
  24. Language                                 : English: o+ Z2 E7 e: J1 |
  25. Default                                  : Yes. P8 b2 Y* C* T; K; }& i
  26. Forced                                   : No
    , V# H' k, W0 Q" }: t3 s7 c! y

  27. : k4 g6 z  `2 v  i  n
  28. Audio
    + S: Y5 q9 r& ]  O1 X( K% h, f
  29. ID                                       : 2
    ! g3 \% w; A1 c+ G
  30. Format                                   : DTS
    . U; s2 l2 @7 I$ A# O( P9 y" u
  31. Format/Info                              : Digital Theater Systems
    ! o9 O1 C: z& M# B4 H! N. r( O) m
  32. Mode                                     : 16
    7 a) ~4 e: C# u
  33. Format settings, Endianness              : Big% I  l; w# }7 e/ Y7 g. N' z! ]7 `
  34. Codec ID                                 : A_DTS( n' a8 s* z2 z$ d0 i
  35. Duration                                 : 58mn 12s, Z5 R3 k0 }0 a& r
  36. Bit rate mode                            : Constant9 g* B# D5 W; i- L( _/ w9 |; D, s# `
  37. Bit rate                                 : 1 509 Kbps5 H' h0 L6 I' b" U" n% Z
  38. Channel(s)                               : 6 channels
    ! F( L7 [* S. u8 Y% q% r0 i+ S
  39. Channel positions                        : Front: L C R, Side: L R, LFE) H$ {' e' ]6 c. q% y0 A6 H
  40. Sampling rate                            : 48.0 KHz  I1 |6 ~8 [4 Z
  41. Frame rate                               : 93.750 fps (512 spf)
    , W  y+ S# l3 W% e
  42. Bit depth                                : 24 bits
    ' S, b( A0 E8 N' A2 V( K8 V5 z
  43. Compression mode                         : Lossy: J0 Z. a0 A" N) s% @
  44. Stream size                              : 628 MiB (23%)
    3 L7 {( L1 q0 t" }
  45. Language                                 : English  R% l4 w& p3 W: r3 Z
  46. Default                                  : Yes( _) h7 U  `. {2 o' i4 [6 e
  47. Forced                                   : No2 \, g9 K( Y* X7 u

  48. * {. P" i2 j: E. a5 Y$ p7 |
  49. Menu* V% f& i5 G* r, @! ?* ]2 i% C* o
  50. 00:00:00.000                             : en:00:00:00.000$ b4 k& d& R' _% U" A) f/ X
  51. 00:10:08.840                             : en:00:10:08.840  {% Q+ g  S. {7 x* o, H% q
  52. 00:19:24.080                             : en:00:19:24.080
    ) _3 u7 W  \9 h+ a3 e
  53. 00:29:09.320                             : en:00:29:09.320
    4 ?$ [# V" e8 T! ?2 T" L# {
  54. 00:41:12.320                             : en:00:41:12.320
    6 E) a# [3 z1 _3 ]( ~6 Y  a
  55. 00:47:49.480                             : en:00:47:49.480
复制代码

3 [: \8 \$ t4 ?8 A5 a
- E: o- S; i* z
$ B) W% g% L8 X* `" S! G" g+ n) a; {* B# s- j7 E+ i6 J/ a
, Q* W2 Z- O9 a8 }/ }! Y2 |
4 X9 g8 h! t; ?# i

% O1 A; f, a" a" Z) N5 ~+ d' D8 z! n, ^7 K3 S

- o; w7 u8 P! [: P7 m2 P, s0 {
游客,如果您要查看本帖隐藏内容请回复  捐助论坛可免回复查看隐藏内容详情请点击
最近访问 头像模式 列表模式
HD一条街,身边的一条街。
发表于 2016-11-22 21:29:50 | 显示全部楼层
等这么就终于出来了。多谢楼主
HD一条街,身边的一条街。
发表于 2016-11-22 22:35:33 | 显示全部楼层
其实我以为是科幻片
HD一条街,身边的一条街。
您需要登录后才可以回帖 登录 | 立即注册

本版积分规则

手机版|小黑屋|有问题发邮件到admin#(换成@)hd1tj.org|微博|免责申明|HD一条街

GMT+8, 2016-12-7 01:56

Powered by Discuz! X3.1

© 2001-2013 Comsenz Inc.

快速回复 返回顶部 返回列表