开启辅助访问 切换到窄版

HD一条街论坛

 找回密码
 加入我们
查看: 47|回复: 2

[欧美] 人类星球 第一季 Human.Planet.S01.720p.BluRay.x264-SHORTBREHD 21.2G

[复制链接]
发表于 2016-11-22 15:10:53 | 显示全部楼层 |阅读模式
21125_front.jpg
( K4 }9 I5 j+ a% c, o8 a) P2 O: @* X7 x( _. S
) ]8 Z- t" T. I- g7 O
◎译  名 人类星球
- n& `$ Z/ _, P$ e, o- k◎片  名 Human Planet
3 A/ X6 ]3 }2 r4 Z" P2 `+ l◎年  代 2011
: N3 [3 ~1 G3 L◎国  家 英国
" p2 o' Z' v0 x# J% Z* ^' a◎类  别 纪录片2 Z2 ]5 r( o3 e- d
◎语  言 英语
1 B% [9 g: I; @& _2 `◎字  幕   N/A, m+ G+ {, }+ j, O7 c; ]" M- y
◎整  理   HD一条街 www.hd1tj.org& l' u. L" b6 h2 s4 Y5 @
◎上映日期 2011-01-12(英国)
+ z0 E2 _' W! N& l, U. L◎IMDb评分  9.1/10 from 13,645 users  ~$ O, p9 m9 J, D( T3 o
◎IMDb链接  http://www.imdb.com/title/tt1806234/
* D+ B! ^' @- ^! R6 }◎豆瓣评分 9.8/10 from 8,530 users% N, G  G7 q/ e) E
◎豆瓣链接 https://movie.douban.com/subject/5950117/
# y# G7 w: N" C◎集  数 8
5 M9 C' D$ U4 ^0 k4 d/ n7 u/ A5 b◎片  长 59分钟
# Q8 a# U4 S, t5 m◎导  演 Tom Hugh-Jones / Tuppence Stone / Nicolas Brown / Mark Flowers
+ E, e# y8 s; m+ A: y9 u◎主  演 约翰·赫特 John Hurt
& b- R% ]- w- l" d. l  A( j
' B* g2 V: t3 E◎简  介
6 |2 R* @) e; W0 H1 o3 d0 W) U2 `. c( a7 ]. X0 K
  BBC8集大型电视系列片 - Human Planet (人类星球),探讨人与自然的关系。8集节目分别探讨极地、山区、海洋、丛林、草原、河流、沙漠和城市的人类活动。世界一流的自然与人类专家以及摄影师,从空中、陆地和水下抓拍珍贵镜头。BBC摄制组前往世界80个地方,抓拍了从未在电视屏幕上出现过的罕见精彩的人类活动。
  1. Video# T0 A7 Q5 @0 K0 G: `9 x! S+ b- v
  2. ID                                       : 1
      c/ z9 b# I7 N( u8 V# G0 B( `- G( @
  3. Format                                   : AVC
    ; K/ [8 Z' o7 @+ _& O1 [! Z! Z
  4. Format/Info                              : Advanced Video Codec9 E% h& w* n4 D  V8 F  g! i5 l
  5. Format profile                           : [email protected]
    2 t% t$ N( s/ |. a: n7 R$ O
  6. Format settings, CABAC                   : Yes
    $ A4 F4 w* D$ R9 i
  7. Format settings, ReFrames                : 5 frames3 M+ Y0 I9 u- @% p5 |
  8. Codec ID                                 : V_MPEG4/ISO/AVC
    1 k8 w+ ~! y+ L0 V6 a1 I0 t
  9. Duration                                 : 58mn 12s
    1 Y5 H# T0 [, k
  10. Bit rate                                 : 4 998 Kbps
    ) y$ ^" g8 |: `. n' l: e5 ?
  11. Width                                    : 1 280 pixels
    , k$ Q5 J( ~3 [% K4 L
  12. Height                                   : 720 pixels7 t! ^( i+ {. ~5 n! v' k+ ~
  13. Display aspect ratio                     : 16:9
    4 f) u& T4 R+ ?) P- S# B
  14. Frame rate mode                          : Constant
    6 i# D7 ^- l$ \& _6 a
  15. Frame rate                               : 25.000 fps' K% x! i5 l$ h
  16. Color space                              : YUV* d2 V; @2 A, r# W6 s* v) p7 I% H  [
  17. Chroma subsampling                       : 4:2:0
    ' F7 [  o* z. B  n6 s! v" r4 p
  18. Bit depth                                : 8 bits
    # Z# s1 F3 y' w. T* r, _) i+ g3 q
  19. Scan type                                : Progressive
    # c3 `. g+ B( m3 Z, u: Y
  20. Bits/(Pixel*Frame)                       : 0.2173 q5 b5 j1 j1 N8 B
  21. Stream size                              : 1.99 GiB (75%): M. h8 L6 `0 f
  22. Writing library                          : x264 core 114 r1900 60ef1f8
    & R, v: H. K+ d6 ~
  23. Encoding settings                        : cabac=1 / ref=5 / deblock=1:0:0 / analyse=0x3:0x113 / me=umh / subme=8 / psy=1 / psy_rd=1.00:0.00 / mixed_ref=1 / me_range=16 / chroma_me=1 / trellis=1 / 8x8dct=1 / cqm=0 / deadzone=21,11 / fast_pskip=1 / chroma_qp_offset=-2 / threads=12 / sliced_threads=0 / nr=0 / decimate=1 / interlaced=0 / constrained_intra=0 / bframes=3 / b_pyramid=2 / b_adapt=2 / b_bias=0 / direct=3 / weightb=1 / open_gop=0 / weightp=2 / keyint=250 / keyint_min=25 / scenecut=40 / intra_refresh=0 / rc_lookahead=50 / rc=2pass / mbtree=1 / bitrate=4998 / ratetol=1.0 / qcomp=0.60 / qpmin=0 / qpmax=69 / qpstep=4 / cplxblur=20.0 / qblur=0.5 / ip_ratio=1.40 / aq=1:1.008 r5 o$ W, r! T% _4 E# L. K
  24. Language                                 : English3 D9 E* ~1 f2 K, c1 r- t9 S
  25. Default                                  : Yes
    * u9 L( |. r* j) h! R7 z
  26. Forced                                   : No, e+ V# U1 a& J& m/ C# z

  27. : ^. P0 S# {! i) f& F3 w' ]2 ^; c
  28. Audio
    0 ~$ X. S0 P6 g1 w
  29. ID                                       : 2
    , `6 V* P( N" |; ^1 K( w- K, h
  30. Format                                   : DTS5 Z+ @. @& g/ `) I( p$ w3 v" B
  31. Format/Info                              : Digital Theater Systems
    ! {/ p( u& H0 N& S" E
  32. Mode                                     : 16" Y" j7 N5 F3 h4 ^- U( x, D/ H4 e/ H
  33. Format settings, Endianness              : Big1 b; O) e1 i  w: B  n" U4 s' \. ?9 M
  34. Codec ID                                 : A_DTS
    4 z4 f+ Z4 T6 B/ T4 e8 @# F! p
  35. Duration                                 : 58mn 12s7 E+ W! M, X! ]4 p$ E
  36. Bit rate mode                            : Constant, {: H" U, F; v
  37. Bit rate                                 : 1 509 Kbps
    - [8 a. n; A4 c& G
  38. Channel(s)                               : 6 channels
    : |: @: `" ?5 h- j6 h$ {+ G% I- ?# ?/ |
  39. Channel positions                        : Front: L C R, Side: L R, LFE4 \) g& d, _; T
  40. Sampling rate                            : 48.0 KHz- y- m; ^8 c6 [9 I% n
  41. Frame rate                               : 93.750 fps (512 spf)2 S0 M, q" L. S! C) @
  42. Bit depth                                : 24 bits
    5 @) @6 z. S0 U- ]5 Z# `8 x
  43. Compression mode                         : Lossy1 J7 H; F0 N3 Q$ z/ A0 N1 t# ?
  44. Stream size                              : 628 MiB (23%)5 q+ B" @& ]- `" f0 |6 ~3 u
  45. Language                                 : English5 }  S& z/ o3 d5 L6 u
  46. Default                                  : Yes
    8 ?7 l  a5 m- q
  47. Forced                                   : No7 n+ o: ]+ x* u$ S5 Y- K( E1 U4 Y
  48. 8 G! j  a0 G' J( O/ ?
  49. Menu
    8 D1 l: z% ^7 N; o7 @2 S' o8 O
  50. 00:00:00.000                             : en:00:00:00.0001 f/ Y1 p" G: ]$ A8 I
  51. 00:10:08.840                             : en:00:10:08.840" s2 T. y9 O/ D. P. f5 J4 M3 W
  52. 00:19:24.080                             : en:00:19:24.080# h  m% ~. N# y% e
  53. 00:29:09.320                             : en:00:29:09.320
    7 f# u% C( w  l5 D: t
  54. 00:41:12.320                             : en:00:41:12.320. G+ J% [! A2 w$ g
  55. 00:47:49.480                             : en:00:47:49.480
复制代码
3 @  ], e( a, [4 v: Z* r& L

7 Y4 |$ K1 ?' _1 N1 l( j5 B3 }  v8 s: k- z! X& a: H9 b
, j: y4 b4 A- E. d
, X* a+ i% q4 S$ R0 i6 v
" l9 i0 G6 F' ~7 P: e, ]2 g

8 K; t( l6 y' B/ @1 T  u1 U3 p$ v, G; {& U& L6 M2 w, Y

) f5 [2 M; U/ n& w4 K5 }- U
游客,如果您要查看本帖隐藏内容请回复  捐助论坛可免回复查看隐藏内容 详情请点击
最近访问 头像模式 列表模式
HD一条街,身边的一条街。
发表于 2016-11-22 21:29:50 | 显示全部楼层
等这么就终于出来了。多谢楼主
HD一条街,身边的一条街。
发表于 2016-11-22 22:35:33 | 显示全部楼层
其实我以为是科幻片
HD一条街,身边的一条街。
您需要登录后才可以回帖 登录 | 加入我们

本版积分规则

手机版|小黑屋|有问题发邮件到admin#(换成@)hd1tj.org|微博|免责申明|HD一条街

GMT+8, 2017-1-20 20:02

Powered by Discuz! X3.1

© 2001-2013 Comsenz Inc.

快速回复 返回顶部 返回列表