开启辅助访问 切换到窄版

HD一条街论坛

 找回密码
 加入我们
查看: 52|回复: 3

[欧美] 人类消失后 第一季 Life.after.People.S01.720p.BluRay.x264-NODLABS 14.55G

[复制链接]
发表于 2016-11-22 15:07:56 | 显示全部楼层 |阅读模式
21461_front.jpg
+ c5 Y6 n1 j5 p  Z& L* ^
4 Y, Q( L4 ~9 R8 V8 o* R# V3 F1 z, m/ ^- t( b' t7 R
◎译  名 人类消失后 第一季
" @/ a* @- T4 `, `0 Z/ s◎片  名 Life After People Season 1
3 n2 A+ T( E8 L" Z+ w◎年  代 2009
! F2 r9 d* l4 i9 s◎国  家 美国, j$ s" p7 A; F; y1 ]) {* J6 J7 R
◎类  别 纪录片/科幻
, w0 c; O/ s* i" `◎语  言 英语
* v6 v) f, U& x0 L◎字  幕   N/A9 V- H% C2 w: `, v. u4 C6 K
◎整  理   HD一条街 www.hd1tj.org# q: j8 Z( y  r
◎上映日期 2009-04-21! q/ _5 M# F/ z/ F' o: L* Y1 v5 }: R
◎IMDb评分  7.7/10 from 894 users$ _& k& }( q  K7 j2 y
◎IMDb链接  http://www.imdb.com/title/tt1433058/
, i1 D4 q/ g3 |; Z- }. k◎豆瓣评分 8.0/10 from 414 users! |0 V7 h4 }! f1 _9 V( O+ P
◎豆瓣链接 https://movie.douban.com/subject/4047112/
  P5 H: V; }% b( i◎集  数 10
( {# F4 [- F8 G8 w◎导  演 James Grant Goldin8 O. H6 W* i6 ]8 t7 k" H* g# T* h
$ l% @4 p4 S" [
◎简  介
$ g0 B% ]+ e3 u# U7 V( V, k$ o9 V3 ?! X+ P& u* G! C0 `& f
  What would happen to planet earth if the human race were to suddenly disappear forever? Would ecosystems thrive? What remnants of our industrialized world would survive? What would crumble fastest? Life After People is a television series on which scientists, structural engineers, and other experts speculate about what might become of Earth should humanity instantly [email protected]
  1. Video
    . d/ W$ }$ J3 A! `0 o( m7 w/ e4 A
  2. ID                                       : 1
    ) _4 |7 F% H5 {# J8 j
  3. Format                                   : AVC
    0 d8 z1 S! J- Q) U9 D8 |
  4. Format/Info                              : Advanced Video Codec2 n7 H! Q3 |5 D4 ~
  5. Format profile                           : [email protected]& Q. b3 b3 J" d' u# v
  6. Format settings, CABAC                   : Yes
    + r* x+ _  D! O# P. S4 J: m
  7. Format settings, ReFrames                : 5 frames
    ( B; s4 r* q' k7 |& K8 I1 q2 A
  8. Codec ID                                 : V_MPEG4/ISO/AVC9 J' h" M, B  w; q, D
  9. Duration                                 : 41mn 2s
    2 a1 L5 a: G/ M0 A: `# I; F
  10. Bit rate                                 : 4 855 Kbps
    + A( F8 x1 `9 g  o9 x2 A. _
  11. Width                                    : 1 280 pixels
    0 x/ p4 y$ j7 w4 `6 s
  12. Height                                   : 720 pixels6 K% G# S( S) K1 f7 ~, R4 g
  13. Display aspect ratio                     : 16:9
    # z: M$ n" V2 [
  14. Frame rate mode                          : Constant
    ) V9 m# t! B  a/ i: s! P0 V
  15. Frame rate                               : 25.000 fps* o2 k% @/ t2 t0 T
  16. Color space                              : YUV
    8 \9 o* s: P9 Y+ f6 D6 i
  17. Chroma subsampling                       : 4:2:0( x& K$ v! s) b6 g# P
  18. Bit depth                                : 8 bits
    ! X, A  h  j, W  l: x! G. }
  19. Scan type                                : Progressive
    : L0 i4 l- m/ [! z
  20. Bits/(Pixel*Frame)                       : 0.211; [/ z/ o* F: n
  21. Stream size                              : 1.36 GiB (94%)9 h7 K; [" g% ^5 b3 E3 |+ r6 W* A
  22. Writing library                          : x264 core 118 r2085 8a62835
    0 X9 o' a. `/ K. b* q, Y; C6 ~3 {
  23. Encoding settings                        : cabac=1 / ref=5 / deblock=1:0:0 / analyse=0x3:0x113 / me=umh / subme=8 / psy=1 / psy_rd=1.00:0.00 / mixed_ref=1 / me_range=16 / chroma_me=1 / trellis=1 / 8x8dct=1 / cqm=0 / deadzone=21,11 / fast_pskip=1 / chroma_qp_offset=-2 / threads=6 / sliced_threads=0 / nr=0 / decimate=1 / interlaced=0 / bluray_compat=0 / constrained_intra=0 / bframes=3 / b_pyramid=2 / b_adapt=2 / b_bias=0 / direct=3 / weightb=1 / open_gop=0 / weightp=2 / keyint=250 / keyint_min=25 / scenecut=40 / intra_refresh=0 / rc_lookahead=50 / rc=2pass / mbtree=1 / bitrate=4855 / ratetol=1.0 / qcomp=0.60 / qpmin=0 / qpmax=69 / qpstep=4 / cplxblur=20.0 / qblur=0.5 / ip_ratio=1.40 / aq=1:1.00
    5 q' O, L$ ]3 H5 B
  24. Language                                 : English2 ~5 A6 }, V" O# T0 R( P
  25. Default                                  : Yes
      ?- _' P3 v; ]0 F4 p# y- P
  26. Forced                                   : No
    4 ^/ z4 ?; G% ]; s5 {
  27. 1 u" f6 W6 I6 f
  28. Audio' H; P2 ~7 c) n" y/ H0 o
  29. ID                                       : 2
    ' h( k' U0 Z& j/ u% f8 q# b. }
  30. Format                                   : AC-3
    ( U! ?7 B9 j; c
  31. Format/Info                              : Audio Coding 3$ e# l3 F+ i* J, W: @: N( d
  32. Mode extension                           : CM (complete main)
    2 M: Z# w& h3 f  k0 M" c
  33. Format settings, Endianness              : Big
    # S4 o: c( D9 F8 Q, `  f+ G8 A; T
  34. Codec ID                                 : A_AC3
    ' C& @4 L+ A0 d- a: K1 C
  35. Duration                                 : 41mn 2s
    ! z% L9 H$ g- `. t/ e1 O! u% R
  36. Bit rate mode                            : Constant9 I! Z1 m9 M, A/ k! t, A2 x% s
  37. Bit rate                                 : 224 Kbps2 M" M  ~  H4 y2 p6 g$ o1 t/ W: O
  38. Channel(s)                               : 2 channels& u; N4 p* J; K0 o, u$ S
  39. Channel positions                        : Front: L R
    7 s; S+ s" q5 K2 a" O' c
  40. Sampling rate                            : 48.0 KHz  Y8 F3 i$ }% O- a6 U
  41. Frame rate                               : 31.250 fps (1536 spf)
    ; g0 z1 Y3 C1 z' Z& |, w% Y
  42. Compression mode                         : Lossy. Q6 l8 @7 @, C: J- j) w
  43. Stream size                              : 65.7 MiB (4%)# G! e9 \- }. y
  44. Default                                  : Yes
    ) j5 y: s; G; g
  45. Forced                                   : No* p1 F* f  Q  {  ?0 y+ L6 o6 p
  46. ' c% g* D! H( m* ]$ F
  47. Menu/ H2 V( N) K: T% Y$ q; o
  48. 00:00:00.000                             : en:00:00:00.000
    + N; ^3 _5 W+ ~
  49. 00:01:18.200                             : en:00:01:18.200
    # z; I" Z+ |" @: F6 @/ Y+ M2 @" p
  50. 00:07:48.080                             : en:00:07:48.080$ G: t/ o# `  C! @
  51. 00:18:57.600                             : en:00:18:57.600
    ( b" t6 o1 L) M' ?: K
  52. 00:26:33.000                             : en:00:26:33.000+ k& E& Q" s7 V9 w2 ]0 O; [
  53. 00:35:01.000                             : en:00:35:01.000
复制代码
! U6 h3 R* ^) a5 s
; z# \; c. `' f- {# g: s* f1 m# E
* s, k6 d6 z4 _3 T

4 P' l+ i( I7 a& c2 e
6 m8 I- ]- T5 c7 H; O4 ~& k3 I; D8 Q' {* g; v" b

  z' B0 n' c" \9 Y. w/ y- ]
4 Y; x. T- o. s' N* z
游客,如果您要查看本帖隐藏内容请回复  捐助论坛可免回复查看隐藏内容 详情请点击
HD一条街,身边的一条街。
发表于 2016-11-22 19:58:01 | 显示全部楼层
沙发,支持发片。
HD一条街,身边的一条街。
发表于 2016-11-22 21:32:46 | 显示全部楼层
这个挺好的谢谢分享!!!
HD一条街,身边的一条街。
发表于 2016-11-22 21:49:15 | 显示全部楼层
如果地球真是没有人类.真可怕
HD一条街,身边的一条街。
您需要登录后才可以回帖 登录 | 加入我们

本版积分规则

手机版|小黑屋|有问题发邮件到admin#(换成@)hd1tj.org|微博|免责申明|HD一条街

GMT+8, 2017-1-20 20:01

Powered by Discuz! X3.1

© 2001-2013 Comsenz Inc.

快速回复 返回顶部 返回列表