开启辅助访问 切换到窄版

HD一条街论坛

 找回密码
 立即注册
查看: 23|回复: 3

[欧美] 人类消失后 第一季 Life.after.People.S01.720p.BluRay.x264-NODLABS 14.55G

[复制链接]
发表于 2016-11-22 15:07:56 | 显示全部楼层 |阅读模式
21461_front.jpg 6 s' A) L- A. ^; J

& B6 [5 I( d$ m! I! X/ W) d$ s$ ^) m$ Y0 O" q  z6 [
◎译  名 人类消失后 第一季
1 ~) X2 A4 R' }' S/ b- a◎片  名 Life After People Season 16 I" B  \& [% ?7 r0 }
◎年  代 2009# u3 a- N( r# n/ x
◎国  家 美国
' Y6 v! S# x' T3 I  e  t◎类  别 纪录片/科幻
7 U( q9 O2 w2 c+ X& |3 ]◎语  言 英语& t! C4 T' y7 E7 ?! e# K
◎字  幕   N/A. x' g& \. ]+ E0 v
◎整  理   HD一条街 www.hd1tj.org/ o  p, V0 C0 c
◎上映日期 2009-04-21* l7 T) w) T2 J5 M. G8 u
◎IMDb评分  7.7/10 from 894 users
- S8 G/ c' H& ]0 U7 [◎IMDb链接  http://www.imdb.com/title/tt1433058/
+ {8 v* u+ F% n- F' V4 e/ I9 Q- b◎豆瓣评分 8.0/10 from 414 users/ `: y: o& a- |: \; D) Q# X
◎豆瓣链接 https://movie.douban.com/subject/4047112/1 w" b% A& v8 T. w2 }+ |2 E/ U
◎集  数 10
  k6 x) d8 x) F% L) c. N2 ^◎导  演 James Grant Goldin
6 N) {0 C" s( S1 b/ S. k' T2 A+ A- ^! F! Z5 P' w1 H
◎简  介
) H' ^5 B( l( \9 m$ }; r% d$ J
; W. \. o1 |/ N# d9 N- L  What would happen to planet earth if the human race were to suddenly disappear forever? Would ecosystems thrive? What remnants of our industrialized world would survive? What would crumble fastest? Life After People is a television series on which scientists, structural engineers, and other experts speculate about what might become of Earth should humanity instantly [email protected]
  1. Video
    - R8 R: W4 T0 W; V& U- n: O: [6 h
  2. ID                                       : 1
    , @2 s+ [! R: y
  3. Format                                   : AVC: o0 X% Q1 g& \2 o
  4. Format/Info                              : Advanced Video Codec
    ; K. Y! Y: c3 `4 X, w' ], `5 q
  5. Format profile                           : [email protected]
    0 W! h  ]; s+ U# I
  6. Format settings, CABAC                   : Yes2 k+ {" W( ^1 N
  7. Format settings, ReFrames                : 5 frames5 W' B* l  M5 B4 s: \) I
  8. Codec ID                                 : V_MPEG4/ISO/AVC' B" u' D; D: }
  9. Duration                                 : 41mn 2s
    2 _* U. T3 x: ?: v5 p) n
  10. Bit rate                                 : 4 855 Kbps2 Y3 \" e; ~( P! @
  11. Width                                    : 1 280 pixels
    - g6 H* h8 ?  A
  12. Height                                   : 720 pixels1 G/ Z$ u& x8 w; w7 b7 q0 \
  13. Display aspect ratio                     : 16:9
    : d; r5 }+ f2 `( x5 W
  14. Frame rate mode                          : Constant
    ; E6 A$ S& r- O, N- p; u
  15. Frame rate                               : 25.000 fps# I0 y! p# d4 c* _
  16. Color space                              : YUV! F' {2 m' u5 y/ R  ]4 l3 y
  17. Chroma subsampling                       : 4:2:09 F% e+ f( \* n( L7 e9 H; w
  18. Bit depth                                : 8 bits
    1 j3 ?# }& B0 f. s/ U* H
  19. Scan type                                : Progressive
    " E6 O1 ]5 N0 q6 d, I) r: |- S& @
  20. Bits/(Pixel*Frame)                       : 0.2112 T6 R4 f/ m1 _- `. K
  21. Stream size                              : 1.36 GiB (94%)
    # p4 K3 d7 U) c
  22. Writing library                          : x264 core 118 r2085 8a62835
    * N( r: E% Z4 q6 U# p) V3 Z* I
  23. Encoding settings                        : cabac=1 / ref=5 / deblock=1:0:0 / analyse=0x3:0x113 / me=umh / subme=8 / psy=1 / psy_rd=1.00:0.00 / mixed_ref=1 / me_range=16 / chroma_me=1 / trellis=1 / 8x8dct=1 / cqm=0 / deadzone=21,11 / fast_pskip=1 / chroma_qp_offset=-2 / threads=6 / sliced_threads=0 / nr=0 / decimate=1 / interlaced=0 / bluray_compat=0 / constrained_intra=0 / bframes=3 / b_pyramid=2 / b_adapt=2 / b_bias=0 / direct=3 / weightb=1 / open_gop=0 / weightp=2 / keyint=250 / keyint_min=25 / scenecut=40 / intra_refresh=0 / rc_lookahead=50 / rc=2pass / mbtree=1 / bitrate=4855 / ratetol=1.0 / qcomp=0.60 / qpmin=0 / qpmax=69 / qpstep=4 / cplxblur=20.0 / qblur=0.5 / ip_ratio=1.40 / aq=1:1.00# ~8 T# [+ }, k8 F8 y
  24. Language                                 : English7 b; d+ ^5 \  J! U9 d! O/ L0 v
  25. Default                                  : Yes, f$ s: C- r0 T0 d$ m' D9 b
  26. Forced                                   : No# G! n5 z: M/ w1 N- a, U
  27. ) L4 k% s3 C  \8 w4 B* ?
  28. Audio
    8 G, V! Z, A! N1 p' q! h4 s2 y! ]- V
  29. ID                                       : 2- B! N1 ~0 ?, S1 e
  30. Format                                   : AC-3
    % [. Q/ M; Z& a/ ~7 j0 p; i
  31. Format/Info                              : Audio Coding 35 k2 w0 N& V% B
  32. Mode extension                           : CM (complete main)% [+ G$ I5 ~, P/ k1 W
  33. Format settings, Endianness              : Big
    9 i& N9 e% Z7 e. K
  34. Codec ID                                 : A_AC3; n9 T8 [) b% u$ ~9 H% X! q
  35. Duration                                 : 41mn 2s  n0 V5 @2 g! B& r. w5 N
  36. Bit rate mode                            : Constant$ c0 p$ V& `# K; W! e
  37. Bit rate                                 : 224 Kbps
    - r: l- L# L1 O% Z
  38. Channel(s)                               : 2 channels% ]8 m. T# W! B$ k8 g
  39. Channel positions                        : Front: L R
    9 V3 k* N! w7 v) V$ S
  40. Sampling rate                            : 48.0 KHz
    * x7 H& b: r  ~
  41. Frame rate                               : 31.250 fps (1536 spf)* E4 I' m& n5 |, m( W# i; ~: O7 m
  42. Compression mode                         : Lossy8 ]& Y6 i! n5 c% W1 ?% W
  43. Stream size                              : 65.7 MiB (4%)
    . w: [* b$ s+ Y3 j9 O9 h
  44. Default                                  : Yes
    0 V  ?6 N7 p& r1 J: R; L# c
  45. Forced                                   : No* O. k9 M/ a4 m! N! C
  46. . @+ y$ r& Z% q( @
  47. Menu
    ) J0 J7 U5 H4 B. G8 \% z
  48. 00:00:00.000                             : en:00:00:00.000( B. \5 m# @" O
  49. 00:01:18.200                             : en:00:01:18.2005 R8 ]8 [. i( l4 A- O
  50. 00:07:48.080                             : en:00:07:48.080- h% h( {3 ?% A
  51. 00:18:57.600                             : en:00:18:57.600- `3 M* o# h2 y9 E( t1 A
  52. 00:26:33.000                             : en:00:26:33.000  e4 j( q# x) a
  53. 00:35:01.000                             : en:00:35:01.000
复制代码
8 C. \, ]. d6 j# u/ F
! j5 J+ q  J* x$ h4 Q2 Y
$ M( M0 Y3 u: c5 T

# m/ p$ T3 x* \$ X6 O: O% a3 ?9 V, @6 G! K
: Y& Y6 v# b8 [4 \

. ^9 |% A! T  o; T# B5 a1 X
, i; ^7 _4 g# \+ ]
游客,如果您要查看本帖隐藏内容请回复  捐助论坛可免回复查看隐藏内容详情请点击
HD一条街,身边的一条街。
发表于 2016-11-22 19:58:01 | 显示全部楼层
沙发,支持发片。
HD一条街,身边的一条街。
发表于 2016-11-22 21:32:46 | 显示全部楼层
这个挺好的谢谢分享!!!
HD一条街,身边的一条街。
发表于 2016-11-22 21:49:15 | 显示全部楼层
如果地球真是没有人类.真可怕
HD一条街,身边的一条街。
您需要登录后才可以回帖 登录 | 立即注册

本版积分规则

手机版|小黑屋|有问题发邮件到admin#(换成@)hd1tj.org|微博|免责申明|HD一条街

GMT+8, 2016-12-7 01:57

Powered by Discuz! X3.1

© 2001-2013 Comsenz Inc.

快速回复 返回顶部 返回列表