开启辅助访问 切换到窄版

HD一条街论坛

 找回密码
 加入我们
查看: 44|回复: 4

[欧美] 美国内战 The.Civil.War.1990.720p.BluRay.DD5.1.x264-DON 64.76G

[复制链接]
发表于 2016-11-22 14:59:37 | 显示全部楼层 |阅读模式
本帖最后由 让心灵去旅行 于 2016-11-22 15:00 编辑 , v/ E  B/ O& g/ C4 i

- f4 Z9 I9 Y+ z8 i& G. r; c 129243_front.jpg
* o- k( [% ?+ G" D
: i# F2 J+ }2 v5 m' w
2 m3 p0 N; n" {◎译  名 美国内战/纪录片-美国内战( R. m- C2 Q( d4 F, {1 {4 y0 f
◎片  名 The Civil War
, _  i2 X: W9 E) U' D5 y0 B, O! h◎年  代 1990
* A: H# [; W. b+ o. Q4 ], d◎国  家 USA
- q1 I9 D: [/ L+ n* p◎类  别 纪录片; o: h, ~8 C5 K, Y: Z1 L  j
◎语  言 英语3 b9 F0 N) R' r% R7 N7 E9 F. N0 J
◎字  幕   英文
, S  D8 K5 r: G8 l% {9 z◎整  理   HD一条街 www.hd1tj.org
3 }8 E) J( t7 n- Z0 D8 a% u◎上映日期 1990-09-23  i; W) ]9 L& s' I; `1 Q% N! T
◎IMDb评分  9.3/10 from 6,384 users
- r/ M& K; e+ }# g1 ?◎IMDb链接  http://www.imdb.com/title/tt0098769/! R. W  n- f# X3 y& }, ^; |
◎豆瓣评分 9.0/10 from 125 users3 ^$ j6 ~8 u- }) k* J' m
◎豆瓣链接 https://movie.douban.com/subject/1432662/
4 }  d+ @$ Q7 d: m* l6 l3 K◎集  数 9! G( l( A) I7 R
◎片  长 60分钟! x9 t" p) f( R6 d1 @) D- O
◎导  演 Ken Burns9 i9 a/ X2 l: z0 v1 p% u7 U; M
◎主  演 Betsy Apple* f! Q- ~% [* Z  F5 A1 h. T, n
      Hoyt Axton2 ^# v9 a( M, R4 M7 M
      Ed Bearss( ]# K' l2 e3 o

: ?7 f8 D  E- K◎简  介" e  @& e8 W$ L

$ G5 V/ w) F0 d' ~+ ^6 g8 K  汉语简介3 e6 y& V4 |9 x6 i4 _
  19世纪工业革命传到美国,美国经济迅速发展,同时美国获得了西部的大片领土,急需劳动力,南方奴隶制成为经济发展的障碍。 1860年主张废除奴隶制的林肯当选总统,南方奴隶主发动叛乱,南方蓄奴州纷纷独立,1861年2月组成邦联政府,戴维斯当选总统。同年4月南方邦联军先发制人攻占萨姆特要塞,内战爆发。
; D2 M. x7 F0 ?% U0 B2 A! h  南军准备充分,势如破竹,很快占领了海军基地诺福克,5月6日占领铁路枢纽马纳萨斯,进逼华盛顿,北军仓促应战,24日进入福吉尼亚。7月21日,北军被击溃,逃回华盛顿,林肯紧急动员50万志愿军。1862年,北军发动进攻,西线由格兰特指挥,进展顺利,2月攻克亨利堡和多纳尔森堡,4月在夏洛战役中击败南军,5月攻克科林斯和孟菲斯,解放了肯塔基和田那西。东线北军则进展迟缓,7月被罗伯特.李指挥的南军击溃,李乘胜北进,8月在布尔河再次击败北军,兵临华盛顿,9月两军进行安提塔姆会战,李被击退。12月北军在弗雷德里斯克堡战役中再次被李击败。" C: Q  ]; t3 ^' Z8 g& M
  1863 年元旦林肯颁布「解放宣言」宣布解放黑奴,允许黑人参加北方军队,之后又颁布「宅地法」,允许所有美国人得到西部的土地。同年5月,北军再次进攻里士满,在切斯罗维尔被李击退。6月李再次北进,7月1日两军在葛底斯堡展开决战,3日南军被击败。在李北进的同时,格兰特在西线包围了南军防守密西西比河的要塞维克斯堡,5月22日北军发动总攻,进行了长达47天的炮击,7月4日南军投降。7月8日北军占领哈得逊港,南军被分割成东西两部分。9月北军攻克查塔努加,11月击退南军的反击。! f5 f+ w5 ]& P" S
  1864年北方发动全面进攻,5~6月格兰特率军同李进行一系列会战,李虽然每次都能取胜,但北军的援军不断到达,李军团陷于绝望。6月15日,北军进攻彼得斯堡,双方相持不下,拖住了南军主力达9个月。7月厄尔利率南军一部再次奔袭华盛顿,被北军谢里登部击退,谢里登在进军途中实施焦土战略,厄尔利军瓦解。5月谢尔曼在西线发起进攻,9月2日攻占亚特兰大,并破坏了该城。之后谢尔曼以宽正面向佐治亚海岸进军,沿途实施焦土战略破坏了一切南方可资利用的资源,12月21日谢尔曼攻占萨凡纳,将南方邦联东部分割成南北两半。1865年1月,谢尔曼北上,2月相继攻克哥伦比亚和查尔斯顿,3月和格兰特会师,4月3日攻占彼得斯堡,9日李率残部投降。4月14日,南方派人刺杀了林肯。26日南方投降,内战结束。
) k6 X9 x2 H( ]1 i  南北战争摧毁了奴隶制,为美国资本主义经济的发展扫清了道路。这次战争中工业革命带来了军事上的巨大进步,双方使用了金属弹壳和后装填步枪作战,使用铁路和蒸汽船实现快速的兵力机动和集结,使用蒸汽铁甲战舰进行海战,机械连发枪第一次投入实战,特别是北方发展了制造标准化零件组装武器的生产方式,大大提高了工业生产效率。
  1. Video- s* A/ {' h0 N; H! a4 C6 E
  2. ID                                       : 1  z- V, i, ~+ d! M: i/ s
  3. Format                                   : AVC
    4 a$ W* y" l1 G: {0 o7 i3 ]) L2 C$ Z
  4. Format/Info                              : Advanced Video Codec
    & Z/ N, X3 N5 ]7 v' U) j
  5. Format profile                           : [email protected]
    : Y& @2 W$ E: z. o. p
  6. Format settings, CABAC                   : Yes
    ( w( ~2 u% w# e/ P' R
  7. Format settings, ReFrames                : 11 frames2 h$ G: V$ W. l0 U. U+ f' i
  8. Codec ID                                 : V_MPEG4/ISO/AVC
    ! H) N4 J# ^5 q' p: ?: g# C
  9. Duration                                 : 1h 35mn
    9 t" u% C; H. h! A4 `
  10. Bit rate                                 : 15.7 Mbps6 ~4 Z: y& o( P% Z- h. h
  11. Width                                    : 1 030 pixels
    / p+ O: r  X# H' t3 r/ C1 r
  12. Height                                   : 720 pixels1 @6 J, a& l( X1 \" P4 C1 R
  13. Display aspect ratio                     : 1.432
    ( b2 ~" B0 d( X+ q* a2 U
  14. Original display aspect ratio            : 1.431
    $ f" @3 z4 i2 l/ y5 M. j" I
  15. Frame rate mode                          : Constant) q0 N' k- Q& Y' ]2 i8 A& E+ C
  16. Frame rate                               : 23.976 (24000/1001) fps
    6 H0 e; ]- R9 _7 A
  17. Color space                              : YUV
    & H" ^; {' S2 p# S' k
  18. Chroma subsampling                       : 4:2:0
    4 p9 N) i. _7 C7 \6 c# T. L- Y4 ]
  19. Bit depth                                : 8 bits/ f7 i0 s0 G' ]2 \. h
  20. Scan type                                : Progressive( q/ X$ ?+ k- _3 n4 L
  21. Bits/(Pixel*Frame)                       : 0.885
    . X- D" a3 h8 d6 O6 x
  22. Stream size                              : 10.5 GiB (96%)& x2 O) {8 q) w0 s
  23. Title                                    : 720p x264' F3 X3 L" F2 y- E
  24. Writing library                          : x264 core 148 r2597+53 5548565 t_mod_Custom [[email protected] X86_64]! e6 m! M3 ^2 d- I2 D
  25. Encoding settings                        : cabac=1 / ref=11 / deblock=1:-3:-3 / analyse=0x3:0x133 / me=umh / subme=10 / psy=1 / fade_compensate=0.00 / psy_rd=1.15:0.00 / mixed_ref=1 / me_range=24 / chroma_me=1 / trellis=2 / 8x8dct=1 / cqm=0 / deadzone=20,10 / fast_pskip=0 / chroma_qp_offset=-2 / threads=12 / lookahead_threads=2 / sliced_threads=0 / nr=0 / decimate=0 / interlaced=0 / bluray_compat=0 / constrained_intra=0 / fgo=0 / bframes=8 / b_pyramid=2 / b_adapt=2 / b_bias=0 / direct=3 / weightb=1 / open_gop=0 / weightp=2 / keyint=250 / keyint_min=23 / scenecut=40 / intra_refresh=0 / rc=crf / mbtree=0 / crf=19.0000 / qcomp=0.65 / qpmin=0:0:0 / qpmax=69:69:69 / qpstep=4 / ip_ratio=1.30 / pb_ratio=1.20 / aq=3:0.70 / aq-sensitivity=10.00 / aq-factor=1.00:1.00:1.00 / aq2=0 / aq3=0
    & c1 V$ P3 _, |
  26. Language                                 : English
    # ^7 X. h' Y0 C+ A" x
  27. Default                                  : Yes, G. p. o# l9 u  n+ G. Y
  28. Forced                                   : No
    - y! f7 j$ ~! M( V* G' ?
  29. 9 |7 U: q+ Q) p) ~! T; u3 z2 B! `
  30. Audio #1
    7 t7 I9 g5 u- z5 D9 \$ T4 f
  31. ID                                       : 2
    ( D! u' y6 i* B5 N( x  H4 e
  32. Format                                   : AC-3* `+ Y! b1 [$ b' j4 Y5 V$ @1 s$ x
  33. Format/Info                              : Audio Coding 3. Y( J4 O1 J% ?! [3 y
  34. Mode extension                           : CM (complete main)
    7 y0 k0 T: B: ~! [/ `) @7 q. Y
  35. Format settings, Endianness              : Big" K* I% Y5 o- O: I
  36. Codec ID                                 : A_AC35 {9 g! O3 I. O0 j
  37. Duration                                 : 1h 35mn% O1 P6 V. n# [8 ~3 w
  38. Bit rate mode                            : Constant
    , ?# B* _. M; X+ x1 K( t5 a
  39. Bit rate                                 : 640 Kbps
    2 G% P( R( G6 ~2 T9 ?9 ]
  40. Channel(s)                               : 6 channels" x' C4 D+ i" j6 z; H2 g
  41. Channel positions                        : Front: L C R, Side: L R, LFE
    9 H3 ]' `# O3 }0 Z( l
  42. Sampling rate                            : 48.0 KHz; Z% b) }; x2 u6 h1 [* x% ?
  43. Frame rate                               : 31.250 fps (1536 spf)* D% \3 i3 q* ^/ k8 W6 |# i
  44. Compression mode                         : Lossy- D+ a1 a- r7 P' u
  45. Stream size                              : 436 MiB (4%)8 A, ?! a: m# b  G+ N8 ~; J
  46. Title                                    : Main Audio) ^8 f( M! a7 ?# l. x5 h/ T
  47. Language                                 : English
    & u* L: f7 z6 r7 X' `* L! z
  48. Default                                  : Yes1 B* ?4 ~* o3 b: ]
  49. Forced                                   : No
    7 w# P5 R9 S' t8 ?

  50. * o+ D& y9 Z2 i1 y+ {2 s0 l" h6 `
  51. Audio #2% r, w( X6 l$ k8 r
  52. ID                                       : 3
    ) c7 ^+ c2 C* a6 a: i
  53. Format                                   : Vorbis
    + b. ~& B: A* L- Z( ^+ a
  54. Format settings, Floor                   : 1
      C7 j5 `& Q. w1 \- B; L/ p% N: N
  55. Codec ID                                 : A_VORBIS
    , x6 G( x7 O$ I. f1 ~/ {
  56. Duration                                 : 1h 35mn+ a' r* j  X; @8 O$ {
  57. Bit rate mode                            : Variable
    % V8 b0 X9 e7 R$ ^) }8 s
  58. Bit rate                                 : 112 Kbps
    " |/ @3 N' O- b0 \- v  X! W
  59. Channel(s)                               : 2 channels
    0 |# J& f  u' N8 f$ _4 f
  60. Sampling rate                            : 48.0 KHz
    , u# C- Q" |( T3 P& [  J
  61. Frame rate                               : 64.556 fps (744 spf)% Y: i  l6 `. L1 s* Y- R% q
  62. Compression mode                         : Lossy
    " [* B2 a; o( e% ~7 y9 M4 Z
  63. Stream size                              : 22.4 MiB (0%)
    5 z; U) r. f7 T+ {" z7 I& S
  64. Title                                    : Commentary
    # J) a- H* B' l8 X" l
  65. Writing library                          : aoTuV 20110424 (UTC 2011-04-24)0 ?8 g2 c. v$ {+ @
  66. Language                                 : English: V' r4 J* t" ~, t& T
  67. Default                                  : No' X5 A4 |7 b4 _) {* p9 V+ z
  68. Forced                                   : No
    ' Z% A0 L( B! E

  69. ' k8 Y2 z, u+ ~% E  ^5 J6 v
  70. Text #1- ^4 ~: x# m$ ?: M  M
  71. ID                                       : 4
    8 c, F0 V& z/ p- N5 J& x& [1 l
  72. Format                                   : UTF-8: E3 d3 ]9 {/ ~! i" u
  73. Codec ID                                 : S_TEXT/UTF8, |% U6 M  b* k/ P
  74. Codec ID/Info                            : UTF-8 Plain Text
    " s# ]+ I: t1 E) F6 T# ~- N
  75. Duration                                 : 1h 30mn
    % f' P$ g- K! i% H: w
  76. Bit rate                                 : 87 bps/ B# ~! ]6 x- G/ k
  77. Count of elements                        : 1610
    6 b5 g8 E% z4 D; o7 a
  78. Stream size                              : 58.3 KiB (0%)/ }7 p1 v6 z6 B' H1 T0 j; x; S! c
  79. Title                                    : English
    ; M6 {7 w3 |$ y1 o* ~
  80. Language                                 : English0 d7 O- Q. n& A6 ^1 q# Q! A/ D+ P+ S
  81. Default                                  : No0 ]$ b5 w, b# U& F3 M; m5 n
  82. Forced                                   : No
    9 i  R, f' ~. B$ ]
  83. , E* Y8 X1 W" P+ s' ^7 z/ B
  84. Text #2
    ! A/ W  x7 X3 R! T0 l# p
  85. ID                                       : 5
    ' |( F, \; ^" Q
  86. Format                                   : UTF-8
    * S- |) u. D$ B; s/ A
  87. Codec ID                                 : S_TEXT/UTF8: q- k% }/ l3 T8 h. Y" @' l
  88. Codec ID/Info                            : UTF-8 Plain Text
    2 u8 E: F/ A; ~+ B
  89. Duration                                 : 1h 35mn
    # K" J0 {* ]) B( \. T
  90. Bit rate                                 : 89 bps
    8 P4 q, s% K9 F
  91. Count of elements                        : 1773% O& M, v+ m+ P9 d. {/ V
  92. Stream size                              : 62.4 KiB (0%)
    1 E1 F! O* `' H) x+ o
  93. Title                                    : English (SDH), u6 ?" d( x: O7 a
  94. Language                                 : English
    ' O# q# H5 {9 F4 Z6 r
  95. Default                                  : No
    / D8 w5 D6 W( x6 F) Y7 |2 v! [
  96. Forced                                   : No$ v+ J& q( h* t4 Y. t" V
  97. , v- J, x9 s' g1 t) k" h
  98. Menu #1
    8 r/ p0 a; ^. `
  99. 00:00:00.000                             : enrologue
    $ h0 c0 L' t8 \- ~* \/ v% {
  100. 00:10:56.698                             : en:Gettysburg: The First Day" C* |% E* G( C6 R
  101. 00:16:30.489                             : en:Gettysburg: The Second Day
    1 k- s( D- S& d3 [- r* m( G
  102. 00:32:27.570                             : en:Gettysburg: The Third Day
    - [6 P% P, @# v$ r. O- b
  103. 00:51:58.574                             : en:She Ranks Me
    , W0 L/ W) ]+ [6 b2 T4 j
  104. 00:56:14.246                             : en:Vicksburg' T$ Q+ F6 j) e: C" J& q  j
  105. 01:00:07.312                             : en:Bottom Rail on Top
    # l, h. @* O# d
  106. 01:13:39.415                             : en:The River of Death9 C! a/ Z: q% o+ ^) d! c( l
  107. 01:25:26.246                             : en:A New Birth of Freedom
    / w! `2 u( {2 Y
  108. 01:31:16.805                             : en:Credits
    $ Y+ p2 }4 }% R* I- S
  109. ! S: s7 I9 W4 P% L/ R. W
  110. Menu #2
    ! H4 W" O0 l9 A5 V: ^7 `0 @
  111. 00:04:26.266                             : enrologue
    6 I, Z! z: H" }" U2 U: k9 l* |
  112. 00:16:30.489                             : en:Gettysburg: The Second Day
    ( K+ ]3 h( Q0 G* p/ J  w$ [4 o
  113. 00:34:40.954                             : en:Gettysburg: The Third Day
    0 J; r: Y& N; T- r- S3 j" l
  114. 01:26:43.865                             : en:A New Birth of Freedom
复制代码

  a, _. j; s5 N* G
7 P) P+ y5 f/ e# Q* l0 e2 F
: W: J; m6 ]5 h. `, O2 y4 Y. x6 e+ f1 c, I

' _0 K& k/ M/ J
$ S2 H8 P! U9 J0 G2 s( |9 f# h9 ]# J0 u/ G6 I5 O
+ O$ c7 P8 H; D
8 Y: C5 x, R( k& n  Z5 S/ N. }
游客,如果您要查看本帖隐藏内容请回复  捐助论坛可免回复查看隐藏内容 详情请点击
HD一条街,身边的一条街。
发表于 2016-11-22 16:29:58 | 显示全部楼层
讲述美国南北战争的,这种纪录片很好
HD一条街,身边的一条街。
发表于 2016-11-22 22:13:48 | 显示全部楼层
感谢楼主发片,您辛苦!
HD一条街,身边的一条街。
发表于 2016-12-4 18:42:04 | 显示全部楼层
谢谢分享好片!!
HD一条街,身边的一条街。
发表于 2016-12-10 16:01:17 | 显示全部楼层
谢谢楼主分享。多看有益。
HD一条街,身边的一条街。
您需要登录后才可以回帖 登录 | 加入我们

本版积分规则

手机版|小黑屋|有问题发邮件到admin#(换成@)hd1tj.org|微博|免责申明|HD一条街

GMT+8, 2017-1-20 20:01

Powered by Discuz! X3.1

© 2001-2013 Comsenz Inc.

快速回复 返回顶部 返回列表