开启辅助访问 切换到窄版

HD一条街论坛

 找回密码
 立即注册
查看: 22|回复: 3

[欧美] 美国内战 The.Civil.War.1990.720p.BluRay.DD5.1.x264-DON 64.76G

[复制链接]
发表于 2016-11-22 14:59:37 | 显示全部楼层 |阅读模式
本帖最后由 让心灵去旅行 于 2016-11-22 15:00 编辑 ) X7 `* K# X9 R7 y6 o/ q5 ~% I4 j" N4 h

6 D! C, H5 p! S/ ~9 c6 @ 129243_front.jpg
/ P, m2 F# e: k8 y+ v7 Q1 Y" A6 ?

4 I9 L! |/ I& V9 h' R' ~◎译  名 美国内战/纪录片-美国内战
: U7 Y4 c1 j; y6 Q$ f9 q9 J◎片  名 The Civil War+ d& ]3 a# l( }: w4 F0 y
◎年  代 1990
, c# n# C1 L/ R- e5 s1 L, g& F" P# x$ A◎国  家 USA
1 f* n' Q9 c: |4 J5 E3 ?◎类  别 纪录片) f, j5 T: ~0 |
◎语  言 英语* {+ D! ]# ~0 E, J/ K' M* b1 ?
◎字  幕   英文
4 j  w) I( c% m) K6 n3 U◎整  理   HD一条街 www.hd1tj.org
5 u. b) \$ J  Z1 p◎上映日期 1990-09-23
( j3 _/ i! D$ c$ C/ E$ [◎IMDb评分  9.3/10 from 6,384 users* ~6 M" F6 @0 s* N: U) P
◎IMDb链接  http://www.imdb.com/title/tt0098769/
7 i  q! t/ Q- i: W; n; n' t1 J3 G◎豆瓣评分 9.0/10 from 125 users0 S! A  {3 \3 {* A1 e) |2 S
◎豆瓣链接 https://movie.douban.com/subject/1432662/# T' k" Z0 F( s0 O$ y. ]' V
◎集  数 9+ t. w8 Z1 D, Q8 z5 X
◎片  长 60分钟9 c& L( z8 G) }! u3 g  |
◎导  演 Ken Burns
- z2 d0 y, d( C. z9 Q◎主  演 Betsy Apple, @$ \. m! V! q# J% y: D9 _
      Hoyt Axton
7 c$ X9 B  W  L* h! S: F      Ed Bearss
; b& G: S8 }, X7 t; p
' U. U* ~' Q* C* ~9 u+ c- R◎简  介0 k; \* C) E1 _! n- T1 ?4 H

# s6 k5 [- Z$ h" I! K. |1 H  汉语简介! |% h6 U. [8 U$ F. j- I
  19世纪工业革命传到美国,美国经济迅速发展,同时美国获得了西部的大片领土,急需劳动力,南方奴隶制成为经济发展的障碍。 1860年主张废除奴隶制的林肯当选总统,南方奴隶主发动叛乱,南方蓄奴州纷纷独立,1861年2月组成邦联政府,戴维斯当选总统。同年4月南方邦联军先发制人攻占萨姆特要塞,内战爆发。5 i3 q4 q7 i/ G& X
  南军准备充分,势如破竹,很快占领了海军基地诺福克,5月6日占领铁路枢纽马纳萨斯,进逼华盛顿,北军仓促应战,24日进入福吉尼亚。7月21日,北军被击溃,逃回华盛顿,林肯紧急动员50万志愿军。1862年,北军发动进攻,西线由格兰特指挥,进展顺利,2月攻克亨利堡和多纳尔森堡,4月在夏洛战役中击败南军,5月攻克科林斯和孟菲斯,解放了肯塔基和田那西。东线北军则进展迟缓,7月被罗伯特.李指挥的南军击溃,李乘胜北进,8月在布尔河再次击败北军,兵临华盛顿,9月两军进行安提塔姆会战,李被击退。12月北军在弗雷德里斯克堡战役中再次被李击败。* {* R1 c- V$ H% i/ B% \! w* T
  1863 年元旦林肯颁布「解放宣言」宣布解放黑奴,允许黑人参加北方军队,之后又颁布「宅地法」,允许所有美国人得到西部的土地。同年5月,北军再次进攻里士满,在切斯罗维尔被李击退。6月李再次北进,7月1日两军在葛底斯堡展开决战,3日南军被击败。在李北进的同时,格兰特在西线包围了南军防守密西西比河的要塞维克斯堡,5月22日北军发动总攻,进行了长达47天的炮击,7月4日南军投降。7月8日北军占领哈得逊港,南军被分割成东西两部分。9月北军攻克查塔努加,11月击退南军的反击。
2 `9 s- n7 u1 b  O  1864年北方发动全面进攻,5~6月格兰特率军同李进行一系列会战,李虽然每次都能取胜,但北军的援军不断到达,李军团陷于绝望。6月15日,北军进攻彼得斯堡,双方相持不下,拖住了南军主力达9个月。7月厄尔利率南军一部再次奔袭华盛顿,被北军谢里登部击退,谢里登在进军途中实施焦土战略,厄尔利军瓦解。5月谢尔曼在西线发起进攻,9月2日攻占亚特兰大,并破坏了该城。之后谢尔曼以宽正面向佐治亚海岸进军,沿途实施焦土战略破坏了一切南方可资利用的资源,12月21日谢尔曼攻占萨凡纳,将南方邦联东部分割成南北两半。1865年1月,谢尔曼北上,2月相继攻克哥伦比亚和查尔斯顿,3月和格兰特会师,4月3日攻占彼得斯堡,9日李率残部投降。4月14日,南方派人刺杀了林肯。26日南方投降,内战结束。- ^8 R3 p0 M. ^
  南北战争摧毁了奴隶制,为美国资本主义经济的发展扫清了道路。这次战争中工业革命带来了军事上的巨大进步,双方使用了金属弹壳和后装填步枪作战,使用铁路和蒸汽船实现快速的兵力机动和集结,使用蒸汽铁甲战舰进行海战,机械连发枪第一次投入实战,特别是北方发展了制造标准化零件组装武器的生产方式,大大提高了工业生产效率。
  1. Video
    - C/ F# g) \+ |- u
  2. ID                                       : 1
    ( G, c/ p6 j+ I/ y2 C: d/ B
  3. Format                                   : AVC
    - ]) e( i! s* }( V
  4. Format/Info                              : Advanced Video Codec
    ; m$ i6 w9 u. I8 _* p/ H
  5. Format profile                           : [email protected]* N1 |. [) G0 g" c1 {' A
  6. Format settings, CABAC                   : Yes
    6 g) q/ _, b. y; y. p3 g
  7. Format settings, ReFrames                : 11 frames
    8 Z/ k# _+ ]- O
  8. Codec ID                                 : V_MPEG4/ISO/AVC; v; Q+ a: f1 I* f8 S" ?2 n
  9. Duration                                 : 1h 35mn$ q; @+ O6 c: h3 I+ O% J) x2 a% m* r
  10. Bit rate                                 : 15.7 Mbps
    ( |- ?/ ?+ ~* Z
  11. Width                                    : 1 030 pixels( k3 a$ s* a# E+ q( O4 _! w
  12. Height                                   : 720 pixels" y6 Y$ K8 J' i" V8 e9 E
  13. Display aspect ratio                     : 1.432
    3 c' f) X% }: H/ T+ q
  14. Original display aspect ratio            : 1.431
    ! @/ C* m' F" I' q
  15. Frame rate mode                          : Constant) F: \  P! Y9 |+ K5 S5 Y1 }
  16. Frame rate                               : 23.976 (24000/1001) fps
    : Q: J7 E1 r, c' ]0 ^4 i. n
  17. Color space                              : YUV
    ! C! {1 C( o: T( I: Z
  18. Chroma subsampling                       : 4:2:0) _% n; {8 ~. @" E$ g; o, W
  19. Bit depth                                : 8 bits
    - }7 q" a3 {2 }. ?5 Q- t
  20. Scan type                                : Progressive
    1 E! |( P# f+ z3 t2 C' ~
  21. Bits/(Pixel*Frame)                       : 0.885
    . {& h! T( c; b7 ?% P* V$ ]; A
  22. Stream size                              : 10.5 GiB (96%)$ |- \- i* S( c: X7 d* d  A% k
  23. Title                                    : 720p x264
    7 T1 A3 o- v! z% F( {" w) N4 d; ?
  24. Writing library                          : x264 core 148 r2597+53 5548565 t_mod_Custom [[email protected] X86_64]
    $ x8 v% x# Y, y8 E: E$ Z) Q( u- L
  25. Encoding settings                        : cabac=1 / ref=11 / deblock=1:-3:-3 / analyse=0x3:0x133 / me=umh / subme=10 / psy=1 / fade_compensate=0.00 / psy_rd=1.15:0.00 / mixed_ref=1 / me_range=24 / chroma_me=1 / trellis=2 / 8x8dct=1 / cqm=0 / deadzone=20,10 / fast_pskip=0 / chroma_qp_offset=-2 / threads=12 / lookahead_threads=2 / sliced_threads=0 / nr=0 / decimate=0 / interlaced=0 / bluray_compat=0 / constrained_intra=0 / fgo=0 / bframes=8 / b_pyramid=2 / b_adapt=2 / b_bias=0 / direct=3 / weightb=1 / open_gop=0 / weightp=2 / keyint=250 / keyint_min=23 / scenecut=40 / intra_refresh=0 / rc=crf / mbtree=0 / crf=19.0000 / qcomp=0.65 / qpmin=0:0:0 / qpmax=69:69:69 / qpstep=4 / ip_ratio=1.30 / pb_ratio=1.20 / aq=3:0.70 / aq-sensitivity=10.00 / aq-factor=1.00:1.00:1.00 / aq2=0 / aq3=0* F3 G- f# |* c. u7 S5 |9 c" ?* @
  26. Language                                 : English! p% y, k2 Y; ], W! `
  27. Default                                  : Yes9 F1 k& y/ C& i5 ~
  28. Forced                                   : No
    / @0 J: K9 w( M7 w5 E/ O% v

  29. 7 x- `8 [8 |/ r# b. u, ]
  30. Audio #1/ w$ O# k  c0 b1 [
  31. ID                                       : 27 e- ^, R$ V* v# t! t
  32. Format                                   : AC-3
    ) U6 `( P, m: @) ~. ~1 M; r1 H
  33. Format/Info                              : Audio Coding 3# P. S, `  E3 B1 j
  34. Mode extension                           : CM (complete main)
      @+ A9 h, J. X2 v6 m
  35. Format settings, Endianness              : Big& `1 e+ n# F6 a5 v% g
  36. Codec ID                                 : A_AC35 c0 ^. D8 M* s0 Y+ |$ y7 D/ w
  37. Duration                                 : 1h 35mn
    ! }! P3 L( p4 W7 F* A
  38. Bit rate mode                            : Constant/ a; c4 L" X& l, Y, C
  39. Bit rate                                 : 640 Kbps
    / R  V/ P1 y8 N, \1 l9 v) Q
  40. Channel(s)                               : 6 channels, s1 b3 i5 ~! Q; Z3 W
  41. Channel positions                        : Front: L C R, Side: L R, LFE) ]' }/ g' N$ M5 W2 _3 G3 J
  42. Sampling rate                            : 48.0 KHz
    ; }, D# L5 P% N, o# `
  43. Frame rate                               : 31.250 fps (1536 spf)& @( q1 Y% A3 F4 X; r
  44. Compression mode                         : Lossy$ N! J- ?" D% U7 `9 s5 e
  45. Stream size                              : 436 MiB (4%)4 ]6 q3 |, }) i, T/ _- ?
  46. Title                                    : Main Audio: Y# i; k  q6 [6 F! K- r7 \* i
  47. Language                                 : English1 O# n7 n; t; z# [8 \' x
  48. Default                                  : Yes5 C" h. }" t  ~9 {
  49. Forced                                   : No2 k0 F) x" s$ g( p

  50. ; A2 k! \, [+ S; b
  51. Audio #2  Z/ V: k( l7 Z( `3 H/ i, Y/ w
  52. ID                                       : 3
    7 ]7 c: Y' u  _0 X" t
  53. Format                                   : Vorbis0 H0 N4 f# }( ?, q) |: z
  54. Format settings, Floor                   : 1  e9 y. E% u2 t# V
  55. Codec ID                                 : A_VORBIS9 \1 m  P  y1 m2 n
  56. Duration                                 : 1h 35mn7 B+ a- l4 I& A2 w4 r' j  k' h. r3 ^
  57. Bit rate mode                            : Variable! D- g% T# W! `: S7 t
  58. Bit rate                                 : 112 Kbps
    5 R& l7 ~( W0 t, h0 @7 @% t/ e% q
  59. Channel(s)                               : 2 channels9 L: ]7 R* p( [1 ]$ p% u, i& H5 R
  60. Sampling rate                            : 48.0 KHz
    ! j9 k- \( F3 g+ H0 l) }2 `7 P
  61. Frame rate                               : 64.556 fps (744 spf)
      @  s' v6 _3 ]$ _% j! n
  62. Compression mode                         : Lossy
    . X/ u& P2 \0 Z
  63. Stream size                              : 22.4 MiB (0%)
    ; q( R, S7 H2 s- `& E  c! d
  64. Title                                    : Commentary9 E4 A; c  J3 K' N) j" a" K4 q
  65. Writing library                          : aoTuV 20110424 (UTC 2011-04-24)! j% s& `4 |% t, ]7 E
  66. Language                                 : English
    ; H% c, o) x- P+ n. o* g- O4 _
  67. Default                                  : No/ t8 |% P1 Y% v& E  x+ B
  68. Forced                                   : No
    + R7 P/ w8 g1 k4 o
  69. & o+ N$ ?3 m7 `' l3 H0 w( R8 c
  70. Text #1& W+ N; I+ S/ K8 ~7 c
  71. ID                                       : 43 o# c7 T1 Z* B' }
  72. Format                                   : UTF-8
    ) E, @9 T+ i: y: }1 U* }
  73. Codec ID                                 : S_TEXT/UTF8, J8 }! O3 Q& h8 ?# [  S) R
  74. Codec ID/Info                            : UTF-8 Plain Text
    # h) M$ u7 J3 v' E4 N' c
  75. Duration                                 : 1h 30mn
    ! Q  Z; j) `- H: r3 h' j: {2 W/ {
  76. Bit rate                                 : 87 bps
    9 X" \7 P8 n0 h2 I* z
  77. Count of elements                        : 1610, s: i! h3 k, y
  78. Stream size                              : 58.3 KiB (0%)
    9 Y% i; o) _( T, }
  79. Title                                    : English. }  ~! u' R+ j/ S0 Y5 g9 h" c
  80. Language                                 : English$ {9 @0 Q# ^' y6 B3 M9 C7 c8 v
  81. Default                                  : No
    & X' `5 m" d8 B) ]& o" K
  82. Forced                                   : No. b7 g$ L) {! u/ C) ?5 V& w* W
  83. . O; J5 G" O! h* L
  84. Text #2% I, j# p9 w  p
  85. ID                                       : 5
    + n2 D6 H- d1 `
  86. Format                                   : UTF-8+ N2 ~7 U! g5 D0 R+ W
  87. Codec ID                                 : S_TEXT/UTF8
    8 ~0 S) k6 I% u7 t
  88. Codec ID/Info                            : UTF-8 Plain Text& i) N6 i" e  A* g" e
  89. Duration                                 : 1h 35mn! ]4 \3 \' H* F% _, c* f
  90. Bit rate                                 : 89 bps
    / R( p( T% N4 V6 _% q
  91. Count of elements                        : 1773/ A1 d8 B7 D" X/ B
  92. Stream size                              : 62.4 KiB (0%)% X% q6 l% Q$ X" s$ Z( P( c2 s$ H
  93. Title                                    : English (SDH)- V& ^3 k4 _  v( A* G
  94. Language                                 : English  D* ]: d1 p3 b. r  T/ g
  95. Default                                  : No$ e2 _( p* ?& @" J6 t4 ^" B2 l, Z
  96. Forced                                   : No
    " c% f( [: S$ e4 c: B5 I* j

  97. 4 g6 H. P0 E0 s. N$ y! }, [
  98. Menu #1
    % O* o6 p8 q) m( `! [  |& a( G
  99. 00:00:00.000                             : enrologue, h$ m" x  N: |" |" Z: o
  100. 00:10:56.698                             : en:Gettysburg: The First Day' p/ h8 }0 _. g' N, O
  101. 00:16:30.489                             : en:Gettysburg: The Second Day1 z- ]8 ^7 f# m8 |. e# B9 q" y
  102. 00:32:27.570                             : en:Gettysburg: The Third Day
    & g. \2 Z% h, O& I) {
  103. 00:51:58.574                             : en:She Ranks Me: b2 }/ ?( o: `) V5 s# Q
  104. 00:56:14.246                             : en:Vicksburg& ]! T* P! B& c$ S' a
  105. 01:00:07.312                             : en:Bottom Rail on Top
    2 o' H) }6 d6 W& a
  106. 01:13:39.415                             : en:The River of Death& ]" _/ a+ y) c4 ^1 h
  107. 01:25:26.246                             : en:A New Birth of Freedom
    $ D0 R1 `0 h- s, D/ q4 H3 n# T) |" Q
  108. 01:31:16.805                             : en:Credits4 q4 D# I* `+ w! I8 B& a# a; G) {
  109. 7 w5 D; u4 U% j- c
  110. Menu #2+ p; |( z. W( b  n
  111. 00:04:26.266                             : enrologue2 Y. u5 N$ C7 [3 K
  112. 00:16:30.489                             : en:Gettysburg: The Second Day
      b- Z1 j6 j2 f/ O& L
  113. 00:34:40.954                             : en:Gettysburg: The Third Day+ s8 {. W; b2 b6 C% s
  114. 01:26:43.865                             : en:A New Birth of Freedom
复制代码
1 V" `9 t; Q0 G# p

0 \1 c! N  o# W2 U
5 N  c% I  _' ]* Y
" o* s& h- g; S) L5 q# G. F  b$ U. D3 F3 H7 R, `" {7 o

: K9 P4 v% ]. e6 d0 g. Z; ?: K  U2 @( U

% u8 N8 d8 H2 i+ X7 K3 K* T" W
% O/ v4 H4 L  X2 x
游客,如果您要查看本帖隐藏内容请回复  捐助论坛可免回复查看隐藏内容详情请点击
HD一条街,身边的一条街。
发表于 2016-11-22 16:29:58 | 显示全部楼层
讲述美国南北战争的,这种纪录片很好
HD一条街,身边的一条街。
发表于 2016-11-22 22:13:48 | 显示全部楼层
感谢楼主发片,您辛苦!
HD一条街,身边的一条街。
发表于 3 天前 | 显示全部楼层
谢谢分享好片!!
HD一条街,身边的一条街。
您需要登录后才可以回帖 登录 | 立即注册

本版积分规则

手机版|小黑屋|有问题发邮件到admin#(换成@)hd1tj.org|微博|免责申明|HD一条街

GMT+8, 2016-12-7 01:57

Powered by Discuz! X3.1

© 2001-2013 Comsenz Inc.

快速回复 返回顶部 返回列表