开启辅助访问 切换到窄版

HD一条街论坛

 找回密码
 立即注册
查看: 33|回复: 8

[欧美] 二战全史 The.World.At.War.1973.720p.BluRay.DD5.1.x264-CtrlHD 62G

[复制链接]
发表于 2016-11-22 14:55:52 | 显示全部楼层 |阅读模式
161094_front.jpg + Q) P; q& q' d$ S9 b6 P
9 Z2 @; E. |# P8 m
: J; t% o* D  z- Q: f
◎译  名 二战全史/战争中的世界% `0 I) h, y7 @# p) j2 q9 g
◎片  名 The World At War
- a, h4 ?% [4 I& X6 y, p◎年  代 1973
) K7 k; _9 Y4 Q, Y% R◎国  家 英国( A  M  ]4 r& o% _. E
◎类  别 历史/战争/纪录片
- y6 L; R: l: P7 Q, U◎语  言 英语/ q/ p* U# ^# R
◎字  幕   英文
! b' H+ t! d' [8 D6 F: i  g◎整  理   HD一条街 www.hd1tj.org
. r3 R. q3 z: S◎上映日期 1973
# g+ G# i, K/ ~8 R" N7 E# N◎IMDb评分  9.2/10 from 12,261 users1 w1 U/ G% v) j' X- |& K
◎IMDb链接  http://www.imdb.com/title/tt0071075/
6 X7 v6 H: ^6 v0 r8 Z$ m0 X6 M- [  i◎豆瓣评分 9.4/10 from 707 users
" L; h9 ?% x5 L& O9 v: ~& m* O◎豆瓣链接 https://movie.douban.com/subject/1807504/
1 y; f& a: z& k6 S! S. z' O, M◎集  数 26
$ J# e1 a! z4 F$ F6 _8 z4 M4 O◎片  长 52分钟7 p: N7 K7 n7 O8 @' R
◎导  演 Ted Childs* [$ V- C' D% `1 }  F
◎主  演 劳伦斯·奥利弗 Laurence Olivier% W2 [  R* c3 ~' D* b- M! `

' g* N* ~- Y, j- F" X5 A4 J◎简  介) O6 m( D6 k2 t7 I
, V0 j0 l7 S3 y) k
  该纪录片通过德国、意大利、日本三个轴心国分别在欧洲、亚洲、中东所挑起的战争,表现了在第二次世界大战中,世界反法西斯联盟在海、陆、空的各个战场上英勇抗击法西斯侵略者宏大场面。通过该片使我们充分了解到如:斯大林格勒、诺曼底登陆及攻克柏林等重大战役珍贵史实资料。
0 k6 K# k; D  h* G- L: N/ i7 b  重温《The World At War》  ^. s, s8 Z/ ?! l6 ^, V/ \( |5 M
  1、制作
4 j( D. Q6 u! U& ]  2、一个新的德国,1933-1939/ q. ?9 g8 v# @) @3 Q
  3、奇怪的战争,1939年9月-1940年5月$ F/ Y0 L+ {- J( I
  4、法国沦陷,1940年5月-6月; V- n" S. P) K* |
  5、单独作战,1940年5月-1941年5月
- K( h1 N: P1 c  6、巴巴罗萨,1941年6月-12月0 S2 _, a& Q9 K# `
  7、万岁!日本,1931-1942
% l1 }! a% L( l( y, o  8、走我的路,美国,1939-1942( N# H8 S& _3 P6 `
  9、北非沙漠,1940-1943
) p, E9 [& I  }+ d: i% ~  10、斯大林格勒,1942年6月-1943年1月0 Z7 ^: Q8 N/ |/ Y6 u/ p
  11、狼群战术7 |( [7 O7 [5 a) G8 X2 ~+ z; \
  12、苏联红星,1941-19431 f3 x" C# m$ h+ G
  13、旋风轰炸德国,1939年9月6 x' F! R. k. `, Z2 b/ E
  14、回顾往事4 T8 A' C# G" n' X
  15、一个可爱的日子,昨天:缅甸& t8 \- ]4 i2 F6 d: ^8 ]
  16、家园遭焚:英国 1940-1941
  e+ x; d: D; O4 M- m  17、帝国内:德国,1940-1944/ ]( c2 K) u0 ^5 c1 N+ a2 s
  18、六月黎明:1944年8月
0 \+ ?; W/ ]8 i4 M  19、占领荷兰,1940-1944
" \; \* M0 X1 N+ {- p1 b  20、钳形攻势,1944年8月-1945年3月) ^' X+ P' u+ O- i4 u  L
  21、大屠杀 1941-1945
2 q5 C. K0 @& J* i/ x* |  22、报应,德国,1945年1月-5月1 E9 n8 i. A5 z% b9 N
  23、日本,1941-1945
- e! x2 M5 |& s# O  ~1 M  24、太平洋,1942年2月-1945年7月, t4 N: T, K- ~$ R. h1 P2 W) ?3 i  f
  25、核弹,1945年1月-9月
. H& O; F% U/ W, J! ^2 S  26、清算
$ P  a" \: u: L- U: z  27、回忆6 R/ I' X% K! Z0 {! l/ G
  特辑一:希特勒的秘书' q+ H  ]5 D8 D% {" B
  特辑二:谁赢的了二战
) X/ t/ b$ ?* J+ W, h2 S: Q: r( Y% c  特辑三:希特勒之死4 z( r( K- I: A0 D4 y
  特辑四:勇士们/ l1 Q" |" |3 G" x# V; H/ O
  特辑五之一:奥斯威辛集中营(上)
  N' B# C2 Z$ y/ `7 Z; v, i6 o6 Q  特辑五之一:奥斯威辛集中营(下)  E& M* R; U1 a  {& }
  特辑五之二:奥斯威辛集中营(上)
6 D( U2 ?3 X" C- k: {% v. D( Z  特辑五之二:奥斯威辛集中营(下)8 e' h  z8 h/ [, `6 `: V
  特辑六之一:人民公社(上)
; x4 Z% b! r7 o& H# `  特辑六之一:人民公社(下)' A9 a2 @8 j5 I9 R3 e
  特辑六之二:人民公社(上)
/ Z6 D  }8 `; G+ m) n" L# I  特辑六之二:人民公社(下)8 T- x7 Y% `; p- i
  这是我能找到的《The World At War》最详细的分集名字了,有些是我自己起的名字 :cool!: 这部1974年英国一家电视制作公司制作完成的宏伟巨作应该是反映第二次世界大战最权威的纪录片。看看他们做了多少工作就知道这部片子的分量,出现在他们影片中的有事件发生的当事人,有高级军官,有政治家,有普通百姓、还有普通士兵。整部大约26小时的影片中没有一个重复镜头,全部镜头均取材于当时的战时宣传影片或照片。该片的解说为著名英国演员劳伦斯奥里佛爵士,相信听过他诠释哈姆雷特“生存还是死亡”的人对他的声音应该有印象。此外该片的资助人是大英博物馆,每集的拍摄都组成了单独的制作小组,有各自独立的编剧、导演,然后经过专门聘请的历史学家审评,再加以精心制作。我相信,在反映二战的纪录片中,不但过去没有,今后恐怕也没有能超越这部片子的了。
# r, B+ ]) Q/ \! q3 Q. }: x1 @  第一次看到这样翻译纪录片的,十分新鲜。不过令我念念不忘的还是影片带给我的震撼,当看到身临其境者一个个出现在屏幕上现身说法时,还有比这更有说服力的吗?比如第7辑《万岁!日本》中描述珍珠港事件,被采访的有日军计划制定者、特遣舰队的海军军官、驻珍珠港的日本间谍、空袭珍珠港的日军飞行员、当时在场的美国陆军军官、美国海军军官和水兵,甚至还有当时珍珠港的平民。短短20分钟的叙述让你永远难忘。
  1. Video# ^& [$ [6 K. I6 }/ g; S/ [' i
  2. ID                                       : 10 [) f  Y& k6 \; V  y2 n
  3. Format                                   : AVC
    6 @9 ~& X( M( R9 f: x
  4. Format/Info                              : Advanced Video Codec! b6 ^) n4 C3 J! H, F/ f) O6 U
  5. Format profile                           : [email protected]
    " o7 R( x0 [& n
  6. Format settings, CABAC                   : Yes
    / Y3 v! }- G+ D7 y" _! B
  7. Format settings, ReFrames                : 9 frames
    & b& @9 B4 F# Q* |
  8. Codec ID                                 : V_MPEG4/ISO/AVC# T3 x$ M0 b' M9 v1 Y3 z- R
  9. Duration                                 : 54mn 45s2 J' u+ M- y0 {7 V* _
  10. Bit rate                                 : 7 574 Kbps+ z6 i! k' p2 ~/ `, ]3 A
  11. Width                                    : 1 280 pixels# I& g+ o5 u7 c5 j+ N6 }) y. h3 P
  12. Height                                   : 720 pixels1 Q0 h- Q6 _6 Z' W8 R2 C
  13. Display aspect ratio                     : 16:9
    - ^4 R& m; F% E6 D2 \9 |8 r
  14. Frame rate mode                          : Constant
    1 I$ k/ n9 P  p
  15. Frame rate                               : 23.976 (24000/1001) fps
    ' [1 a) l9 m/ c: R
  16. Color space                              : YUV+ u' I$ c) J9 L- b. N
  17. Chroma subsampling                       : 4:2:00 T$ {, _5 w% ^) G* Z
  18. Bit depth                                : 8 bits& T$ u5 X6 B0 F8 p1 G& v
  19. Scan type                                : Progressive" l! `; `2 d' @
  20. Bits/(Pixel*Frame)                       : 0.343& Y% O7 p' e/ ]3 K0 v' Z( p# B" y
  21. Stream size                              : 2.90 GiB (93%). y6 E3 A7 f  Q3 r1 D0 g' ^
  22. Title                                    : x264 crf 21+ C( D* n  Q9 Z8 c$ x  K
  23. Writing library                          : x264 core 110 r1820+3 c488b3b
    / o0 g3 W& U( G9 _! I- v% U
  24. Encoding settings                        : cabac=1 / ref=9 / deblock=1:-2:-2 / analyse=0x3:0x133 / me=tesa / subme=10 / psy=1 / fade_compensate=0.00 / psy_rd=1.09:0.00 / mixed_ref=1 / me_range=32 / chroma_me=1 / trellis=2 / 8x8dct=1 / cqm=0 / deadzone=21,11 / fast_pskip=0 / chroma_qp_offset=-2 / threads=12 / sliced_threads=0 / nr=0 / decimate=0 / interlaced=0 / constrained_intra=0 / fgo=0 / bframes=9 / b_pyramid=2 / b_adapt=2 / b_bias=0 / direct=3 / weightb=1 / open_gop=0 / weightp=2 / keyint=240 / keyint_min=24 / scenecut=40 / intra_refresh=0 / rc=crf / mbtree=0 / crf=21.0 / qcomp=0.80 / qpmin=0 / qpmax=51 / qpstep=4 / ip_ratio=1.20 / pb_ratio=1.20 / aq=1:0.60
    6 H0 _6 Y! ^% P+ z1 d% {
  25. Language                                 : English
    , E- }2 D" r' m3 S6 _1 M
  26. Default                                  : Yes$ e. E6 E5 p2 W
  27. Forced                                   : No
    # |2 `2 k# O' V* k2 |6 j( x/ B

  28. " J% }& }1 p* G
  29. Audio, {2 E3 f) b" d% A5 O
  30. ID                                       : 27 U. z/ T6 ^5 a
  31. Format                                   : AC-3
    ! k1 \0 s1 `  m; v3 q& s0 v3 ~
  32. Format/Info                              : Audio Coding 3
    % G6 `( o1 M. \' J: F* [- ]
  33. Mode extension                           : CM (complete main): X3 {7 C6 E; f
  34. Format settings, Endianness              : Big. @  n  L7 P! E1 M& G/ Z# u, G: z$ k
  35. Codec ID                                 : A_AC3
    & x) W4 T  q# h% o- m: |- k2 Q3 t
  36. Duration                                 : 54mn 45s
    # j" |' d1 k5 A3 g$ b# B6 A/ [
  37. Bit rate mode                            : Constant7 E8 `/ \- i+ y) L/ h5 ~2 a
  38. Bit rate                                 : 448 Kbps7 n! a; ~, Y* t( e+ y9 Z+ O
  39. Channel(s)                               : 6 channels
    4 A$ ~5 [, Q0 g' G, \; W4 ~
  40. Channel positions                        : Front: L C R, Side: L R, LFE1 g/ U2 X1 v0 f3 t5 w4 p  f
  41. Sampling rate                            : 48.0 KHz8 u. `) T( H% M
  42. Frame rate                               : 31.250 fps (1536 spf)3 b: O8 F! Q$ P( S
  43. Compression mode                         : Lossy
    3 X$ G4 N2 K* x; H8 N
  44. Stream size                              : 175 MiB (5%)
    - Y. Y2 R9 M. Q  @% E9 i) @
  45. Title                                    : AC3 @ 448 kbps
    - z7 A/ Z' S$ H4 ^: f
  46. Language                                 : English
    * D3 D6 y( s8 \6 f# _1 A" \
  47. Default                                  : Yes* _4 o! t/ G, j1 w
  48. Forced                                   : No7 F; G  Q* s! G
  49. 1 ^3 Q, w' j8 F# P- a
  50. Text/ w3 e* Q: d/ _9 z; i9 x
  51. ID                                       : 3# h; y* d: e, N: L. g: [
  52. Format                                   : PGS
    * W& `  S+ r1 F+ W9 N, F% U
  53. Muxing mode                              : zlib
    ( X9 D5 r, i& A
  54. Codec ID                                 : S_HDMV/PGS1 o. T+ \) R" B& D2 T4 w( R
  55. Codec ID/Info                            : Picture based subtitle format used on BDs/HD-DVDs& x+ f6 w2 W/ S
  56. Title                                    : English subs; c8 w# v- p! h! d7 S' {
  57. Language                                 : English
    5 B9 D3 K& E' z2 d5 i& x1 p
  58. Default                                  : Yes
    0 @8 @& n# k) M8 ~
  59. Forced                                   : No
    4 p. a; ?* W: E
  60. ( |5 p& e4 Q8 l' B3 u1 B( G2 ?
  61. Menu' A- @5 l$ L3 [4 c' j, L( g5 L
  62. 00:00:00.000                             : en:00:00:00.000% `" x+ P. I" x7 t6 H* ?$ {
  63. 00:00:10.636                             : en:00:00:10.636* R- q5 k( P1 h% E8 v" v( {
  64. 00:01:56.700                             : en:00:01:56.700
    8 h$ I6 A- W2 Z. E) C0 k
  65. 00:05:09.267                             : en:00:05:09.267
    ! _( ^& L2 Q0 k1 o3 z
  66. 00:06:04.573                             : en:00:06:04.573# |1 T& q4 S3 V5 [8 O
  67. 00:08:06.403                             : en:00:08:06.403
    - W- \, D4 J# s- L" o* `
  68. 00:11:18.845                             : en:00:11:18.845% A6 ]5 n) |' m
  69. 00:13:19.799                             : en:00:13:19.7998 l' j0 o3 U' ~5 p2 ~1 U
  70. 00:15:02.235                             : en:00:15:02.235
    . R/ x0 Q* u& [
  71. 00:16:58.726                             : en:00:16:58.726: ]( Z0 B  h  `
  72. 00:20:26.725                             : en:00:20:26.725
    ) }: ^' y( j6 t' f, O
  73. 00:26:24.500                             : en:00:26:24.500
    7 w4 ~. u- Y, ^+ D% e  J
  74. 00:26:38.597                             : en:00:26:38.597
    ) E  X: B2 c) o: j
  75. 00:33:29.507                             : en:00:33:29.507- p/ ^; s& b4 s. T  c. ^
  76. 00:37:43.636                             : en:00:37:43.636
    . @2 T; l3 j0 K7 g$ m
  77. 00:45:51.207                             : en:00:45:51.207
    : A' A: P8 N- L, S" y5 z" d
  78. 00:48:22.942                             : en:00:48:22.942) x. r$ J( b+ f% c4 G, ?6 w" f) u
  79. 00:50:55.844                             : en:00:50:55.844
复制代码
1 d+ e* D- n8 t9 U0 h8 d/ W

' C, o- l- D" R* G
9 a' {2 v2 T! A# E) i& t  I- a) @! H

, t2 q  v4 Z; D  a! l' H" ^( U5 a$ ~  d

" r' N* ^. l! ?5 V  k: r1 |6 M9 \0 A4 V: v$ p

) E% a  h' h% c/ X
游客,如果您要查看本帖隐藏内容请回复  捐助论坛可免回复查看隐藏内容详情请点击
HD一条街,身边的一条街。
发表于 2016-11-22 15:16:23 | 显示全部楼层
德意日,当时的三大霸权啊
HD一条街,身边的一条街。
头像被屏蔽
发表于 2016-11-22 18:09:42 | 显示全部楼层
提示: 作者被禁止或删除 内容自动屏蔽
HD一条街,身边的一条街。
发表于 2016-11-22 19:54:17 | 显示全部楼层
thanks very much
HD一条街,身边的一条街。
发表于 2016-11-22 21:31:03 | 显示全部楼层
感谢楼主分享!
HD一条街,身边的一条街。
发表于 2016-11-22 22:10:02 | 显示全部楼层
不错 这个很好看
HD一条街,身边的一条街。
发表于 2016-11-23 13:37:59 | 显示全部楼层
容量太大.看来要多一个硬盘
HD一条街,身边的一条街。
发表于 2016-11-25 20:35:12 | 显示全部楼层
不错的好片,谢谢分享
HD一条街,身边的一条街。
发表于 2016-11-28 08:30:11 | 显示全部楼层
感谢楼主分享。
HD一条街,身边的一条街。
您需要登录后才可以回帖 登录 | 立即注册

本版积分规则

手机版|小黑屋|有问题发邮件到admin#(换成@)hd1tj.org|微博|免责申明|HD一条街

GMT+8, 2016-12-8 10:03

Powered by Discuz! X3.1

© 2001-2013 Comsenz Inc.

快速回复 返回顶部 返回列表