开启辅助访问 切换到窄版

HD一条街论坛

 找回密码
 立即注册
查看: 94|回复: 10

[欧美] 二战全史 The.World.At.War.1973.720p.BluRay.DD5.1.x264-CtrlHD 62G

[复制链接]
发表于 2016-11-22 14:55:52 | 显示全部楼层 |阅读模式
161094_front.jpg
+ T& L9 W$ m1 K. D5 B7 g# Z. ~0 s* o( V  ?( L

0 t4 O% S/ ?6 _* ~: D" h5 `◎译  名 二战全史/战争中的世界
2 c' o9 @1 w3 I% s* {' b◎片  名 The World At War
5 v- [, A! p1 b1 r8 u" [) J  k◎年  代 19736 [& e4 `2 L5 P& t
◎国  家 英国% }- R; ?- A4 p
◎类  别 历史/战争/纪录片1 W$ A. i" e; O/ b) b
◎语  言 英语
9 X8 T# o% A' B5 Y0 S' T◎字  幕   英文
8 g" Q. v$ _: A; V) ^! O- I$ y◎整  理   HD一条街 www.hd1tj.org
7 m' m( Y9 s( Z. U9 Q- b  p; R◎上映日期 1973
! V5 Y, a) P2 b3 X+ f) k◎IMDb评分  9.2/10 from 12,261 users1 Z  E1 E: Y# Q6 F
◎IMDb链接  http://www.imdb.com/title/tt0071075/& v1 Z, J! j- g# T9 O1 d- `
◎豆瓣评分 9.4/10 from 707 users/ R: x) G/ u5 B* @% ]
◎豆瓣链接 https://movie.douban.com/subject/1807504/
" [. L. `* S6 r6 Q7 p◎集  数 26
5 W$ M1 D7 T! W: X* i◎片  长 52分钟3 P1 v4 U8 x# b/ v
◎导  演 Ted Childs2 V  ]6 I# ~. k
◎主  演 劳伦斯·奥利弗 Laurence Olivier/ j5 n# P6 ]0 U3 h- E

( Z1 P7 b5 y2 l( q◎简  介& l2 k: ~5 x4 s- s9 P
% O$ {3 u5 a! i
  该纪录片通过德国、意大利、日本三个轴心国分别在欧洲、亚洲、中东所挑起的战争,表现了在第二次世界大战中,世界反法西斯联盟在海、陆、空的各个战场上英勇抗击法西斯侵略者宏大场面。通过该片使我们充分了解到如:斯大林格勒、诺曼底登陆及攻克柏林等重大战役珍贵史实资料。, e5 h  m2 [; _% `) e
  重温《The World At War》
, U+ O5 }* V8 |2 K  1、制作% G" g- e+ ]& \7 A- Z( P' c
  2、一个新的德国,1933-19394 r6 x# E8 w0 C( i
  3、奇怪的战争,1939年9月-1940年5月& R* `# \* e7 q& M
  4、法国沦陷,1940年5月-6月# n% q( o6 S' g2 ]) B; m
  5、单独作战,1940年5月-1941年5月
0 O# |0 x* R1 ?  6、巴巴罗萨,1941年6月-12月
: s: U8 D# g3 U6 {2 {6 s  7、万岁!日本,1931-19427 @: L% f, L9 I2 T& L2 |# b
  8、走我的路,美国,1939-1942
6 F  K  Z6 p& D/ f& V" ?1 r& m; X  9、北非沙漠,1940-1943
0 y2 ]% K% }' P/ P& k  n2 z  10、斯大林格勒,1942年6月-1943年1月
7 X+ A1 l4 s3 j3 z3 o" E  11、狼群战术# ^$ E8 G3 O. B, f7 f9 ^9 g
  12、苏联红星,1941-1943
( h6 y8 t( J0 t: ]; ?" W  13、旋风轰炸德国,1939年9月! C% k: u, t3 c
  14、回顾往事5 K! J+ @- Y) q4 ]; m) Z9 [
  15、一个可爱的日子,昨天:缅甸
% O7 C( T5 D. l& @! k% W  16、家园遭焚:英国 1940-1941
* h3 q. Z( M; P1 \% n5 ^8 ^; U  17、帝国内:德国,1940-1944
$ ]3 |+ s6 |- R* f& C. B  Q& D  18、六月黎明:1944年8月6 z. I7 d3 L: r) d, ^6 @& i# l
  19、占领荷兰,1940-1944
) ^" Y- Y( |, Z+ h3 k4 Q: a% z  20、钳形攻势,1944年8月-1945年3月# K; l/ T* n* }
  21、大屠杀 1941-1945
$ G; p4 k: N6 o2 j1 [4 @  22、报应,德国,1945年1月-5月
! a3 Y. a% y( r  23、日本,1941-1945! N" a- I  w# W5 P. b9 w! ]3 u: n
  24、太平洋,1942年2月-1945年7月4 W3 `8 L+ H% l' ?, I3 T
  25、核弹,1945年1月-9月
) Y  I1 ]$ U: K; E  26、清算
$ @) C- K& t$ \  27、回忆! R: l  E! [% i: B- @( J
  特辑一:希特勒的秘书+ \% o8 [  y1 ~1 q7 B' z: x/ p
  特辑二:谁赢的了二战7 W6 T9 [- C% j# }, i3 t
  特辑三:希特勒之死
8 o! H5 ^5 M/ o% Q1 \2 w6 y  特辑四:勇士们
- L% S  E+ M8 D* r# M4 h( W- B  特辑五之一:奥斯威辛集中营(上)" J# ]4 v( j/ c
  特辑五之一:奥斯威辛集中营(下)+ I; M; V: F3 v  @2 |
  特辑五之二:奥斯威辛集中营(上)5 w5 w$ N2 h; E/ T2 e
  特辑五之二:奥斯威辛集中营(下)
" y% [+ r) \' Z9 ]/ ?1 v0 F  特辑六之一:人民公社(上)
! m) n8 o3 `5 [4 h; o" C  特辑六之一:人民公社(下)# S- i: O+ @9 Y$ T4 e2 v2 x
  特辑六之二:人民公社(上)) S/ E9 y' D2 k0 W6 J
  特辑六之二:人民公社(下)+ _) T' W+ ]# ~
  这是我能找到的《The World At War》最详细的分集名字了,有些是我自己起的名字 :cool!: 这部1974年英国一家电视制作公司制作完成的宏伟巨作应该是反映第二次世界大战最权威的纪录片。看看他们做了多少工作就知道这部片子的分量,出现在他们影片中的有事件发生的当事人,有高级军官,有政治家,有普通百姓、还有普通士兵。整部大约26小时的影片中没有一个重复镜头,全部镜头均取材于当时的战时宣传影片或照片。该片的解说为著名英国演员劳伦斯奥里佛爵士,相信听过他诠释哈姆雷特“生存还是死亡”的人对他的声音应该有印象。此外该片的资助人是大英博物馆,每集的拍摄都组成了单独的制作小组,有各自独立的编剧、导演,然后经过专门聘请的历史学家审评,再加以精心制作。我相信,在反映二战的纪录片中,不但过去没有,今后恐怕也没有能超越这部片子的了。" h# a6 j: \( Q% T; W" O
  第一次看到这样翻译纪录片的,十分新鲜。不过令我念念不忘的还是影片带给我的震撼,当看到身临其境者一个个出现在屏幕上现身说法时,还有比这更有说服力的吗?比如第7辑《万岁!日本》中描述珍珠港事件,被采访的有日军计划制定者、特遣舰队的海军军官、驻珍珠港的日本间谍、空袭珍珠港的日军飞行员、当时在场的美国陆军军官、美国海军军官和水兵,甚至还有当时珍珠港的平民。短短20分钟的叙述让你永远难忘。
  1. Video
    % ]. a) x" q* {6 q, ^: L# h
  2. ID                                       : 1
    3 X: V6 Y" ?& W1 b+ B
  3. Format                                   : AVC
    4 W1 s0 W6 M  _% ]
  4. Format/Info                              : Advanced Video Codec+ l4 D7 w  w# A3 V8 Z5 ?" D
  5. Format profile                           : [email protected]
    3 x/ i- l( v: y- I' w
  6. Format settings, CABAC                   : Yes- o. H: y5 |6 z% g
  7. Format settings, ReFrames                : 9 frames" U* D+ N5 O4 h: ]' U1 o
  8. Codec ID                                 : V_MPEG4/ISO/AVC7 h5 q% E+ L9 r+ w. ]1 i4 H9 L
  9. Duration                                 : 54mn 45s% M2 A# l/ |+ k
  10. Bit rate                                 : 7 574 Kbps
    4 \) c3 O1 `& d% s1 r6 C# a
  11. Width                                    : 1 280 pixels, P: [0 b; l. p+ G8 ]2 N6 U
  12. Height                                   : 720 pixels% L! ~; S. c1 N3 Y! M
  13. Display aspect ratio                     : 16:9
    4 R+ z2 J, g, Q/ ]/ P
  14. Frame rate mode                          : Constant
    0 v# R' J7 N' ]! }' x  }/ N/ x+ ?
  15. Frame rate                               : 23.976 (24000/1001) fps
    . k- }6 h; x# w4 Z3 D7 V
  16. Color space                              : YUV
    5 p% B; }4 b6 r0 p
  17. Chroma subsampling                       : 4:2:0. X; D  I9 u9 s* Q
  18. Bit depth                                : 8 bits, ~, [# n, {" l4 ~
  19. Scan type                                : Progressive
    2 l* D$ e2 U% Z) j
  20. Bits/(Pixel*Frame)                       : 0.3437 L& e  o1 G) e$ k
  21. Stream size                              : 2.90 GiB (93%)
    6 K" z$ F- L* D* M7 ?# K$ b$ a
  22. Title                                    : x264 crf 210 \" ]+ K) f# c! s# f, r
  23. Writing library                          : x264 core 110 r1820+3 c488b3b
    % A: c4 m9 H5 o( F8 j9 l
  24. Encoding settings                        : cabac=1 / ref=9 / deblock=1:-2:-2 / analyse=0x3:0x133 / me=tesa / subme=10 / psy=1 / fade_compensate=0.00 / psy_rd=1.09:0.00 / mixed_ref=1 / me_range=32 / chroma_me=1 / trellis=2 / 8x8dct=1 / cqm=0 / deadzone=21,11 / fast_pskip=0 / chroma_qp_offset=-2 / threads=12 / sliced_threads=0 / nr=0 / decimate=0 / interlaced=0 / constrained_intra=0 / fgo=0 / bframes=9 / b_pyramid=2 / b_adapt=2 / b_bias=0 / direct=3 / weightb=1 / open_gop=0 / weightp=2 / keyint=240 / keyint_min=24 / scenecut=40 / intra_refresh=0 / rc=crf / mbtree=0 / crf=21.0 / qcomp=0.80 / qpmin=0 / qpmax=51 / qpstep=4 / ip_ratio=1.20 / pb_ratio=1.20 / aq=1:0.60  ~$ u9 V5 e/ D8 O; z
  25. Language                                 : English" \; ~1 w( M" o9 D  t
  26. Default                                  : Yes
    1 N  V4 S5 P! {$ N1 Y* b
  27. Forced                                   : No+ ~! ~4 E, R1 p% `

  28. 5 ?: E7 r4 e8 O' M; m. Q+ g
  29. Audio+ E" C6 s% \# d! u5 P, |1 s
  30. ID                                       : 2- p) C2 e) e1 o3 f6 x* Z
  31. Format                                   : AC-3
    , S: |4 R* I% Y8 Z" v" v+ F
  32. Format/Info                              : Audio Coding 3
    5 x) U. W" L8 b" A( n
  33. Mode extension                           : CM (complete main)* x, ]' j6 _% J, B6 x
  34. Format settings, Endianness              : Big2 u7 |2 ?( h. m1 u0 ^. q
  35. Codec ID                                 : A_AC3
    ' [  Q% v+ @0 V
  36. Duration                                 : 54mn 45s/ J) ^: _# A! j. q  E
  37. Bit rate mode                            : Constant
    7 @  v7 K# l( ]0 s
  38. Bit rate                                 : 448 Kbps8 {$ ]* G3 N. j# y5 _0 f3 H
  39. Channel(s)                               : 6 channels! Z  ^+ c/ t. R( O7 v2 U1 P+ Q6 d
  40. Channel positions                        : Front: L C R, Side: L R, LFE; S/ i1 I3 T+ D1 w" E5 ?% @
  41. Sampling rate                            : 48.0 KHz/ d$ j1 i8 S8 G+ o
  42. Frame rate                               : 31.250 fps (1536 spf); f% t, G+ K% P  O1 T; M
  43. Compression mode                         : Lossy: X3 v$ N3 q5 I" r5 i
  44. Stream size                              : 175 MiB (5%)
    3 _( D# L, o1 z% I6 V1 z& k5 K: n
  45. Title                                    : AC3 @ 448 kbps5 H0 G  T; r4 J9 a/ V. @0 T) s
  46. Language                                 : English
    4 e) ^" k( d; V$ ?! z: z
  47. Default                                  : Yes
    : s7 |. U7 N4 z: D' W4 V- k
  48. Forced                                   : No
    3 V; S0 ^. G  n( n6 i4 i, Y+ B

  49. 6 o7 s! B, W! g8 q3 S' \
  50. Text" Z, M2 E% Y5 T
  51. ID                                       : 3
    $ n( r7 f; S' Z  g- O/ J# @. ]
  52. Format                                   : PGS* E* S4 U- ^, o
  53. Muxing mode                              : zlib* e2 Q( t9 O9 o: _$ H
  54. Codec ID                                 : S_HDMV/PGS
    & P+ H) L# s% i! d) [2 U
  55. Codec ID/Info                            : Picture based subtitle format used on BDs/HD-DVDs
    1 V( `8 g! B8 n$ j
  56. Title                                    : English subs
    ; w, z% v) j6 f/ T7 c# w! B
  57. Language                                 : English1 V) @9 ^& c" K
  58. Default                                  : Yes
      X! L1 X/ h* ^5 F+ h5 y$ ?
  59. Forced                                   : No
    9 T& ^7 ~' J, U0 ]9 n* d, p. C

  60.   x& H  w6 L9 J( q9 _5 B6 F
  61. Menu% o, ]4 w9 J: V/ O5 J0 I6 H" U% Y7 v
  62. 00:00:00.000                             : en:00:00:00.000
    . R$ e1 [4 |- R, H- Z+ b' l
  63. 00:00:10.636                             : en:00:00:10.636
    . F( K) I6 Y" k1 U
  64. 00:01:56.700                             : en:00:01:56.700
    5 @2 j, I+ Q( [) a8 A- X
  65. 00:05:09.267                             : en:00:05:09.267
    ( J, E& H% `+ d) U
  66. 00:06:04.573                             : en:00:06:04.573
    3 p- k) o$ U* k* ^( r* k& k
  67. 00:08:06.403                             : en:00:08:06.403
    , W2 Z3 d/ Y. r9 c) J. F
  68. 00:11:18.845                             : en:00:11:18.845
    ' E8 @3 r8 s4 u& s
  69. 00:13:19.799                             : en:00:13:19.799+ w; a3 W5 E% q4 F3 E: k9 E! P0 c
  70. 00:15:02.235                             : en:00:15:02.235
    + y$ D8 e7 w1 n) M; ^- ]5 H
  71. 00:16:58.726                             : en:00:16:58.7262 j5 G& y: @* x, H% C
  72. 00:20:26.725                             : en:00:20:26.725
    # ?1 C) M4 j* Z( _- Z( A
  73. 00:26:24.500                             : en:00:26:24.500" l) d3 O" H; B2 U/ A/ g& V. M
  74. 00:26:38.597                             : en:00:26:38.597- M2 l* q% y0 F! V
  75. 00:33:29.507                             : en:00:33:29.507
    ! d! L7 M- X4 C% C8 j7 s4 _
  76. 00:37:43.636                             : en:00:37:43.636
    8 v% M) S  H* D" Y& J
  77. 00:45:51.207                             : en:00:45:51.2074 X2 {. C1 Z& T& `# N
  78. 00:48:22.942                             : en:00:48:22.942
    4 s; `6 O6 {6 P( A8 l6 l4 _# j: A3 v
  79. 00:50:55.844                             : en:00:50:55.844
复制代码

( v) q- J. b1 ~9 e. P
/ g5 w. P; f  _9 u+ I! ?- G+ A4 K7 O: `! p' L
7 U" C- u4 J* v8 {  M7 `' p

% o# x: G3 W! l# H0 G
3 Z* @# m0 {1 C: J/ g3 ~
% u* q4 a; w9 [6 F  e' B7 e. }# h5 t5 t( X

8 a  Y' p9 W) d3 k5 m) C
游客,如果您要查看本帖隐藏内容请回复  捐助论坛可免回复查看隐藏内容 详情请点击
最近访问 头像模式 列表模式
HD一条街,身边的一条街。
发表于 2016-11-22 15:16:23 | 显示全部楼层
德意日,当时的三大霸权啊
HD一条街,身边的一条街。
发表于 2016-11-22 18:09:42 | 显示全部楼层
的顶顶顶顶顶顶顶顶顶顶顶顶顶顶顶
HD一条街,身边的一条街。
发表于 2016-11-22 19:54:17 | 显示全部楼层
thanks very much
HD一条街,身边的一条街。
发表于 2016-11-22 21:31:03 | 显示全部楼层
感谢楼主分享!
HD一条街,身边的一条街。
发表于 2016-11-22 22:10:02 | 显示全部楼层
不错 这个很好看
HD一条街,身边的一条街。
发表于 2016-11-23 13:37:59 | 显示全部楼层
容量太大.看来要多一个硬盘
HD一条街,身边的一条街。
发表于 2016-11-25 20:35:12 | 显示全部楼层
不错的好片,谢谢分享
HD一条街,身边的一条街。
发表于 2016-11-28 08:30:11 | 显示全部楼层
感谢楼主分享。
HD一条街,身边的一条街。
发表于 2016-12-10 16:12:54 | 显示全部楼层
感谢楼主分享,太需要啦。
HD一条街,身边的一条街。

手机版|小黑屋|有问题发邮件到admin#(换成@)hd1tj.org|微博|免责申明|HD一条街

GMT+8, 2017-3-30 08:58

Powered by Discuz! X3.1

© 2001-2013 Comsenz Inc.

快速回复 返回顶部 返回列表