开启辅助访问 切换到窄版

HD一条街论坛

 找回密码
 加入我们
查看: 108|回复: 7

[欧美] 纪录片:情人与独裁者 The.Lovers.and.the.Despot.2016.DOCU.720p.WEB-DL.DD5.1.H264-FGT 3G

[复制链接]
发表于 2016-11-14 18:44:49 | 显示全部楼层 |阅读模式
3bb4a88b4a14be5712c5dbf107a7e4fc56cd0005.jpg
" E8 s3 f5 u4 @+ ~" Y( W7 H8 g1 j: \  {) x0 e/ O/ w! @3 m, H7 h( h
% z- L5 q" G. P8 }) M
◎译  名 情人与独裁者
+ R7 _7 C8 b1 P( W; S) L◎片  名 The Lovers and the Despot2 J. B+ A/ C! r) [/ i# R5 M* o
◎年  代 2016- w8 j: X( H$ i* y. g+ k: a
◎国  家 英国
, `1 {( q# a. i, R7 v5 `; i◎类  别 惊悚/纪录片: }8 s  V) V0 B5 i, a
◎语  言 英语
+ |) V( i6 |8 M5 v8 H$ M: v3 E◎字  幕   英文( O* V2 C' @4 j
◎整  理   HD一条街 www.hd1tj.org$ F. |) r. |$ q+ W7 ~3 a" _
◎上映日期 2016-01(圣丹斯电影节)
5 P+ w( }! n, i, s& ~. `+ k◎IMDb评分  6.5/10 from 209 users2 c6 S- @; m0 u0 p  v8 f
◎IMDb链接  http://www.imdb.com/title/tt5278868/
8 M# R% [+ Z( S◎豆瓣评分 7.1/10 from 44 users
* q7 U6 K2 A5 ^7 l+ G* G◎豆瓣链接 https://movie.douban.com/subject/26679185/
1 k" d+ z( ?7 Y1 i◎片  长 94分钟* n" z# N; A  D/ ^+ W
◎导  演 Robert Cannan / Ross Adam
3 o7 I9 E, Z- a4 j2 t◎主  演 Paul Courtenay Hyu9 ]0 I- U* T$ _5 ]( J/ s
( E- F0 D' s; q0 j' m
◎简  介6 b; X1 n4 S; T' Z2 d

8 k  [) N! ]9 A" y% q3 c  After the collapse of their glamorous romance, a famous director and actress are kidnapped by movie-obsessed dictator Kim Jong-il. Forced to make films in the world's weirdest state, they get a second chance at love, but only one chance at escape.
! Q# x+ H# ~0 ~$ d  i' L' y* i+ G& t  C' d
◎获奖情况$ j$ `+ v1 x6 l* G1 _3 a+ s- b  F

* B' f9 P4 Y8 i  a' {% n  第32届圣丹斯电影节  (2016)5 e5 j( ^/ ~6 u: J' g% ]
  评审团大奖 世界电影单元纪录片(提名)
  1. Video
      m) G! P! I0 a0 n2 j
  2. ID                                       : 17 c( X+ u3 Q& o. U
  3. Format                                   : AVC
    0 S$ T' F. X' L( c
  4. Format/Info                              : Advanced Video Codec
    , N4 E0 j( W: Y% t+ V$ \% e; h+ y
  5. Format profile                           : [email protected]* w# X9 j% x2 o& i& I
  6. Format settings, CABAC                   : No
    9 p- I+ _& f, D/ E  |2 f" e
  7. Format settings, ReFrames                : 2 frames. B3 r, C! w& ]5 L. y
  8. Codec ID                                 : V_MPEG4/ISO/AVC  c5 b/ t9 [( r% c8 x$ U# p
  9. Duration                                 : 1h 38mn& q& \% o. m( i7 L1 N
  10. Bit rate                                 : 4 050 Kbps# f$ c+ ]* M5 @9 x" l' h% S4 h
  11. Width                                    : 1 280 pixels0 m2 d( A9 m' r6 |( J: j5 p
  12. Height                                   : 688 pixels  e! U& _1 m8 A
  13. Display aspect ratio                     : 1.85:1/ y1 G- T9 n3 ~6 n+ g& ^: J
  14. Frame rate mode                          : Constant
    * Z' V# O# O! g& [/ Y% \" t
  15. Frame rate                               : 23.976 (23976/1000) fps* p' A$ i# A# K6 z* Z6 p3 T8 P
  16. Color space                              : YUV2 Q3 Q0 k2 Q) U7 F
  17. Chroma subsampling                       : 4:2:0: o9 P+ m  A* C1 g4 ]& z1 ]: W
  18. Bit depth                                : 8 bits
    # o" l3 M# R! N( Q8 @# @
  19. Scan type                                : Progressive" F3 k) `! n( F- D- Z0 _  A: q# g
  20. Bits/(Pixel*Frame)                       : 0.1927 R% D9 P$ t+ V; t
  21. Stream size                              : 2.77 GiB (91%)6 o9 c- h# p5 }: G8 i( R
  22. Default                                  : Yes# c' A% s7 T# L: o
  23. Forced                                   : No
    0 U& z: @" }% x' e
  24. Color range                              : Limited
    ! \& D: P3 U. @) p# t! j
  25. Color primaries                          : BT.709+ U3 g) x4 ^( Z! K/ A- k$ X( f
  26. Transfer characteristics                 : BT.7091 r% |7 x( X, A) u' F
  27. Matrix coefficients                      : BT.709
    0 b% ]  i5 e% I7 r/ M" ^
  28. 8 L& Q9 i7 O6 J7 `: i9 J8 N/ {
  29. Audio
    9 w5 F# ^! j0 ^  d
  30. ID                                       : 2! P( c4 o0 e" j  f) z% v$ H
  31. Format                                   : AC-3
    5 {6 z6 p$ L2 _1 ]
  32. Format/Info                              : Audio Coding 36 i* u; e/ v! b7 t
  33. Mode extension                           : CM (complete main)
    : Z: _+ G  u! N& K- E: n
  34. Format settings, Endianness              : Big
    1 Y& P1 Y& S3 W2 h, r: E
  35. Codec ID                                 : A_AC3
    * K6 g# \5 x+ }" W$ w& S
  36. Duration                                 : 1h 38mn
    ( C. X) T- m0 ]3 m2 c" V# J
  37. Bit rate mode                            : Constant7 ~7 {6 F9 O/ j5 k* L
  38. Bit rate                                 : 384 Kbps
    7 }2 k% R6 K* }
  39. Channel(s)                               : 6 channels! A2 k% F6 R9 l  V0 a9 J& C
  40. Channel positions                        : Front: L C R, Side: L R, LFE; \8 h# ^( N% u8 n4 r2 x
  41. Sampling rate                            : 48.0 KHz
    * k) A6 A( U  X: @2 V
  42. Frame rate                               : 31.250 fps (1536 spf)
      \; J5 K( ^. _! e8 p
  43. Compression mode                         : Lossy2 ?9 l: g$ ]3 c7 f; R9 {( M
  44. Stream size                              : 269 MiB (9%)
    + F: [, M, t( l8 p3 e7 J% F6 ^- R
  45. Language                                 : English5 B& P9 I6 z, J/ E
  46. Default                                  : Yes6 c' M$ v: N7 X
  47. Forced                                   : No* O6 }$ E, N, W& y+ e' |- e0 m6 f
  48. 9 s+ r8 }* P4 X. q$ J
  49. Text2 x, K# s7 Z5 ?' l
  50. ID                                       : 34 w2 ]5 b/ y+ b0 d! r
  51. Format                                   : UTF-8+ }( g5 s2 d+ z( J) }7 y: W
  52. Codec ID                                 : S_TEXT/UTF8
    9 V% L0 J8 H, U/ w5 L
  53. Codec ID/Info                            : UTF-8 Plain Text+ D4 Y% h0 l: |7 D) q
  54. Duration                                 : 1h 32mn
    4 t2 w' e8 ?! l' R9 |- {5 L( A
  55. Bit rate                                 : 29 bps+ [' I- A- f- B1 g
  56. Count of elements                        : 456
    & N+ f: ^9 G, V
  57. Stream size                              : 19.8 KiB (0%)
    7 o0 C$ g/ C! J7 a; M: V! l
  58. Language                                 : English
    & m- S& @) ?9 k9 K
  59. Default                                  : No( J1 P9 z9 U6 {9 f/ I" Y, F' w" q
  60. Forced                                   : No% \5 I7 U, B5 j3 E. V! r

  61. 0 \% M- S1 J0 U1 A2 X# X8 p
  62. Menu2 n# K# W1 Q) C$ T1 |5 Y
  63. 00:00:00.000                             : en:1$ q  n' s3 u. a4 {$ P- @1 f) O2 h
  64. 00:05:14.314                             : en:2
    ' J1 Q+ V& b- b3 ^$ x" A3 j) ^9 ]
  65. 00:11:15.216                             : en:3" G& M0 v9 Y1 L
  66. 00:18:32.236                             : en:4
      l2 t( C4 b2 p
  67. 00:24:48.904                             : en:5
    " h) [7 a! w3 x4 K. G
  68. 00:31:59.876                             : en:6
    , S2 U+ s$ a' n* e$ E
  69. 00:38:12.081                             : en:7; p, N- ~8 L( \
  70. 00:44:23.243                             : en:8
    - [2 X8 E' J8 q# P  W
  71. 00:49:54.073                             : en:9  R* R$ \) i9 I( z2 |
  72. 00:56:15.954                             : en:10( O6 a* J, p, H* z2 Y
  73. 01:04:01.669                             : en:11
    7 Y& R6 W: Q( |5 E
  74. 01:09:56.231                             : en:12
    ' `0 R; @! v6 c$ L/ t  Q+ y
  75. 01:15:25.184                             : en:13' e! Y4 k( K) x$ K3 }. l! y
  76. 01:19:48.197                             : en:14
    ; o0 t* u) u% y* a) \
  77. 01:25:01.718                             : en:15
    # I% ?1 U) W" }# p
  78. 01:29:26.983                             : en:16
复制代码

- ?3 c/ ~0 X6 n* U
3 P7 E$ Z* c0 V7 K) L0 f( M( d7 [5 n1 Z/ z$ f8 j

8 z5 Y% Z% y3 p5 ?' R. y" N) {9 C7 |) ?% I: L( k& p
7 U& d% C% p; ~5 ]! S
/ p; M* y, D' [8 _

6 ]0 U8 e8 U* V8 N6 t7 w8 M. U- p, B1 Y6 p5 ]9 E0 y' f/ Z, W
游客,如果您要查看本帖隐藏内容请回复  捐助论坛可免回复查看隐藏内容 详情请点击
最近访问 头像模式 列表模式
HD一条街,身边的一条街。
发表于 2016-11-14 21:42:30 | 显示全部楼层
不错的好片,谢谢分享
HD一条街,身边的一条街。
发表于 2016-11-15 02:10:59 | 显示全部楼层
感谢分享好资源~
HD一条街,身边的一条街。
发表于 2016-11-15 06:31:47 | 显示全部楼层
thanks very much
& \$ }! r& x/ e1 E# ?" N2 K6 C
HD一条街,身边的一条街。
发表于 2016-11-15 09:40:59 | 显示全部楼层
估计是编的,要不然导演就被人肉掉了!!!
HD一条街,身边的一条街。
发表于 2016-11-15 09:58:58 | 显示全部楼层
谢谢!看看记录片也很好!
HD一条街,身边的一条街。
发表于 2016-11-15 21:11:52 | 显示全部楼层
谢谢分享资源
HD一条街,身边的一条街。
发表于 2016-11-17 22:40:10 | 显示全部楼层
感谢分享好片!!!
HD一条街,身边的一条街。
您需要登录后才可以回帖 登录 | 加入我们

本版积分规则

手机版|小黑屋|有问题发邮件到admin#(换成@)hd1tj.org|微博|免责申明|HD一条街

GMT+8, 2017-1-20 20:02

Powered by Discuz! X3.1

© 2001-2013 Comsenz Inc.

快速回复 返回顶部 返回列表