开启辅助访问 切换到窄版

HD一条街论坛

 找回密码
 立即注册
查看: 84|回复: 7

[欧美] 纪录片:情人与独裁者 The.Lovers.and.the.Despot.2016.DOCU.720p.WEB-DL.DD5.1.H264-FGT 3G

[复制链接]
发表于 2016-11-14 18:44:49 | 显示全部楼层 |阅读模式
3bb4a88b4a14be5712c5dbf107a7e4fc56cd0005.jpg 0 ]0 v7 L5 ?$ a( s+ ?  {

3 A9 a& f! k* q, k/ j" d( u3 ]0 w% |8 ]1 V- x9 [( A
◎译  名 情人与独裁者5 v5 @+ J# b8 |& {( L
◎片  名 The Lovers and the Despot) ]" X* Q4 j( m% }% P& S8 e0 z
◎年  代 2016" a7 {0 o, R' N# h* O; p
◎国  家 英国
5 Q; _0 Z% m1 C: s, K$ v" i◎类  别 惊悚/纪录片
3 N( k3 j0 ]9 G( }◎语  言 英语. k& G; o' b( J$ r' r4 Y3 q
◎字  幕   英文
: R. }" ~2 m4 V& y( N" u3 m3 V0 D◎整  理   HD一条街 www.hd1tj.org- z4 z/ @& R6 c6 g1 T! T1 d* W
◎上映日期 2016-01(圣丹斯电影节)
8 {) ]$ E, b% q- @◎IMDb评分  6.5/10 from 209 users
% T" |9 A; C* m+ j' p: ]# K◎IMDb链接  http://www.imdb.com/title/tt5278868/
+ s0 Z3 Q8 X$ V6 F( l◎豆瓣评分 7.1/10 from 44 users
+ e$ ~) ?+ N& @3 i" G◎豆瓣链接 https://movie.douban.com/subject/26679185/& A4 I% P& _! L5 F% Q' [  y
◎片  长 94分钟! T% x& @' j  Y1 x+ `" O
◎导  演 Robert Cannan / Ross Adam
( m0 ~. I/ q& M1 R1 L1 i! ^& S* v6 _◎主  演 Paul Courtenay Hyu
* m8 E8 ~0 f' i7 a
4 p0 D( B# u8 r& g! _# V6 J◎简  介8 z9 J% e# {4 Q. K  F$ S) l: P' s
7 n$ C. N8 ~5 D' m1 v9 j' H
  After the collapse of their glamorous romance, a famous director and actress are kidnapped by movie-obsessed dictator Kim Jong-il. Forced to make films in the world's weirdest state, they get a second chance at love, but only one chance at escape.
% ]& H7 N3 Q) B* O* R/ Y: C, q3 m- q: ^7 x7 S" p! @! W
◎获奖情况
! f# u; q; |7 D) O1 b( J, j/ B8 V
  第32届圣丹斯电影节  (2016)
* I* ^& O) j" P( M! c# N& ~  评审团大奖 世界电影单元纪录片(提名)
  1. Video
    / |* S3 r' o" W4 V2 k3 o. X
  2. ID                                       : 1
    ! ]  W; P! u, d0 c* P% u  {) e
  3. Format                                   : AVC3 m8 M! r7 F& _) Y# k) d2 u/ p
  4. Format/Info                              : Advanced Video Codec$ b* u3 E) E/ A0 z5 Q+ R' d* Z
  5. Format profile                           : [email protected]! T: v! X: P5 Z) H( q% u1 a
  6. Format settings, CABAC                   : No
    ! g8 }- v: K) U
  7. Format settings, ReFrames                : 2 frames
    3 y  r  l3 X8 G" `8 J: \
  8. Codec ID                                 : V_MPEG4/ISO/AVC  w: F$ G* u. ^4 R6 e
  9. Duration                                 : 1h 38mn
    ! W+ ~  d- |5 u' ~
  10. Bit rate                                 : 4 050 Kbps( m  m+ M7 ]& z4 z- p# C+ F
  11. Width                                    : 1 280 pixels
    # Z$ S% V- _3 X% k! o4 d
  12. Height                                   : 688 pixels2 u0 C7 q1 x! E- S+ |8 K
  13. Display aspect ratio                     : 1.85:1
    . y' g% e9 A* A
  14. Frame rate mode                          : Constant( A# b. s: _$ s) h# ~8 [
  15. Frame rate                               : 23.976 (23976/1000) fps
    , E  n+ }3 E( ]- A; ?6 M0 q
  16. Color space                              : YUV
      q2 l" f8 J" j' B" b( \
  17. Chroma subsampling                       : 4:2:0  `  L, W9 d8 y( j
  18. Bit depth                                : 8 bits2 ]! \1 Z8 p, L9 m
  19. Scan type                                : Progressive
    ' w+ O9 D) p+ ^; q$ d
  20. Bits/(Pixel*Frame)                       : 0.192# [$ Q, J* R  A
  21. Stream size                              : 2.77 GiB (91%)& T0 x- _. H+ f" }1 X0 ?7 S+ V
  22. Default                                  : Yes
    ' I9 T5 l5 _- g( v
  23. Forced                                   : No
    % W' D4 n# u( p6 T& P
  24. Color range                              : Limited. }5 c5 C$ `% O1 ^5 P6 x4 ?
  25. Color primaries                          : BT.709% O, m8 [) P/ ]& Y# f
  26. Transfer characteristics                 : BT.709
    + J& {' T1 {" l+ c& E9 P7 A& h
  27. Matrix coefficients                      : BT.709
    ! Z& ^+ r. S9 e! i
  28. 5 U4 Q. d' I. g) Y- X( f) r6 p8 V& x
  29. Audio' r5 g% x, ]' K0 v6 k: B* ?1 V* O& ~
  30. ID                                       : 2
    ! w9 z- @( F8 L2 H2 r! P
  31. Format                                   : AC-3
      r* a/ O9 Y/ ?  e
  32. Format/Info                              : Audio Coding 3
    * p" B& ^9 t5 G; ]: I& S
  33. Mode extension                           : CM (complete main)& I# m; b: Z; O6 U1 Y
  34. Format settings, Endianness              : Big
    ; O! Q- r( A- m+ L0 t( c
  35. Codec ID                                 : A_AC38 f/ s( N5 I3 {
  36. Duration                                 : 1h 38mn2 O6 K9 K$ [9 A# D# k: @# R% T9 R
  37. Bit rate mode                            : Constant
    7 P2 P' g0 _" s) Y( B
  38. Bit rate                                 : 384 Kbps
    , p; I- H+ {) G3 W
  39. Channel(s)                               : 6 channels
    ! N0 ?. ~. R! P* H, y
  40. Channel positions                        : Front: L C R, Side: L R, LFE" K3 ~( G+ b, X
  41. Sampling rate                            : 48.0 KHz
    9 W# I+ x+ y) G# ?! v( Q5 x
  42. Frame rate                               : 31.250 fps (1536 spf)) \' h8 k& \/ D+ D8 F) L: D/ f" R$ f
  43. Compression mode                         : Lossy: }, ]$ l1 h, E9 r' r. W, i; I* t! a
  44. Stream size                              : 269 MiB (9%)
    7 Y0 K4 V2 ~( L& P# B
  45. Language                                 : English. b8 y. H" z. R  R+ Y
  46. Default                                  : Yes
    6 d' R# l/ e- `5 U& C/ I
  47. Forced                                   : No% s6 i) j3 j9 Z- h9 w2 ^
  48. " i7 u, S& t) d+ m0 @! }
  49. Text$ ?! }1 N* Q+ `+ O: c
  50. ID                                       : 3, w! u% L3 b" m2 Q; ~- n+ ]
  51. Format                                   : UTF-8
    8 ~# D5 ~# M+ ~6 C6 ]9 D% d
  52. Codec ID                                 : S_TEXT/UTF83 N- W! @4 j" V; O
  53. Codec ID/Info                            : UTF-8 Plain Text6 b2 x  u1 ~" ~& n# c+ e
  54. Duration                                 : 1h 32mn
    & n% q+ K1 e# }3 @0 H# f; X
  55. Bit rate                                 : 29 bps' Z4 A. b! c0 O8 e$ O
  56. Count of elements                        : 456
    2 d% |/ \  U! T$ S9 E
  57. Stream size                              : 19.8 KiB (0%)
    4 v8 }2 M% t& Z# y
  58. Language                                 : English
    ( o, j5 _4 e/ Y: [0 h
  59. Default                                  : No
    * J- y" L9 \, v, @4 q
  60. Forced                                   : No6 \' L* z! B: u  y. F$ Z
  61. # j: D' D, F% B! w9 d9 y% A
  62. Menu
    8 t# R, D2 K, R! }- L! h: J
  63. 00:00:00.000                             : en:1( w- O' t  J# _! R# S
  64. 00:05:14.314                             : en:2
      }+ z; U0 @0 n- C4 o# L4 \: I( @
  65. 00:11:15.216                             : en:3
    + w9 ~% J- y8 J" C: k6 q( u
  66. 00:18:32.236                             : en:40 L& K* M. l- D4 b  D8 J. W1 Z
  67. 00:24:48.904                             : en:50 n/ }2 I$ {8 [* r# b
  68. 00:31:59.876                             : en:6
    # K" _0 C0 `! d8 ]* s) H. S- u
  69. 00:38:12.081                             : en:7
    % _8 O6 {. ?) A& f' I" v
  70. 00:44:23.243                             : en:8' U, I. R& i0 J
  71. 00:49:54.073                             : en:9
    # J" b7 O: T* a$ q  V
  72. 00:56:15.954                             : en:10; W: g. f, Y2 L/ g( g
  73. 01:04:01.669                             : en:11
    6 h- G9 |0 u8 v! T  o! I
  74. 01:09:56.231                             : en:12% T- p4 |- e- E
  75. 01:15:25.184                             : en:13% g  M( z: ]! ?/ A% R
  76. 01:19:48.197                             : en:14
    & r. _1 T: z" E9 {2 N9 P
  77. 01:25:01.718                             : en:15/ t- {  Y; T8 T3 U- X/ F/ m
  78. 01:29:26.983                             : en:16
复制代码
$ m0 N/ a' L+ Y2 |

: e) z8 K! F. L3 R0 U- l' Q( q' d. {8 u* `
1 D& `9 d, e: h' E; M

9 ~. c% n; R7 R2 M1 R3 F; X8 j: C" F7 W; q5 j
3 N. Q" Z" e/ x! }% G

) u- U6 ^% }3 ]) q2 U. v+ L7 ?
游客,如果您要查看本帖隐藏内容请回复  捐助论坛可免回复查看隐藏内容详情请点击
最近访问 头像模式 列表模式
HD一条街,身边的一条街。
发表于 2016-11-14 21:42:30 | 显示全部楼层
不错的好片,谢谢分享
HD一条街,身边的一条街。
发表于 2016-11-15 02:10:59 | 显示全部楼层
感谢分享好资源~
HD一条街,身边的一条街。
发表于 2016-11-15 06:31:47 | 显示全部楼层
thanks very much' ~. b2 O/ |8 [7 U5 x7 ?
HD一条街,身边的一条街。
发表于 2016-11-15 09:40:59 | 显示全部楼层
估计是编的,要不然导演就被人肉掉了!!!
HD一条街,身边的一条街。
发表于 2016-11-15 09:58:58 | 显示全部楼层
谢谢!看看记录片也很好!
HD一条街,身边的一条街。
发表于 2016-11-15 21:11:52 | 显示全部楼层
谢谢分享资源
HD一条街,身边的一条街。
发表于 2016-11-17 22:40:10 | 显示全部楼层
感谢分享好片!!!
HD一条街,身边的一条街。
您需要登录后才可以回帖 登录 | 立即注册

本版积分规则

手机版|小黑屋|有问题发邮件到admin#(换成@)hd1tj.org|微博|免责申明|HD一条街

GMT+8, 2016-12-7 01:56

Powered by Discuz! X3.1

© 2001-2013 Comsenz Inc.

快速回复 返回顶部 返回列表