开启辅助访问 切换到窄版

HD一条街论坛

 找回密码
 加入我们
查看: 96|回复: 8

[欧美] 纪录片:进入地狱[探索全球的活火山]Into.the.Inferno.2016.720p.WEBRip.X264-DEFLATE 5.79G

[复制链接]
发表于 2016-11-8 23:57:25 | 显示全部楼层 |阅读模式
p2390352716.jpg ' p+ J" I, r& L! P% y/ c

, P- P$ h* x5 T$ n2 H3 q6 A9 o( ^7 z( h" E
◎译  名 进入地狱/深入火心(台)& c( i2 d3 L) P+ [# A) X6 Q: N
◎片  名 Into the Inferno8 t2 {2 e) K9 u+ N7 y. e! V
◎年  代 2016! t. N5 ^' E8 H' X3 {; K
◎国  家 英国
* r( B4 p5 V; D* c◎类  别 纪录片
8 Y7 D! Z$ I" a& X! X/ H' u% u4 A◎语  言 英语
* p. l2 Y. R  A◎IMDb评分  7.4/10 from 788 users, y' P5 q0 G6 ^1 g' ]
◎IMDb链接  http://www.imdb.com/title/tt4846318/- E. k) x; R# x; _. p$ I9 t9 c4 T' e
◎豆瓣评分 0/10 from 6 users/ T: }8 Y3 l3 B  Y
◎豆瓣链接 https://movie.douban.com/subject/26682399/7 I+ \4 N9 X# ~1 Q. a* N
◎导  演 沃纳·赫尔佐格 Werner Herzog4 Z9 y4 f, U! n, ]
◎主  演 沃纳·赫尔佐格 Werner Herzog
5 [1 p$ _% Q2 h% {* L; R      Clive Oppenheimer
' T! D  Q$ J8 E& a1 L7 W" ]9 l: C' ^; F
◎简  介
. h4 b) X- R" l/ n2 D- }, }! o% t* d. c/ A3 s% I
  一部探索世界上不同活火山的纪录片。
  1. Video3 M2 C: A+ t1 `% l/ r5 {4 x
  2. ID                                       : 1
    9 t! H& N& i* n5 Z" {
  3. Format                                   : AVC
    , ]3 j% q. j6 l1 Q7 v6 P0 X
  4. Format/Info                              : Advanced Video Codec
    3 q* j) j6 Q* g8 q2 B
  5. Format profile                           : [email protected]
    & L7 B0 j2 g7 h' U! G
  6. Format settings, CABAC                   : Yes
    0 A* S; L2 `' {. u3 k$ l
  7. Format settings, ReFrames                : 9 frames  a- v7 F8 Z; w3 ~  C
  8. Codec ID                                 : V_MPEG4/ISO/AVC
    / v) e0 x7 V$ u! @4 A) F# w
  9. Duration                                 : 1h 46mn
    - i# D7 a& \! R  ]" D' z0 T
  10. Bit rate                                 : 7 211 Kbps
    " Y/ t4 I' c' U# b
  11. Width                                    : 1 280 pixels
    5 P& b8 |$ T  j0 P6 _" G
  12. Height                                   : 674 pixels0 ^8 i8 j. I1 ^' Z7 Z- N  K: p
  13. Display aspect ratio                     : 1.8997 B1 U% U0 `) k# T' Q( e0 V/ g, N; J
  14. Frame rate mode                          : Constant; c3 R* U* k3 i  e7 n
  15. Frame rate                               : 23.976 (24000/1001) fps
      r8 v% R0 L3 ^, b8 @- p6 A
  16. Color space                              : YUV& P, f) r. \; L6 e
  17. Chroma subsampling                       : 4:2:0
    7 q- v7 i2 s! w6 o' C7 i
  18. Bit depth                                : 8 bits
    " I( B% |4 V, b! C9 G1 x$ n
  19. Scan type                                : Progressive6 ^$ `2 d$ f1 ]8 f: j& O/ I$ `
  20. Bits/(Pixel*Frame)                       : 0.3495 N$ x% ?9 X8 l" q7 k/ W; S6 U
  21. Stream size                              : 5.39 GiB (93%)' A2 s5 w/ n0 L& T1 t' M1 P( L
  22. Writing library                          : x264 core 148 r2721+7 72d53ab / tmod 162ad1b X86_641 x) k6 G) x% M; c$ G7 H
  23. Encoding settings                        : cabac=1 / ref=9 / deblock=1:-3:-3 / analyse=0x3:0x113 / me=umh / subme=10 / psy=1 / fade_compensate=0.00 / psy_rd=1.05:0.15 / mixed_ref=1 / me_range=36 / chroma_me=1 / trellis=2 / 8x8dct=1 / cqm=0 / deadzone=6,6 / fast_pskip=0 / chroma_qp_offset=-3 / threads=12 / lookahead_threads=2 / sliced_threads=0 / nr=0 / decimate=0 / interlaced=0 / bluray_compat=0 / constrained_intra=0 / fgo=0 / bframes=9 / b_pyramid=2 / b_adapt=2 / b_bias=0 / direct=3 / weightb=1 / open_gop=0 / weightp=2 / keyint=250 / keyint_min=23 / scenecut=40 / intra_refresh=0 / rc=crf / mbtree=0 / crf=18.0000 / qcomp=0.70 / qpmin=0:0:0 / qpmax=69:69:69 / qpstep=4 / ip_ratio=1.10 / pb_ratio=1.10 / aq=3:0.75 / aq-sensitivity=10.00 / aq-factor=1.00:1.00:1.00 / aq2=0 / aq3=0( t( E% C# B7 j
  24. Language                                 : English* C- e1 b; ~! l
  25. Default                                  : Yes
    6 [: _3 ^: Y* }) K9 N+ [5 X
  26. Forced                                   : No. ?  J1 ?9 U  A1 l8 v
  27. $ o% j5 J! L) R/ x1 r9 G
  28. Audio
    ' t% Z/ Q0 k$ S+ m; _9 \
  29. ID                                       : 2# \& G: V* V$ q+ T2 @
  30. Format                                   : AC-3& l: J1 J3 w8 W9 |* l% o8 y- i" _4 q
  31. Format/Info                              : Audio Coding 3
    3 G# ]" s0 n7 W/ G
  32. Mode extension                           : CM (complete main)
    ; m+ z- X; p3 R9 X6 O' M
  33. Format settings, Endianness              : Big
    6 i- ^8 L' c! ^
  34. Codec ID                                 : A_AC36 n% S2 E% B# w, [
  35. Duration                                 : 1h 46mn
    : _% J  I0 w! W6 ^0 y# ^5 e" b
  36. Bit rate mode                            : Constant1 \: e, c) M% i! E/ ]. z
  37. Bit rate                                 : 384 Kbps% Q# ]$ _' o3 d6 k* P6 p& l1 Q
  38. Channel(s)                               : 6 channels
      Z3 @7 H5 U8 y1 X" r% O; \
  39. Channel positions                        : Front: L C R, Side: L R, LFE! t. f% z+ {- p2 M( o& n" _! h1 s1 \
  40. Sampling rate                            : 48.0 KHz! u" B9 t$ U' o* Q6 W6 ^
  41. Frame rate                               : 31.250 fps (1536 spf)
    $ j+ I6 f; y& t; r: q2 @
  42. Compression mode                         : Lossy' w* F: N& L: x$ j$ V  U( K
  43. Stream size                              : 294 MiB (5%)
    , J  Y1 i; b3 i7 _0 P/ ]2 Q7 e
  44. Language                                 : English
    8 |0 s# k! A. G% h; j% ~# C
  45. Default                                  : Yes8 u+ R; p6 F. M. @! C) ~& j
  46. Forced                                   : No
    + N0 m8 s5 U- d" u8 ]! _! Y7 [" V
  47. 3 o) k& m" ?. H
  48. Text #1/ S7 R6 |4 B, M* b
  49. ID                                       : 3$ R) v  M9 \0 i/ M
  50. Format                                   : UTF-8
    . {* W& A: {; d& a! J1 Z
  51. Codec ID                                 : S_TEXT/UTF8
    3 V$ O$ a; z6 N6 q
  52. Codec ID/Info                            : UTF-8 Plain Text5 F+ t+ W9 j# R& m) V) G  F
  53. Title                                    : English (Forced): m( a) T, k- \) K
  54. Language                                 : English  N2 P0 |* ?: J# k9 ~. ?& f
  55. Default                                  : Yes9 A3 y) [' {& w4 A, ?
  56. Forced                                   : Yes" |* J& _+ |5 F0 n( D
  57. . G' o; [: M# ?2 [2 W$ f8 d
  58. Text #2
    1 c* v, O( Y9 A9 |2 |/ {, `7 g5 `
  59. ID                                       : 4
    4 U( k  Q+ _: x2 j7 @8 j( Z
  60. Format                                   : UTF-8
    # P" j' N+ m. n/ P
  61. Codec ID                                 : S_TEXT/UTF8
    2 |. W2 W- [$ E- P
  62. Codec ID/Info                            : UTF-8 Plain Text1 H  l9 t5 G4 l/ L( L: t( |$ _
  63. Title                                    : English) I, f8 b6 f2 S# x- B
  64. Language                                 : English+ s* F6 i! S+ e; ]  x0 v5 y
  65. Default                                  : No
    ' N5 q$ p$ _, L: G3 Q% S
  66. Forced                                   : No  E- e9 ~- G4 F/ i; d

  67. $ E' }% Z2 F; b( D# a, X6 b2 b6 Z
  68. Text #3" c( x0 P& q" H; s* X2 j
  69. ID                                       : 5) Y3 a% H7 B+ \/ X
  70. Format                                   : UTF-8
    " ?4 B2 A2 [1 o! O
  71. Codec ID                                 : S_TEXT/UTF8
    2 O4 O  L( A  z1 k
  72. Codec ID/Info                            : UTF-8 Plain Text
    # v. F" x# ?3 b0 |
  73. Title                                    : English (SDH)
    4 y) ]9 G* V% ~; ?- F
  74. Language                                 : English
    + D1 H. _+ q2 J
  75. Default                                  : No
    / q5 I( W6 s- S% _4 }5 [0 i
  76. Forced                                   : No
    5 h' ?# B7 y7 m" E8 ^8 Z7 k- a% m4 u

  77. 1 N8 a0 D" }$ }, w
  78. Text #4
    7 C4 T6 F9 ~7 J4 _% `
  79. ID                                       : 6
    2 V% Q! }0 {* V9 \1 v
  80. Format                                   : UTF-8
    1 `6 F4 |( Y7 R7 m, M* _6 o3 |
  81. Codec ID                                 : S_TEXT/UTF8: `2 M2 G* f% u9 m3 x
  82. Codec ID/Info                            : UTF-8 Plain Text2 M0 I+ w. {* u0 v* ~
  83. Title                                    : French3 [4 \" Q4 T8 S7 J
  84. Language                                 : French
    0 G9 Q, Q( n- G3 t& t# Z
  85. Default                                  : No
    ) A2 Y  @8 _" X) R8 L( E3 m
  86. Forced                                   : No* }! K  @. R* \8 K+ v  g1 z

  87. 2 Z8 f- d3 R: B8 ^
  88. Text #5+ M  C: m: P7 U4 g+ V$ y$ j/ q9 ~
  89. ID                                       : 72 P% R- K/ w$ }( l8 Q6 H
  90. Format                                   : UTF-84 S$ Y+ Q3 Z, d2 _# R! U
  91. Codec ID                                 : S_TEXT/UTF8
    : y- e, O4 {3 Z. C
  92. Codec ID/Info                            : UTF-8 Plain Text/ |2 O3 N& |% {$ Y9 i
  93. Title                                    : German* [# L$ [  ?  P
  94. Language                                 : German! Z% n7 M" K1 B1 w0 O9 `
  95. Default                                  : No8 U  r6 n1 A/ s2 K7 O
  96. Forced                                   : No
    0 y" V; X5 C0 ?  S8 `! c

  97. 1 r9 }+ e" G4 h. l
  98. Text #6
    , h! Y3 D; j& x" j, ~; k: C5 H4 v1 z, {
  99. ID                                       : 8# s9 S6 N) t3 ?
  100. Format                                   : UTF-8
    , q5 ~, u7 t6 m' P
  101. Codec ID                                 : S_TEXT/UTF8
    , [2 }( i0 u5 K8 H6 d
  102. Codec ID/Info                            : UTF-8 Plain Text& `  o. o+ B- B# M
  103. Title                                    : Italian
    ' |1 V  h! E2 `- P. n0 T
  104. Language                                 : Italian2 y* z- P/ O# E
  105. Default                                  : No. s. K+ ~: P8 Z8 \+ A0 J; ^( q: A) M6 b
  106. Forced                                   : No
    2 e: v! e) R2 e# L* R
  107. 2 j: H4 O( L: h/ i& J
  108. Text #77 Y9 C% m) X: a, o3 m/ F, B% F
  109. ID                                       : 90 ~; Z/ a. C0 A( w
  110. Format                                   : UTF-8
    - H: x/ Y, q4 t5 a9 @
  111. Codec ID                                 : S_TEXT/UTF8
    8 n/ W" }  u' ~' D% e( S; W
  112. Codec ID/Info                            : UTF-8 Plain Text
    . x( v0 S' `; v' \4 v  T3 ]
  113. Title                                    : Spanish& {2 H' P4 ?4 n% L% B
  114. Language                                 : Spanish  d, ?. o/ j: C6 S: s2 E3 s: b+ i
  115. Default                                  : No' N6 [3 c, b: y. ]
  116. Forced                                   : No
复制代码
0 g& P3 l$ _4 v# J; h
2 c$ `1 m; z/ R

# X7 H$ ^8 i: }3 \                               
登录/注册后可看大图

; P. }& C3 e$ Q
6 m) D* o; O  U) g2 K3 f5 n$ U( B( p
游客,如果您要查看本帖隐藏内容请回复  捐助论坛可免回复查看隐藏内容 详情请点击
最近访问 头像模式 列表模式
HD一条街,身边的一条街。
发表于 2016-11-9 08:30:40 | 显示全部楼层
感谢楼主分享,让我有机会去"地狱"
HD一条街,身边的一条街。
发表于 2016-11-9 09:41:04 | 显示全部楼层
感谢楼主分享
HD一条街,身边的一条街。
发表于 2016-11-9 09:54:35 | 显示全部楼层
谢谢分享资源
HD一条街,身边的一条街。
发表于 2016-11-9 12:56:35 | 显示全部楼层
感谢楼主分享!!!!!
HD一条街,身边的一条街。
发表于 2016-11-9 17:17:20 | 显示全部楼层
感谢分享好资源
HD一条街,身边的一条街。
发表于 2016-11-14 08:47:11 | 显示全部楼层
探索活火山,危險性還是很大的,感謝分享~~
HD一条街,身边的一条街。
发表于 2016-11-16 21:40:18 | 显示全部楼层
感谢楼主分享
HD一条街,身边的一条街。
发表于 2016-11-28 00:56:39 | 显示全部楼层
thanks for sharing
HD一条街,身边的一条街。
您需要登录后才可以回帖 登录 | 加入我们

本版积分规则

手机版|小黑屋|有问题发邮件到admin#(换成@)hd1tj.org|微博|免责申明|HD一条街

GMT+8, 2017-1-18 05:25

Powered by Discuz! X3.1

© 2001-2013 Comsenz Inc.

快速回复 返回顶部 返回列表