开启辅助访问 切换到窄版

HD一条街论坛

 找回密码
 立即注册
查看: 112|回复: 4

[欧美] 纪录片:洪水泛滥之前/洪水来临前(台)[莱昂纳多]Before.the.Flood.2016.DOCU.1080p.WEBRip.x264.DD5.1-FGT 2.33G

[复制链接]
发表于 2016-10-31 22:11:38 | 显示全部楼层 |阅读模式
本帖最后由 让心灵去旅行 于 2016-10-31 22:50 编辑
: j3 O5 g! q1 d% Q$ ^7 ^  ]; i& M" T: F8 K
p2379141163.jpg
- `& z2 N/ ~; _. H& b
( S; k( R5 C* F, @' H+ u
( z9 l$ r& i6 }" R◎译  名 洪水泛滥之前/洪水来临前(台)
4 G) c+ t8 @' [0 F◎片  名 Before the Flood
4 r; L) F: s# Y' }8 F- [# x  X◎年  代 2016: F8 _- g0 M/ F( i3 P& O# q8 x( y
◎国  家 美国  M' \9 T1 @7 n' l+ G
◎类  别 纪录片& h, L0 x! U3 k9 _% b
◎语  言 英语9 x; f* j' I& F2 a" H" j+ w0 a
◎字  幕   英文
, p4 m2 K, d8 s. ^% [" Q◎整  理   HD一条街 www.hd1tj.org
) K, s- Z% Y& E' J+ F( K3 c◎上映日期 2016-10-21(美国)
9 M: s$ b8 E8 k( o◎IMDb评分  8.7/10 from 1,492 users
$ k- l2 t* ?( f) `◎IMDb链接  http://www.imdb.com/title/tt5929776/
; n, t; N, a0 Y. _* @! c9 n( q" B◎豆瓣评分 8.6/10 from 31 users
' F6 Q: q. h* p. x; S" W# Y◎豆瓣链接 https://movie.douban.com/subject/26857715/+ N/ s( ^" ?' \5 {& u9 D! J' X  O( C
◎片  长 93分钟
1 _0 n! r( K/ g3 l1 @◎导  演 费舍·史蒂芬斯 Fisher Stevens) J  B3 G) ]) I6 u* v1 t
◎主  演 莱昂纳多·迪卡普里奥 Leonardo DiCaprio
" |1 a1 O% b2 u: Z5 q' b% |      费舍·史蒂芬斯 Fisher Stevens
6 v. y1 s  E1 a0 Z" E; p) s- B6 h! R2 [3 F, g9 r( K5 i
◎简  介8 M8 T9 M) H. M' Q4 A/ H
5 z% p3 B- g) Y. S& n/ s
  莱昂纳多·迪卡普里奥的全新纪录片终于见光,这部电影将在正在进行的多伦多国际电影节上亮相,今天率先曝光了首款海报,片名从原来的The Turning Point改为了Before the Flood(《洪水泛滥之前》),更加直切主题。这部纪录片几乎就是跟拍了小李作为联合国大使游走世界各地考察环境的过程,马丁·斯科塞斯也有参与制片。
  1. Video) w. X4 ?& A2 z8 }
  2. ID                                       : 1  Q/ E* _+ i5 a! q
  3. Format                                   : AVC& H* P! K- F- j1 D" J
  4. Format/Info                              : Advanced Video Codec) @& Y8 B. q% r5 N5 e  }
  5. Format profile                           : [email protected]
    1 s! A4 y) l. d$ Q/ s
  6. Format settings, CABAC                   : Yes" b9 L. W+ t% f: D2 n
  7. Format settings, ReFrames                : 2 frames
    : Z. T, _) X+ v- z: ?5 _- B
  8. Codec ID                                 : V_MPEG4/ISO/AVC
    # d0 @! C4 S9 D  o- a8 C. _* q
  9. Duration                                 : 1h 35mn
    " Q* F4 m  e* \7 L
  10. Bit rate                                 : 3 033 Kbps
    : Y0 x1 K( H9 X' V
  11. Width                                    : 1 920 pixels5 [" H# k1 S- S- m+ i
  12. Height                                   : 1 080 pixels2 a( x1 o% _" {
  13. Display aspect ratio                     : 16:9/ Y" v. [: Y  S: I4 y( P& U
  14. Frame rate mode                          : Constant! t5 B+ O. U' {" b8 D2 o
  15. Frame rate                               : 23.976 (23976/1000) fps, k7 l' a( |. @, |6 T. A& K7 ^
  16. Color space                              : YUV
    $ @5 K# K8 R+ z) B3 Q) [
  17. Chroma subsampling                       : 4:2:02 H% _9 E7 {9 R* T+ l
  18. Bit depth                                : 8 bits
    ' t; ~5 Q& X$ \- W7 t# p* J  B
  19. Scan type                                : Progressive
    1 a3 `; k$ t8 M7 ~% {/ Q- w& `: t0 h
  20. Bits/(Pixel*Frame)                       : 0.061; \1 i  h( U/ c7 r4 a
  21. Stream size                              : 2.02 GiB (87%)
    3 [, o; [1 P" J" o
  22. Title                                    : Before.the.Flood.2016.DOCU.1080p.WEBRip.x264.DD5.1-FGT
    ( X$ F, w5 _( j) t) g, V+ t
  23. Language                                 : English
    9 Q: x# z. f* Q5 M; Z3 w
  24. Default                                  : Yes
    + Z- ?/ K3 Y+ {/ y, J5 P# I
  25. Forced                                   : No
    3 e( m. o2 {) k+ X8 l1 a
  26. Color range                              : Limited
    ! l9 G" K- n3 u" m; n% ?: W3 z& g' U
  27. Color primaries                          : BT.709" h( ~) E5 H# M: z& w0 r- l. W! C
  28. Transfer characteristics                 : BT.709* a2 {6 t2 n! L  R  e
  29. Matrix coefficients                      : BT.709/ D0 b# `$ }4 {% h3 b& l

  30. 7 H2 Y7 R/ z8 s( ?+ B; @6 v( h# s) p
  31. Audio
    : R" `+ ?7 t% G( {
  32. ID                                       : 28 U" g5 E# {+ w3 f. N( R2 p
  33. Format                                   : AC-38 ?: A1 N  ~1 _" f3 A
  34. Format/Info                              : Audio Coding 33 I  y2 Q4 m% {, w! O+ S
  35. Mode extension                           : CM (complete main)1 _- m2 a; B4 A# C& G" U' E
  36. Format settings, Endianness              : Big
    3 \6 `/ B7 ~/ ]! w6 l3 W1 m
  37. Codec ID                                 : A_AC31 w7 a1 D: t3 x- _3 @
  38. Duration                                 : 1h 35mn
    6 S+ d8 d2 T' \4 w8 I4 L7 c
  39. Bit rate mode                            : Constant
    $ I/ V8 k: Y# X8 d% X$ Q* l3 m3 [
  40. Bit rate                                 : 384 Kbps
    $ |) Z; w+ `7 x& U
  41. Channel(s)                               : 6 channels9 t- |) ^7 q6 o' d
  42. Channel positions                        : Front: L C R, Side: L R, LFE
    5 r) e8 y$ e4 u. N' l* g
  43. Sampling rate                            : 48.0 KHz9 ^9 Q' H' a3 t; z2 t
  44. Frame rate                               : 31.250 fps (1536 spf)
    8 x% A7 v# g- A1 H, s( D( l& `8 Q
  45. Compression mode                         : Lossy
    + g, p4 c1 P4 \4 E5 e
  46. Stream size                              : 262 MiB (11%)
    ' U! C! E; \4 X! i2 A4 y  x/ b
  47. Title                                    : Before.the.Flood.2016.DOCU.1080p.WEBRip.x264.DD5.1-FGT; I) u  B& Y  B* U9 X
  48. Language                                 : English
    + O8 C( u) K" g. {+ B3 S  h
  49. Default                                  : Yes
    . c/ E) b' l6 l% S/ I
  50. Forced                                   : No, y7 [7 Q5 X& i6 N/ ~
  51. " w. E7 v+ u2 e3 f0 f; ~" d4 _
  52. Text
    % X2 y+ x" p( g2 u5 T
  53. ID                                       : 3  }3 X: z, L' ?% d
  54. Format                                   : UTF-8
    ' Z: J, n7 k* X4 }& t" k1 C) ~
  55. Codec ID                                 : S_TEXT/UTF8
    ) }3 j9 h4 P3 j1 B
  56. Codec ID/Info                            : UTF-8 Plain Text
    " |8 w2 ?% K6 j; N% t) W. j
  57. Language                                 : English* [5 S- p1 W9 J; r0 C/ Q2 w
  58. Default                                  : Yes- `% g2 |/ W4 j) `8 Z# s
  59. Forced                                   : No
复制代码
& r8 }( B7 W2 P( k, t3 G
9 o0 G: v) b/ [* w" A  ~

- |; w7 H; v2 |' C/ S
' i. {/ z2 \3 G& i- {: z) j! B- I
8 D3 S4 C3 E9 Z4 }
' H& ]1 Q3 \9 R. d/ l8 d$ ~% T
" p; ~: I- O: m/ K9 \
. t) k2 b1 f. t# M
5 ^; |0 I" @3 Y1 l( a
  D+ E2 }/ v/ \# N* ?
$ H; L+ p/ i" }4 l. e
游客,如果您要查看本帖隐藏内容请回复  捐助论坛可免回复查看隐藏内容详情请点击
HD一条街,身边的一条街。
发表于 2016-11-1 08:06:26 | 显示全部楼层
谢谢楼主分享
HD一条街,身边的一条街。
发表于 2016-11-3 19:59:42 | 显示全部楼层
小李的全新紀錄片可以,感謝分享~~
HD一条街,身边的一条街。
发表于 2016-11-16 13:32:47 | 显示全部楼层
谢谢分享资源
HD一条街,身边的一条街。
发表于 2016-11-24 09:20:38 | 显示全部楼层
谢谢!看看记录片也很好!
HD一条街,身边的一条街。
您需要登录后才可以回帖 登录 | 立即注册

本版积分规则

手机版|小黑屋|有问题发邮件到admin#(换成@)hd1tj.org|微博|免责申明|HD一条街

GMT+8, 2016-12-10 11:01

Powered by Discuz! X3.1

© 2001-2013 Comsenz Inc.

快速回复 返回顶部 返回列表