开启辅助访问 切换到窄版

HD一条街论坛

 找回密码
 立即注册
查看: 235|回复: 4

[欧美] 纪录片:洪水泛滥之前/洪水来临前(台)[莱昂纳多]Before.the.Flood.2016.DOCU.1080p.WEBRip.x264.DD5.1-FGT 2.33G

[复制链接]
发表于 2016-10-31 22:11:38 | 显示全部楼层 |阅读模式
本帖最后由 让心灵去旅行 于 2016-10-31 22:50 编辑
! h2 O( M" ]) t2 a7 l
% e5 V4 h( t7 t+ y p2379141163.jpg ) D  w3 \# Q, M0 K3 o( B
& I9 {( Y+ _% K5 l7 Y

$ _- ^% K, e  J% X0 u5 W◎译  名 洪水泛滥之前/洪水来临前(台)3 p7 o/ v7 O9 U3 k7 F
◎片  名 Before the Flood
" ]. H- Q6 r# ]% d( v; n! Z/ d5 _3 Z◎年  代 20167 e! H$ H, J+ ~1 e1 M# `0 ^; n
◎国  家 美国
; O/ R% [9 M! _; g. l5 E◎类  别 纪录片
, q& q9 ~. M( l◎语  言 英语. _6 r4 a' o. h1 W  v! {! A8 t$ X7 U
◎字  幕   英文
6 d2 u- {# Y+ K/ H/ a◎整  理   HD一条街 www.hd1tj.org
$ a' D, N  G4 d# t, `◎上映日期 2016-10-21(美国)1 v/ B+ N) B0 @0 N7 k3 V" P
◎IMDb评分  8.7/10 from 1,492 users, S9 }( R4 i1 I7 l% C
◎IMDb链接  http://www.imdb.com/title/tt5929776/5 \! [* P- X: X! a0 O! c
◎豆瓣评分 8.6/10 from 31 users5 O, c( Y8 x$ A7 T9 s5 ~! a
◎豆瓣链接 https://movie.douban.com/subject/26857715/2 N/ b9 B$ x! V
◎片  长 93分钟
- ^8 d7 d) F, ]6 B8 |; @( D◎导  演 费舍·史蒂芬斯 Fisher Stevens6 O6 y' X0 [& K; n1 o  T
◎主  演 莱昂纳多·迪卡普里奥 Leonardo DiCaprio. `5 }" l$ \% }/ Z; F+ L0 T
      费舍·史蒂芬斯 Fisher Stevens; U4 S4 E- d0 P

4 U8 ]. j( C6 w+ G◎简  介+ n2 S: T+ X  U5 i

$ E5 t4 [1 b1 }% I  莱昂纳多·迪卡普里奥的全新纪录片终于见光,这部电影将在正在进行的多伦多国际电影节上亮相,今天率先曝光了首款海报,片名从原来的The Turning Point改为了Before the Flood(《洪水泛滥之前》),更加直切主题。这部纪录片几乎就是跟拍了小李作为联合国大使游走世界各地考察环境的过程,马丁·斯科塞斯也有参与制片。
  1. Video6 T4 w5 a$ K5 Y' M
  2. ID                                       : 1& j' ]) X3 R8 f) [
  3. Format                                   : AVC
    1 \3 N# c; T( P
  4. Format/Info                              : Advanced Video Codec
    ! F8 {3 l2 j2 Z4 p: `- Y
  5. Format profile                           : [email protected]( v% Z. l7 t+ p5 Q$ k2 T  W/ ^
  6. Format settings, CABAC                   : Yes
    / O9 M0 N6 x$ A! G( w2 L( F
  7. Format settings, ReFrames                : 2 frames0 w" r8 K1 w2 ]8 i2 N& R( ]5 ?
  8. Codec ID                                 : V_MPEG4/ISO/AVC% Y! s2 o7 I1 L
  9. Duration                                 : 1h 35mn$ I' _: D  ~. \% W7 P1 U4 a
  10. Bit rate                                 : 3 033 Kbps& K3 j, m0 G7 H$ B: N
  11. Width                                    : 1 920 pixels
    , [2 j  [3 Y0 B0 F8 q9 o- j5 e
  12. Height                                   : 1 080 pixels' U- c, {% p& `, O
  13. Display aspect ratio                     : 16:96 W+ t7 l' d0 G! e; K
  14. Frame rate mode                          : Constant" R; u+ X7 F$ s
  15. Frame rate                               : 23.976 (23976/1000) fps' V6 a- o% F  \7 t! H7 |4 v! X1 t
  16. Color space                              : YUV
    % ^" E$ }5 n6 I
  17. Chroma subsampling                       : 4:2:0
    6 y7 Q* Q* r  g+ _5 I8 ~, q
  18. Bit depth                                : 8 bits4 z* ]& z# K2 q7 a& e5 a8 `! h7 v
  19. Scan type                                : Progressive
    # s/ U: X2 h6 e
  20. Bits/(Pixel*Frame)                       : 0.061; V: Y' |: Z% ^: b0 A% r) {1 m
  21. Stream size                              : 2.02 GiB (87%)
    1 z' w; y, u* z$ q' U
  22. Title                                    : Before.the.Flood.2016.DOCU.1080p.WEBRip.x264.DD5.1-FGT. E, p, x8 O' \+ v3 I- s# b
  23. Language                                 : English
    / t/ V, ?  E# P; M
  24. Default                                  : Yes" m) G" S4 G9 A: p/ e. f& G( [9 M
  25. Forced                                   : No4 b3 d0 X- b* l8 h
  26. Color range                              : Limited
    3 }. p; u# O0 X; L; U
  27. Color primaries                          : BT.7096 S4 O2 s) K: z1 J+ o6 @
  28. Transfer characteristics                 : BT.709
    : T% n6 L$ @% }
  29. Matrix coefficients                      : BT.709
    - Q; z4 B+ h8 U+ C
  30. # A& T' i, k6 P& [3 Z
  31. Audio" ]& d; P8 I8 ^4 b; D# y: o; W
  32. ID                                       : 2
    . r1 k# k" U& {: F( Z6 g+ H
  33. Format                                   : AC-3
    9 a$ z- Z- ]" h% o$ f/ e
  34. Format/Info                              : Audio Coding 3
    " x  I/ c6 K5 h. x, h1 N7 N
  35. Mode extension                           : CM (complete main)% l$ D( [4 D1 `8 A# s2 Y) [" {" P
  36. Format settings, Endianness              : Big
    3 N3 Q/ L5 x/ N) [; ^) B/ J
  37. Codec ID                                 : A_AC3
    - `2 o6 E7 W3 c- H9 W
  38. Duration                                 : 1h 35mn
    6 o/ t; c' F) U' y
  39. Bit rate mode                            : Constant# l- R: Z* l0 Y1 {2 Z8 Z1 q
  40. Bit rate                                 : 384 Kbps7 y) g6 q( r* J! O- }' d
  41. Channel(s)                               : 6 channels
    - n- Z# c6 J5 k
  42. Channel positions                        : Front: L C R, Side: L R, LFE
    7 Z% x$ ?5 _: w6 [6 j7 k( {0 O
  43. Sampling rate                            : 48.0 KHz* g8 ^; v- Y7 Z+ o# K- I. J
  44. Frame rate                               : 31.250 fps (1536 spf)
    0 y! k# D: W: d* L# H/ V0 J' o
  45. Compression mode                         : Lossy
    5 C" ]4 M* {+ E" `
  46. Stream size                              : 262 MiB (11%)
    8 W8 T7 n& E4 K  w; ~5 U
  47. Title                                    : Before.the.Flood.2016.DOCU.1080p.WEBRip.x264.DD5.1-FGT  p3 D9 [, F) ]
  48. Language                                 : English9 [( ]$ F3 S8 I( d  A2 w
  49. Default                                  : Yes* R7 `. ~' b1 E8 o% j
  50. Forced                                   : No) [! ]: F) @4 P; t' i0 z9 x& `4 p6 l

  51. " G# [9 J9 d5 g8 z4 d
  52. Text0 k$ w0 y) c2 I: h& U* T; f" O
  53. ID                                       : 3
    : [; \$ }  @- ?* T% w6 Y
  54. Format                                   : UTF-8
    $ @8 r: U! o) R5 F- b8 v4 A- R
  55. Codec ID                                 : S_TEXT/UTF8
    ! x7 M" g+ Y* R1 E. n! t7 Y
  56. Codec ID/Info                            : UTF-8 Plain Text
    . Z! ?; J9 B* z& [8 C
  57. Language                                 : English6 C9 S3 |. r0 O
  58. Default                                  : Yes
    ( a; q9 c6 Q6 X/ D2 H1 g5 G
  59. Forced                                   : No
复制代码

( `2 E/ w$ r8 i8 n* S  A
1 @) y7 K, S5 n( U3 e' D
, `8 T! v2 Y6 Q# @- A+ O# P3 X( e  H3 X

5 o& B/ l8 P9 _2 F" ^
" J6 p  m3 [# H! o' P) O% x. X; C1 q8 b2 V/ [9 u6 e. C
) f9 h# c- Q, n7 B9 n. w1 K. k
' ~8 L* r7 K- u; {& y% Q8 K8 y

  w3 h; `, ^0 K+ `
$ w2 a- a2 Z6 ]$ {3 N$ q' v+ r
游客,如果您要查看本帖隐藏内容请回复  捐助论坛可免回复查看隐藏内容 详情请点击
最近访问 头像模式 列表模式
HD一条街,身边的一条街。
发表于 2016-11-1 08:06:26 | 显示全部楼层
谢谢楼主分享
HD一条街,身边的一条街。
发表于 2016-11-3 19:59:42 | 显示全部楼层
小李的全新紀錄片可以,感謝分享~~
HD一条街,身边的一条街。
发表于 2016-11-16 13:32:47 | 显示全部楼层
谢谢分享资源
HD一条街,身边的一条街。
发表于 2016-11-24 09:20:38 | 显示全部楼层
谢谢!看看记录片也很好!
HD一条街,身边的一条街。

手机版|小黑屋|有问题发邮件到admin#(换成@)hd1tj.org|微博|免责申明|HD一条街

GMT+8, 2017-3-31 06:32

Powered by Discuz! X3.1

© 2001-2013 Comsenz Inc.

快速回复 返回顶部 返回列表