开启辅助访问 切换到窄版

HD一条街论坛

 找回密码
 立即注册
查看: 121|回复: 11

[欧美] 纪录片:地球脉动 第一季 Planet.Earth.2006.COMPLETE.1080p.BluRay.x264-CULTHD 42.97G

[复制链接]
发表于 2016-10-17 23:48:57 | 显示全部楼层 |阅读模式
384_front.jpg : S- h4 _2 m1 h% R- k; L% i
; ^5 f: E8 T5 R5 D; ]' u

. x# C9 }+ Y& Q# L5 |" V◎译  名 地球脉动 第一季/地球无限/地球动脉/行星地球/地球无垠/我们的地球/地球的力量2 p3 L* x5 X! l3 |% v  p9 ]# [$ z
◎片  名 Planet Earth Season 19 q+ l! h  a3 |# \3 x' t
◎年  代 2006* m9 L$ d% I$ z5 _  Y
◎国  家 英国1 n  W1 k5 C8 K- c2 z( d. T! V
◎类  别 纪录片
4 T9 l/ G0 q' P5 K3 x5 i. @◎语  言 英语
; ]6 f( q0 \! w$ v) X3 D; d& N% ?- n/ R◎整  理   HD一条街 www.hd1tj.org
. z, T2 T1 d; N5 {' {. e$ Q' X◎上映日期 2006-02-27* C! x& M9 D1 x4 w/ J: M
◎IMDb评分  9.5/10 from 104,521 users
; r% j; {8 z8 m◎IMDb链接  http://www.imdb.com/title/tt0795176/
4 I$ c& M8 b/ _  y8 y# O4 c◎豆瓣评分 9.7/10 from 17,280 users
* ?7 B7 _9 j) p$ f◎豆瓣链接 https://movie.douban.com/subject/1871906/
7 g' a  Y2 r) O# Z& c. E◎集  数 11
0 R7 T1 u) h: _4 y◎片  长 60分钟
1 L0 [* L/ v, B5 _, {◎导  演 艾雷斯泰·法瑟吉尔 Alastair Fothergill
' m; \4 J9 D& u9 M, ^8 A  _◎主  演 戴维·阿滕伯勒 David Attenborough
; r9 k2 k3 L, h+ ^8 i4 _      西格妮·韦弗 Sigourney Weaver
$ k$ q0 @4 T0 m9 }  s% R* C  M7 z6 d: T- A6 U3 c
◎简  介
& }, R) `/ ^& t/ Y
3 E/ B! {( Z7 V3 n4 p" l0 j  BBC曾经制作出《蓝色星球》的纪录片摄影团队,再次集结奉上了这部堪称难以超越的经典纪录片《地球脉动》。从南极到北极,从赤道到寒带,从非洲草原到热带雨林,再从荒凉峰顶到深邃大海,难以数计的生物以极其绝美的身姿呈现在世人面前。我们看到了Okavango洪水的涨落及其周边赖以生存的动物们的生存状态,看到了罕见的雪豹在漫天大雪中猎食的珍贵画面;看到了冰原上企鹅、北极熊、海豹等生物相互依存的严苛情景,也见识了生活在大洋深处火山口高温环境下的惊奇生物。当然还有地球各地的壮观美景与奇特地貌,无私地将其最为光艳的一面展现出来。
- ]5 b+ u" H& b$ C8 K- ~- q  本片共计11集,期间还采用美国军方发明的空中摄影机拍摄,可从一公里外拍摄某物体的超清晰特写。
  1. Video
    3 m9 B9 }/ o0 u6 _% s
  2. ID                                       : 1
    $ b7 q9 f( E4 {
  3. Format                                   : AVC+ N8 p& S# F$ e' \& b
  4. Format/Info                              : Advanced Video Codec
    ' B' [4 j2 A, `0 v! y% y6 s
  5. Format profile                           : [email protected]
    6 l: U1 Q9 D) `3 Y  ~- f( @
  6. Format settings, CABAC                   : Yes2 j* u8 S# h6 D4 T
  7. Format settings, ReFrames                : 5 frames( t* K. c8 Q4 y) a' a4 e
  8. Codec ID                                 : V_MPEG4/ISO/AVC9 Y+ W" a9 S, ^$ h+ j. ]
  9. Duration                                 : 51mn 26s
    ; c0 e. H6 S( b# D6 k
  10. Bit rate                                 : 11.8 Mbps
    % y& V# k4 h$ u  G/ X% ?
  11. Width                                    : 1 920 pixels0 F* L1 a7 v* v' X
  12. Height                                   : 1 080 pixels: G1 @' N4 Q( q* k' C$ V
  13. Display aspect ratio                     : 16:9
    " s* j+ J7 n* M7 Q8 U
  14. Frame rate mode                          : Constant% R) A- K% C+ `: Q- X$ B8 J
  15. Frame rate                               : 23.976 fps
    3 T) `" C8 |  H3 h
  16. Color space                              : YUV$ t7 \" I: i  T+ F
  17. Chroma subsampling                       : 4:2:04 t' \# q. g  V
  18. Bit depth                                : 8 bits
    ' Z# W3 Y. |9 V  g( y# X
  19. Scan type                                : Progressive
    6 ^5 a- H0 F! o- n# b7 @$ ^$ ^
  20. Bits/(Pixel*Frame)                       : 0.237( D% ?5 u1 `! ~$ @; P' U6 D
  21. Stream size                              : 4.13 GiB (94%)
    / d$ t6 M5 S! Y' x. r# t4 H
  22. Writing library                          : x264 core 59 r851M e11ef38
    + P6 q9 s# U/ ~3 H, \* a
  23. Encoding settings                        : cabac=1 / ref=5 / deblock=1:0:0 / analyse=0x3:0x133 / me=umh / subme=6 / me-prepass=0 / brdo=1 / mixed_ref=0 / me_range=16 / chroma_me=1 / trellis=1 / 8x8dct=1 / cqm=0 / deadzone=21,11 / chroma_qp_offset=0 / threads=3 / nr=0 / decimate=1 / mbaff=0 / fgo=0 / bframes=5 / b_pyramid=1 / b_adapt=1 / b_bias=0 / direct=3 / wpredb=1 / bime=1 / keyint=250 / keyint_min=25 / scenecut=40(pre) / rc=2pass / bitrate=11798 / ratetol=1.0 / rceq=\'blurCplx^(1-qComp)\' / qcomp=1.00 / qpmin=10 / qpmax=51 / qpstep=4 / cplxblur=20.0 / qblur=0.5 / ip_ratio=1.40 / pb_ratio=1.30 / aq=2:1.00
    5 K; E; C) M0 H: n9 F4 N( T$ |# U% o
  24. Default                                  : Yes  m+ M6 A3 F, e8 [- \, N
  25. Forced                                   : No( }& C( ?: _6 g2 }

  26. - J) h& M+ Y$ `) J9 B- R' U
  27. Audio, R( K8 f- U0 {/ z
  28. ID                                       : 2
    % o& h$ n1 ^* e& F8 @
  29. Format                                   : AC-36 F1 m& f. c3 u3 u& j) ~" |
  30. Format/Info                              : Audio Coding 3
    / ]" ?! B2 x9 N1 b6 ^" q8 M# b4 B2 @
  31. Mode extension                           : CM (complete main)
    * q4 A: w) f9 g: k9 Q
  32. Format settings, Endianness              : Big
    6 d7 s, x: I, s9 r
  33. Codec ID                                 : A_AC3
    6 n2 M! b0 C* Z
  34. Duration                                 : 51mn 26s
    6 x  ~% i3 h, S- N
  35. Bit rate mode                            : Constant+ Z" B/ n  G& L5 Y/ m
  36. Bit rate                                 : 448 Kbps! U3 ^8 `7 T% ?3 N; W
  37. Channel(s)                               : 6 channels
    ( C3 K0 Y7 d  u5 }% V% r- N
  38. Channel positions                        : Front: L C R, Side: L R, LFE" {3 X: ]6 B* m$ }5 r
  39. Sampling rate                            : 48.0 KHz6 L5 _' y! A0 s' k
  40. Frame rate                               : 31.250 fps (1536 spf); d3 d- P# p; m' [6 u
  41. Compression mode                         : Lossy
    2 G! U) m- i5 G* ~! }. q
  42. Stream size                              : 165 MiB (4%)
    ' J3 [  w4 m; C8 s
  43. Language                                 : English  M4 Z: a6 u# {0 F) j" i
  44. Default                                  : Yes
    * |1 I2 u7 E8 F. Y1 Y: Z# p
  45. Forced                                   : No
      Q/ e4 V! e+ @

  46. - ~6 U/ f9 y4 W7 O% n& C8 H0 C8 n
  47. Text #1
    $ v- j0 y# W0 \7 k4 X6 O
  48. ID                                       : 3! m8 E$ \4 I, a9 r& D, z/ T3 Q6 _
  49. Format                                   : UTF-8" a6 c$ a8 P( i6 O7 r4 F
  50. Codec ID                                 : S_TEXT/UTF8- h: v0 V6 n0 w/ Z% i- f( R* p
  51. Codec ID/Info                            : UTF-8 Plain Text7 j5 `, S' _  w2 w  c4 c
  52. Language                                 : Finnish
    ! X, i0 j7 T! {, c
  53. Default                                  : Yes( B3 y) y: c2 [  _+ E  Y0 M5 r
  54. Forced                                   : No
    * K# x) A  Y/ E  ]
  55. 2 t" H# c+ |8 t) a0 a& O3 a
  56. Text #2
    9 H, ~; c5 v5 U9 `- F# H
  57. ID                                       : 4
    5 ]/ m/ G4 A! k5 Z
  58. Format                                   : UTF-8
    3 j" K' [: q8 e. }: X9 d
  59. Codec ID                                 : S_TEXT/UTF83 y; R2 f) }$ Q) w. i3 D' \
  60. Codec ID/Info                            : UTF-8 Plain Text
    - e* T1 }% \7 ^  Y# n7 a
  61. Language                                 : Norwegian
    & {$ `) m* m* Z0 K9 w. g; l+ ]
  62. Default                                  : No" A; Z+ |. G1 s' K
  63. Forced                                   : No9 V' n' j7 Q0 h. P6 K
  64. 1 t( p0 H+ b! P- Z7 B
  65. Text #3
    & l; d! S; A# m# X8 m9 b
  66. ID                                       : 5
    1 |- Q- q) T* x9 b
  67. Format                                   : UTF-8
    : h+ ~. I0 a4 n
  68. Codec ID                                 : S_TEXT/UTF8: G& t8 ~$ x* C
  69. Codec ID/Info                            : UTF-8 Plain Text( J9 V( _" o! H
  70. Language                                 : Swedish! J5 v2 U* t9 a% ^
  71. Default                                  : No
    4 t1 P" M. v  g+ U
  72. Forced                                   : No
复制代码

  j9 q9 J+ h8 H% ^$ _
7 Z2 l; N/ {4 A3 X8 r, g' Y$ G; V. n9 t- `8 ]6 l- ]) F
4 `6 K  i4 T0 n! }8 j" o8 t

# r$ x' z) v4 }4 `" s
6 W. g* p2 O' K; o4 r
: E3 I9 i3 `4 r! H0 Z/ Y4 c
, g, u9 f7 c0 ?1 q, u' l, l( P/ V7 T4 I8 {
游客,如果您要查看本帖隐藏内容请回复  捐助论坛可免回复查看隐藏内容详情请点击
最近访问 头像模式 列表模式
HD一条街,身边的一条街。
发表于 2016-10-18 00:15:52 | 显示全部楼层
BBC的动物纪录片最好看了
HD一条街,身边的一条街。
发表于 2016-10-18 14:28:39 | 显示全部楼层
俾心机努力楼主辛苦哂
HD一条街,身边的一条街。
发表于 2016-10-19 19:48:21 | 显示全部楼层
很厲害的紀錄片,上天下海,從南極到北極都拍攝了,感謝分享~~
HD一条街,身边的一条街。
发表于 2016-10-22 23:05:28 来自手机 | 显示全部楼层
这种记录片看着好有意思!谢谢
HD一条街,身边的一条街。
发表于 2016-11-4 10:32:39 | 显示全部楼层
需要耐着性子去欣赏
HD一条街,身边的一条街。
发表于 2016-11-9 10:09:05 | 显示全部楼层
这个是什么网盘的???
HD一条街,身边的一条街。
发表于 2016-11-13 22:21:53 | 显示全部楼层
thanks for srhaing
HD一条街,身边的一条街。
发表于 2016-11-16 19:01:09 | 显示全部楼层
据说这片拍的非常好!
HD一条街,身边的一条街。
发表于 2016-11-19 08:24:04 | 显示全部楼层
好东西一定要收藏,谢谢版主!
HD一条街,身边的一条街。
您需要登录后才可以回帖 登录 | 立即注册

本版积分规则

手机版|小黑屋|有问题发邮件到admin#(换成@)hd1tj.org|微博|免责申明|HD一条街

GMT+8, 2016-12-9 09:56

Powered by Discuz! X3.1

© 2001-2013 Comsenz Inc.

快速回复 返回顶部 返回列表