开启辅助访问 切换到窄版

HD一条街论坛

 找回密码
 加入我们
查看: 238|回复: 11

[欧美] 纪录片:地球脉动 第一季 Planet.Earth.2006.COMPLETE.1080p.BluRay.x264-CULTHD 42.97G

[复制链接]
发表于 2016-10-17 23:48:57 | 显示全部楼层 |阅读模式
384_front.jpg ! g- n9 y: W) y$ s0 G# x; z  d6 y7 V; s

5 }: f! s# j, Q- q4 O" d6 s
8 T/ B9 _+ X  B# {% m) V◎译  名 地球脉动 第一季/地球无限/地球动脉/行星地球/地球无垠/我们的地球/地球的力量; |: g9 o0 @  x5 b- p7 I4 g
◎片  名 Planet Earth Season 1
5 v- |% [9 d7 Q8 s! f" ?◎年  代 2006
( s8 {9 B* i3 Z* w+ |& L◎国  家 英国
4 Z! l4 b. N9 x: j1 b◎类  别 纪录片
8 {* E2 ^- @/ X: L: ^◎语  言 英语
' o) @1 ?2 I& N◎整  理   HD一条街 www.hd1tj.org, f& p) P( c! Y1 b' |& L. d
◎上映日期 2006-02-27
& o6 E" I: Q1 o( T0 N◎IMDb评分  9.5/10 from 104,521 users: _! B- a3 F8 x: b! H
◎IMDb链接  http://www.imdb.com/title/tt0795176/
" ~3 ]( C" B2 S0 j# E: S% \. m◎豆瓣评分 9.7/10 from 17,280 users
+ x$ v7 K% g8 ]◎豆瓣链接 https://movie.douban.com/subject/1871906/! W/ [" Q( w: g" T6 m7 Y7 P: @
◎集  数 11
- ^4 v2 H) w9 ?- _2 C" I+ K: c5 }◎片  长 60分钟8 Q0 q+ _3 x! e5 V
◎导  演 艾雷斯泰·法瑟吉尔 Alastair Fothergill
# z# J) G- m- [3 l) P- b% W◎主  演 戴维·阿滕伯勒 David Attenborough! c7 [! u( b+ o/ Y
      西格妮·韦弗 Sigourney Weaver
- i9 l8 T( p% x/ ]1 H+ R: N1 z) f$ I
◎简  介. @) W3 d* b0 p$ s/ c

$ H0 I1 l0 z- [0 Z3 L# p: B6 _' s0 i  BBC曾经制作出《蓝色星球》的纪录片摄影团队,再次集结奉上了这部堪称难以超越的经典纪录片《地球脉动》。从南极到北极,从赤道到寒带,从非洲草原到热带雨林,再从荒凉峰顶到深邃大海,难以数计的生物以极其绝美的身姿呈现在世人面前。我们看到了Okavango洪水的涨落及其周边赖以生存的动物们的生存状态,看到了罕见的雪豹在漫天大雪中猎食的珍贵画面;看到了冰原上企鹅、北极熊、海豹等生物相互依存的严苛情景,也见识了生活在大洋深处火山口高温环境下的惊奇生物。当然还有地球各地的壮观美景与奇特地貌,无私地将其最为光艳的一面展现出来。
" ~: l; [1 Z! |* _4 K0 H$ ~  本片共计11集,期间还采用美国军方发明的空中摄影机拍摄,可从一公里外拍摄某物体的超清晰特写。
  1. Video
    & {1 Q' ]0 a1 T9 O. L, i( X
  2. ID                                       : 1
    $ F! I4 `3 U4 i2 `' r
  3. Format                                   : AVC, {$ P4 G; E4 I( ~
  4. Format/Info                              : Advanced Video Codec* e+ k* {, S8 H% n
  5. Format profile                           : [email protected]
    2 U# ~& I# Y' ?( A9 u
  6. Format settings, CABAC                   : Yes
    $ |" }, d# N; t/ P7 m
  7. Format settings, ReFrames                : 5 frames* k$ _! `- G6 _( ?
  8. Codec ID                                 : V_MPEG4/ISO/AVC
    0 I, O: k; k3 ]+ ~! N# o' c% Y8 ^
  9. Duration                                 : 51mn 26s
    ! u& c  r* u$ x1 [, z2 b
  10. Bit rate                                 : 11.8 Mbps
    ; f% @# {0 ^6 B/ c1 H! e+ T
  11. Width                                    : 1 920 pixels
    $ Z& h: @/ o" ?. ?( W* W! I( m5 I
  12. Height                                   : 1 080 pixels: a/ f2 h' p/ G8 i, C) |& u
  13. Display aspect ratio                     : 16:9
    & [0 B3 ^( x; \% N8 |5 L
  14. Frame rate mode                          : Constant
    0 u5 Z* f% M* q0 b2 y. S
  15. Frame rate                               : 23.976 fps) e/ O9 a9 x- g. g, U+ x$ }' G
  16. Color space                              : YUV
    7 W' r7 R6 x& K7 n+ m3 ~
  17. Chroma subsampling                       : 4:2:0
    & x" T. A4 }/ M+ ~+ n& H
  18. Bit depth                                : 8 bits" d; D7 T2 q6 n6 {% E3 b8 L- m
  19. Scan type                                : Progressive
    * R/ `. O3 \% T% F( y, c. W
  20. Bits/(Pixel*Frame)                       : 0.2379 |2 t- E2 u, M" W2 h
  21. Stream size                              : 4.13 GiB (94%)
    : G" L6 a! n3 j" ?# {0 @
  22. Writing library                          : x264 core 59 r851M e11ef38- u+ X# e! K; ]; z) b
  23. Encoding settings                        : cabac=1 / ref=5 / deblock=1:0:0 / analyse=0x3:0x133 / me=umh / subme=6 / me-prepass=0 / brdo=1 / mixed_ref=0 / me_range=16 / chroma_me=1 / trellis=1 / 8x8dct=1 / cqm=0 / deadzone=21,11 / chroma_qp_offset=0 / threads=3 / nr=0 / decimate=1 / mbaff=0 / fgo=0 / bframes=5 / b_pyramid=1 / b_adapt=1 / b_bias=0 / direct=3 / wpredb=1 / bime=1 / keyint=250 / keyint_min=25 / scenecut=40(pre) / rc=2pass / bitrate=11798 / ratetol=1.0 / rceq=\'blurCplx^(1-qComp)\' / qcomp=1.00 / qpmin=10 / qpmax=51 / qpstep=4 / cplxblur=20.0 / qblur=0.5 / ip_ratio=1.40 / pb_ratio=1.30 / aq=2:1.00
    / B. [! W- {# [. S6 d' k, i
  24. Default                                  : Yes
    ! p5 d: r- H  F6 R( F% t; \! u* f
  25. Forced                                   : No
    * }3 A7 u5 k0 A0 M
  26. : c  p- @8 K+ E
  27. Audio
    1 ~9 d6 g3 {8 a$ S: T5 v
  28. ID                                       : 20 R6 A/ S) c- {5 r. B8 B, c
  29. Format                                   : AC-3- i2 p  a6 i) l/ ~
  30. Format/Info                              : Audio Coding 3
    ) R+ h) [0 O3 G) ]
  31. Mode extension                           : CM (complete main)
    3 }3 h! T+ t5 t: l: t; T
  32. Format settings, Endianness              : Big  \( {4 J$ I# R0 V) _7 F
  33. Codec ID                                 : A_AC3
    - j5 j3 l/ [  i! J
  34. Duration                                 : 51mn 26s# y$ ~% P& d' ~  Y* t- ]+ ~$ w3 o/ I
  35. Bit rate mode                            : Constant0 Y( Y9 ]7 W& t! [8 k! n
  36. Bit rate                                 : 448 Kbps
    2 v' Z3 p9 g0 r) w9 a, ~
  37. Channel(s)                               : 6 channels
    6 G' a; E# u. }7 \. b6 ?! k
  38. Channel positions                        : Front: L C R, Side: L R, LFE* q8 s8 S9 Z- w; a! q
  39. Sampling rate                            : 48.0 KHz
    4 w& I# Q: V0 s1 D6 b6 p- t% @% Q
  40. Frame rate                               : 31.250 fps (1536 spf)8 C! y2 o$ M9 f- c; E( N9 y4 U. \
  41. Compression mode                         : Lossy
    6 H( }# ^6 [- {1 o
  42. Stream size                              : 165 MiB (4%)
    + `( w1 {# C- S3 d( s' X4 o  O
  43. Language                                 : English! z. K' R& B2 x9 _! o
  44. Default                                  : Yes) V6 A4 i! u  k3 h7 G
  45. Forced                                   : No# j: K0 n- u0 h8 ]. Q# d" p! J% q

  46. - Q5 w" _. y9 G. S* H  F0 e4 c
  47. Text #1" a) @5 X$ p& c  S" G- b5 _
  48. ID                                       : 3! `3 W6 ]2 j0 |6 X
  49. Format                                   : UTF-8* o2 N1 v% K: x) e
  50. Codec ID                                 : S_TEXT/UTF8
      U1 A0 o; N6 G
  51. Codec ID/Info                            : UTF-8 Plain Text
    ! A" w* L5 |: T( d2 B- n% P& \
  52. Language                                 : Finnish
    - g4 r# q. b5 I0 h' f0 C
  53. Default                                  : Yes4 r# A  C6 ~& v8 T, [: z
  54. Forced                                   : No
    * R- T* k$ Q, a% Z/ U
  55. # U4 S' U% M) k/ p3 [7 M+ @
  56. Text #26 C. }" ?; s2 V) P
  57. ID                                       : 47 H/ o3 ]7 Y+ f/ ~9 Y
  58. Format                                   : UTF-83 ^$ b" D: \* q1 X( I+ S
  59. Codec ID                                 : S_TEXT/UTF8" N7 Z" g. h3 U
  60. Codec ID/Info                            : UTF-8 Plain Text
    $ E# N2 Y" n$ d- _/ p
  61. Language                                 : Norwegian
    0 H, \% _( q1 z+ A6 V! U
  62. Default                                  : No) W* I- t; ^+ X0 a2 m7 r6 ?
  63. Forced                                   : No7 [& k& m- g0 L  P! ^/ f

  64. " T, a0 Q8 R2 ]4 f
  65. Text #3# u9 A' d) h- R4 p7 X
  66. ID                                       : 5
      |- s( T; C' G2 M5 _1 I8 y
  67. Format                                   : UTF-8
    : _( M/ S0 f- ?, T! ?5 C6 v
  68. Codec ID                                 : S_TEXT/UTF8
    6 }( _9 E" c$ j9 l8 C6 y
  69. Codec ID/Info                            : UTF-8 Plain Text
    ( ~7 a' [, A2 v9 L; M( i7 s$ i
  70. Language                                 : Swedish
    ! N) r# _4 m9 _/ {3 G5 |6 K$ v; k
  71. Default                                  : No
    8 v: q$ S( O+ N! a
  72. Forced                                   : No
复制代码

7 a' m* E/ o: w+ `4 N. c  c/ t5 w9 l  Y9 @* z& O
( \: @" d* _- b0 w& Q

8 Y+ Q, S- R. k) o- ^
4 g- F9 t& y+ I, u8 A9 e' a/ C8 y1 b6 U

0 l/ E4 }, Q7 @+ \2 B: |8 T! E  I; o  ^2 F3 W& X9 k" P- w

/ t% P- }4 P4 t1 l4 x& Q2 z
游客,如果您要查看本帖隐藏内容请回复  捐助论坛可免回复查看隐藏内容 详情请点击
HD一条街,身边的一条街。
发表于 2016-10-18 00:15:52 | 显示全部楼层
BBC的动物纪录片最好看了
HD一条街,身边的一条街。
发表于 2016-10-18 14:28:39 | 显示全部楼层
俾心机努力楼主辛苦哂
HD一条街,身边的一条街。
发表于 2016-10-19 19:48:21 | 显示全部楼层
很厲害的紀錄片,上天下海,從南極到北極都拍攝了,感謝分享~~
HD一条街,身边的一条街。
发表于 2016-10-22 23:05:28 来自手机 | 显示全部楼层
这种记录片看着好有意思!谢谢
HD一条街,身边的一条街。
发表于 2016-11-4 10:32:39 | 显示全部楼层
需要耐着性子去欣赏
HD一条街,身边的一条街。
发表于 2016-11-9 10:09:05 | 显示全部楼层
这个是什么网盘的???
HD一条街,身边的一条街。
发表于 2016-11-13 22:21:53 | 显示全部楼层
thanks for srhaing
HD一条街,身边的一条街。
发表于 2016-11-16 19:01:09 | 显示全部楼层
据说这片拍的非常好!
HD一条街,身边的一条街。
发表于 2016-11-19 08:24:04 | 显示全部楼层
好东西一定要收藏,谢谢版主!
HD一条街,身边的一条街。
您需要登录后才可以回帖 登录 | 加入我们

本版积分规则

手机版|小黑屋|有问题发邮件到admin#(换成@)hd1tj.org|微博|免责申明|HD一条街

GMT+8, 2017-1-17 23:07

Powered by Discuz! X3.1

© 2001-2013 Comsenz Inc.

快速回复 返回顶部 返回列表