开启辅助访问 切换到窄版

HD一条街论坛

 找回密码
 加入我们
查看: 299|回复: 11

[欧美] 纪录片:地球脉动 第一季 Planet.Earth.2006.COMPLETE.1080p.BluRay.x264-CULTHD 42.97G

[复制链接]
发表于 2016-10-17 23:48:57 | 显示全部楼层 |阅读模式
384_front.jpg 8 O6 z7 E9 }, q# }

, i1 }. e% F# Y8 @7 A* r' _8 d) U5 D3 T5 U- [$ w
◎译  名 地球脉动 第一季/地球无限/地球动脉/行星地球/地球无垠/我们的地球/地球的力量# `1 u3 L  A1 O+ |; l. a+ Y
◎片  名 Planet Earth Season 1
4 r# Z, x5 F; }' P  ]◎年  代 2006
3 P1 J5 ^% G: n0 }% [$ ~, P◎国  家 英国8 Y; Y6 }" l! G$ o5 m
◎类  别 纪录片
' N7 U8 L* H' L8 m◎语  言 英语" Y0 W8 q$ o- n4 v" T4 l5 e
◎整  理   HD一条街 www.hd1tj.org8 u0 |+ F( A8 Y; G% U2 }3 k' Y
◎上映日期 2006-02-27
, H5 g0 K& ]( r" G6 [◎IMDb评分  9.5/10 from 104,521 users
' x* H5 ~+ x$ a! I9 V, A◎IMDb链接  http://www.imdb.com/title/tt0795176/
$ L4 Q9 C, I5 }0 @◎豆瓣评分 9.7/10 from 17,280 users5 [. T) H6 L5 b& W4 N
◎豆瓣链接 https://movie.douban.com/subject/1871906/
' b8 _$ m1 j5 ^* F6 N! a◎集  数 113 e  z% P1 M6 Z8 U
◎片  长 60分钟% W8 l0 c! L1 V% R; L, `
◎导  演 艾雷斯泰·法瑟吉尔 Alastair Fothergill, C+ U, o; A; O- u" R( p& g9 |
◎主  演 戴维·阿滕伯勒 David Attenborough7 U) c( ~8 S8 M# M' v
      西格妮·韦弗 Sigourney Weaver
; Z& J& ?/ U) Z9 y9 m# m* c7 o% g* G7 U: n. _9 v
◎简  介+ Q5 K8 N" R4 Y; L8 a7 ~0 A' g
) {, T. j- D5 i5 l, W5 w( R9 A
  BBC曾经制作出《蓝色星球》的纪录片摄影团队,再次集结奉上了这部堪称难以超越的经典纪录片《地球脉动》。从南极到北极,从赤道到寒带,从非洲草原到热带雨林,再从荒凉峰顶到深邃大海,难以数计的生物以极其绝美的身姿呈现在世人面前。我们看到了Okavango洪水的涨落及其周边赖以生存的动物们的生存状态,看到了罕见的雪豹在漫天大雪中猎食的珍贵画面;看到了冰原上企鹅、北极熊、海豹等生物相互依存的严苛情景,也见识了生活在大洋深处火山口高温环境下的惊奇生物。当然还有地球各地的壮观美景与奇特地貌,无私地将其最为光艳的一面展现出来。1 ?! `+ S" T: q: V  D
  本片共计11集,期间还采用美国军方发明的空中摄影机拍摄,可从一公里外拍摄某物体的超清晰特写。
  1. Video
    ' E$ T" y) d( `* s% r6 u
  2. ID                                       : 1
    # o2 b5 B' t1 B
  3. Format                                   : AVC1 `+ P1 }0 Y* y, J( \4 i
  4. Format/Info                              : Advanced Video Codec
    ! W4 f/ J  P' O3 ~) B8 Z6 _
  5. Format profile                           : High@L5.1
    ; G! D8 R) ?8 q3 x" C, _( {, ~
  6. Format settings, CABAC                   : Yes
    ' L8 r7 Y0 }/ V( b9 l, r
  7. Format settings, ReFrames                : 5 frames5 b) [" n" `6 Z
  8. Codec ID                                 : V_MPEG4/ISO/AVC
    + g( [6 C0 [8 k
  9. Duration                                 : 51mn 26s, G; k0 f3 O& z7 }! [
  10. Bit rate                                 : 11.8 Mbps
    - Y# Z  g+ T* B) b( E" M5 N
  11. Width                                    : 1 920 pixels
    ; D2 }8 h, Q- {5 |! Y# l
  12. Height                                   : 1 080 pixels
    ) c' j7 F( Y8 J  t. ?7 I
  13. Display aspect ratio                     : 16:9" u- m/ {- l/ b* s# M: P8 ^
  14. Frame rate mode                          : Constant* F0 C  g3 y- o* Z! ?, J2 f
  15. Frame rate                               : 23.976 fps1 v1 J  c' {& a! y) Z9 f
  16. Color space                              : YUV
    % K: [6 o9 A3 R8 m6 g  `) h
  17. Chroma subsampling                       : 4:2:0
    8 N% B* a6 A8 m6 q  J" U
  18. Bit depth                                : 8 bits
    * E) x: K9 w2 O$ F
  19. Scan type                                : Progressive
    ; M7 b; w9 G. c9 [0 v0 S
  20. Bits/(Pixel*Frame)                       : 0.237
    . b& e1 G; D+ k6 x- _' X/ Q1 q/ h
  21. Stream size                              : 4.13 GiB (94%)
    - Q+ e5 h1 S& @/ X7 d6 b
  22. Writing library                          : x264 core 59 r851M e11ef38) A/ }9 y6 c$ f! y4 P( w; ^& w) @& X
  23. Encoding settings                        : cabac=1 / ref=5 / deblock=1:0:0 / analyse=0x3:0x133 / me=umh / subme=6 / me-prepass=0 / brdo=1 / mixed_ref=0 / me_range=16 / chroma_me=1 / trellis=1 / 8x8dct=1 / cqm=0 / deadzone=21,11 / chroma_qp_offset=0 / threads=3 / nr=0 / decimate=1 / mbaff=0 / fgo=0 / bframes=5 / b_pyramid=1 / b_adapt=1 / b_bias=0 / direct=3 / wpredb=1 / bime=1 / keyint=250 / keyint_min=25 / scenecut=40(pre) / rc=2pass / bitrate=11798 / ratetol=1.0 / rceq=\'blurCplx^(1-qComp)\' / qcomp=1.00 / qpmin=10 / qpmax=51 / qpstep=4 / cplxblur=20.0 / qblur=0.5 / ip_ratio=1.40 / pb_ratio=1.30 / aq=2:1.00# w% v" F% W8 r3 N
  24. Default                                  : Yes( b# y+ K4 [# a) p' f
  25. Forced                                   : No: z6 q3 n: f7 A$ C/ j) v; T
  26. 9 j. F" d) U0 H  F: O. n
  27. Audio4 }3 @8 b7 ~- W4 {1 z& `& D. K
  28. ID                                       : 2
    : R9 p. p  K. b5 ]1 J8 `: G9 c
  29. Format                                   : AC-3
    5 m0 j, F" o. h
  30. Format/Info                              : Audio Coding 3* z# a: J, a+ I, Q% J8 p1 G# x
  31. Mode extension                           : CM (complete main)
    $ K4 n7 i/ Y: z% C# G+ _
  32. Format settings, Endianness              : Big
    . R6 i- l9 O1 h& b% j2 w
  33. Codec ID                                 : A_AC3  |6 u7 Q& p' L, r- W( D
  34. Duration                                 : 51mn 26s' q/ I3 Y& \2 {* _7 u' I% p
  35. Bit rate mode                            : Constant
    $ [. @  s1 M2 J" H! F
  36. Bit rate                                 : 448 Kbps
    ; u' p- k% K& o, U6 h, Z' P
  37. Channel(s)                               : 6 channels
    % o, F, i2 |  S" N0 a
  38. Channel positions                        : Front: L C R, Side: L R, LFE
    ; S) P. ]' K+ m7 ?# i
  39. Sampling rate                            : 48.0 KHz
    0 q$ _5 i1 _% @( ^. g% ^% d: N5 w
  40. Frame rate                               : 31.250 fps (1536 spf)3 }* V& R2 b' i& r
  41. Compression mode                         : Lossy
    6 [9 @! \( ^7 D
  42. Stream size                              : 165 MiB (4%)
    ( X5 E: w6 O! l& T7 k# z+ E( {/ N
  43. Language                                 : English
    2 e/ Z, d2 Q. Y, z% B0 V0 v( H0 H
  44. Default                                  : Yes
    5 F+ e0 [0 j3 H
  45. Forced                                   : No
    6 I; ^+ g$ E! V! j
  46. 4 b% ]+ g# ]* C0 ^% g6 E& w. ~
  47. Text #1
    3 y: o  R% A/ K! H3 _  m% L
  48. ID                                       : 3
    9 M: @; H" x0 N. I
  49. Format                                   : UTF-8
    % s# }! c; {5 T, {
  50. Codec ID                                 : S_TEXT/UTF8
    ' A( ^% j' B, z6 \2 x9 B$ ?
  51. Codec ID/Info                            : UTF-8 Plain Text( @( }) x- n! G- e1 g& Q- [
  52. Language                                 : Finnish
    ; c% U. e& \9 Y, P' C- ^$ e/ [9 s
  53. Default                                  : Yes9 ^5 {; F, H. S
  54. Forced                                   : No# Q: @$ m3 I  c5 r: a
  55. . m3 `2 A! e: F' m8 J% C2 C& [
  56. Text #2
    % l$ |5 A; Q) a& }
  57. ID                                       : 4
      f4 [+ M! Q4 L# [
  58. Format                                   : UTF-8
    ' Z9 b: K" W7 ]' E% M* N4 m
  59. Codec ID                                 : S_TEXT/UTF8/ O, ?: X& q2 k& [0 @3 Q( a  x8 |
  60. Codec ID/Info                            : UTF-8 Plain Text& v4 Z: v/ I$ Z: z7 [$ Z
  61. Language                                 : Norwegian
    ! Y5 R+ j) g6 t* U! \# z
  62. Default                                  : No4 G' w( i( I( l! A
  63. Forced                                   : No7 q  h- ?" ~- Z; V& b

  64.   C: }& }# [/ m3 c
  65. Text #3
    - A  u* n  r! C) Y3 {
  66. ID                                       : 5
    & \) l$ C, D: N* u; N
  67. Format                                   : UTF-8, q; K+ _8 h4 x1 h& V! N# {
  68. Codec ID                                 : S_TEXT/UTF8( R& t5 b# P5 ]4 _1 l7 Y
  69. Codec ID/Info                            : UTF-8 Plain Text
    ! l% b% z0 D& y& p) w% d: `) b
  70. Language                                 : Swedish/ I- U0 U7 K3 b8 R
  71. Default                                  : No) b. x( T# l4 H8 a; V( J/ u  B8 d
  72. Forced                                   : No
复制代码

/ _0 q! M! ?: Z- ~3 P/ `8 g/ U+ i& W! e6 k6 f$ z
' F$ g; P1 U% |" h' _5 p$ P* K  }
) K9 J% @/ p/ \: U5 y
- P+ {9 S0 w2 o3 }: E
' X, I' m5 p6 V+ \

, D" D8 {7 b" Z1 x9 D" ^% x' F3 n& l! L: l7 v- o6 D7 Q+ ?/ d. a8 ?1 c" i
/ y/ @/ Y8 a, E1 z
游客,如果您要查看本帖隐藏内容请回复  捐助论坛可免回复查看隐藏内容 详情请点击
最近访问 头像模式 列表模式
HD一条街,身边的一条街。
发表于 2016-10-18 00:15:52 | 显示全部楼层
BBC的动物纪录片最好看了
HD一条街,身边的一条街。
发表于 2016-10-18 14:28:39 | 显示全部楼层
俾心机努力楼主辛苦哂
HD一条街,身边的一条街。
发表于 2016-10-19 19:48:21 | 显示全部楼层
很厲害的紀錄片,上天下海,從南極到北極都拍攝了,感謝分享~~
HD一条街,身边的一条街。
发表于 2016-10-22 23:05:28 来自手机 | 显示全部楼层
这种记录片看着好有意思!谢谢
HD一条街,身边的一条街。
发表于 2016-11-4 10:32:39 | 显示全部楼层
需要耐着性子去欣赏
HD一条街,身边的一条街。
发表于 2016-11-9 10:09:05 | 显示全部楼层
这个是什么网盘的???
HD一条街,身边的一条街。
发表于 2016-11-13 22:21:53 | 显示全部楼层
thanks for srhaing
HD一条街,身边的一条街。
发表于 2016-11-16 19:01:09 | 显示全部楼层
据说这片拍的非常好!
HD一条街,身边的一条街。
发表于 2016-11-19 08:24:04 | 显示全部楼层
好东西一定要收藏,谢谢版主!
HD一条街,身边的一条街。
您需要登录后才可以回帖 登录 | 加入我们

本版积分规则

手机版|小黑屋|有问题发邮件到admin#(换成@)hd1tj.org|微博|免责申明|HD一条街

GMT+8, 2017-2-20 00:38

Powered by Discuz! X3.1

© 2001-2013 Comsenz Inc.

快速回复 返回顶部 返回列表