开启辅助访问 切换到窄版

HD一条街论坛

 找回密码
 加入我们
查看: 73|回复: 3

[欧美] 纪录片:奥德里与戴茜 Audrie.and.Daisy.2016.1080p.WEBRip.X264-DEFLATE 10.56G

[复制链接]
发表于 2016-10-13 11:46:36 | 显示全部楼层 |阅读模式
p2376071610.jpg " z/ j3 U5 p- g; B

) }4 i8 }7 t5 t: n
  Y6 M* V; n% K8 L◎译  名 奥德里与戴茜: }3 @; h- C! X+ O
◎片  名 Audrie & Daisy& o7 i' j, f* p+ u5 i6 P
◎年  代 2016
: U; I' v- Z( ]8 c◎国  家 美国
2 t! X" V; c/ L: U# ~) W; W9 e◎类  别 纪录片
; [4 b) q  g  ^8 N. E◎语  言 英语
; C% j) ]* _. v- ^+ i8 i◎字  幕   英文
6 _2 [  x0 n% i: n◎整  理   HD一条街 www.hd1tj.org6 C# b. ?& |+ P0 l7 E! k
◎上映日期 2016-01-25(圣丹斯电影节)4 _9 e! h& [) d, @0 w, s: E
◎IMDb评分  7.4/10 from 952 users. ~( j' D# r1 C0 u8 E
◎IMDb链接  http://www.imdb.com/title/tt5278460/! w4 o: o9 A2 p/ {0 P3 k
◎豆瓣评分 8.7/10 from 10 users
3 t# y+ f# m7 {$ H7 h$ I◎豆瓣链接 https://movie.douban.com/subject/26679086/
, _% N9 ?' d! L◎片  长 95分钟
+ |2 G( M- }$ Q+ f◎导  演 Bonni Cohen / Jon Shenk- M6 u8 n. Y# W$ O4 A$ M
◎主  演 Daisy Coleman- @3 i& ]+ m& ?
      Jim Fall: D% S5 L3 ^" e6 y) L4 ?% ?
      Delaney Henderson9 L/ q8 i* N. Q3 B
      Darren White
3 i1 k, d$ J1 H  r
+ F/ W5 c: W$ \$ s) r1 A( g◎简  介5 y" W& c3 H$ G

6 \/ o  O7 r: O( ~; i/ `  After two high school girls in different towns are sexually assaulted by boys they consider friends, online bullying leads each girl to attempt suicide. Tragically, one dies. Assault in the social media age is explored from the perspectives of the girls and boys involved, as well as their torn-apart communities./ G. s! R( T; q8 Y, t) r5 y
  Sundance - World Premiere% P' \3 x; `. U  o* C

& k" S8 K, X# C* o0 M6 P◎获奖情况
. k' d9 w/ w' D4 G* L6 \
. ^$ B7 `$ a0 l  第32届圣丹斯电影节  (2016)
. J: w; d0 u3 ?% O  评审团大奖 纪录片(提名)
  1. Video
    & p- o: E% S2 Z; [) C/ L
  2. ID                                       : 1
    3 M# p" e# h5 ~3 t0 n) v" h
  3. Format                                   : AVC" z5 X( c- W( ?1 E" P3 V) W
  4. Format/Info                              : Advanced Video Codec
    0 ?" \/ J( `5 V* T1 M5 k
  5. Format profile                           : [email protected]# b3 J' N+ {$ C. }" A
  6. Format settings, CABAC                   : Yes0 w( D! G) z$ V5 _
  7. Format settings, ReFrames                : 4 frames
    ; i' \1 o  a& ]) z: K
  8. Codec ID                                 : V_MPEG4/ISO/AVC3 ]8 @& o7 k1 g: r8 |$ ^& V8 k) b8 h
  9. Duration                                 : 1h 37mn6 ^. u" r4 R  J5 C
  10. Bit rate                                 : 14.8 Mbps
      [' l" F2 [2 |+ y# U
  11. Width                                    : 1 920 pixels
    4 p$ C3 r4 J4 V& w
  12. Height                                   : 1 080 pixels
    2 y0 R1 N5 u# Q% N
  13. Display aspect ratio                     : 16:9
    & q/ r/ k: O4 L+ [! c/ s
  14. Frame rate mode                          : Constant7 T/ s+ Y% E, F1 u: o% z% q5 J
  15. Frame rate                               : 23.976 (24000/1001) fps! A' W) k' Q1 o2 I( `  t
  16. Color space                              : YUV
    0 W. Y/ v' s$ G& G0 \, G3 h
  17. Chroma subsampling                       : 4:2:0
    ( i: Y& E  i; V' y; I
  18. Bit depth                                : 8 bits- A4 ]+ y+ c# K  j
  19. Scan type                                : Progressive
    0 \' C! {" Q  m  P6 g1 i
  20. Bits/(Pixel*Frame)                       : 0.297
    ) `- m0 Q+ [- J9 ~- N6 x
  21. Stream size                              : 10.1 GiB (96%)
    & }& h+ H( e, K8 ^0 P
  22. Writing library                          : x264 core 148 r2721+7 72d53ab / tmod 162ad1b X86_64
    8 r$ X  u0 a( |+ _8 l' r7 L
  23. Encoding settings                        : cabac=1 / ref=4 / deblock=1:-3:-3 / analyse=0x3:0x133 / me=umh / subme=11 / psy=1 / fade_compensate=0.00 / psy_rd=1.05:0.15 / mixed_ref=1 / me_range=36 / chroma_me=1 / trellis=2 / 8x8dct=1 / cqm=0 / deadzone=6,6 / fast_pskip=0 / chroma_qp_offset=-3 / threads=12 / lookahead_threads=3 / sliced_threads=0 / nr=0 / decimate=0 / interlaced=0 / bluray_compat=0 / constrained_intra=0 / fgo=0 / bframes=10 / b_pyramid=2 / b_adapt=2 / b_bias=0 / direct=3 / weightb=1 / open_gop=0 / weightp=2 / keyint=250 / keyint_min=23 / scenecut=40 / intra_refresh=0 / rc=crf / mbtree=0 / crf=17.0000 / qcomp=0.70 / qpmin=0:0:0 / qpmax=69:69:69 / qpstep=4 / ip_ratio=1.10 / pb_ratio=1.10 / aq=3:0.70 / aq-sensitivity=10.00 / aq-factor=1.00:1.00:1.00 / aq2=0 / aq3=0
    ' Z& a0 I3 W$ z* e) Z
  24. Language                                 : English
    - U8 h2 \2 J; w/ I4 T
  25. Default                                  : Yes- M) [: ~. t7 E; M. ?
  26. Forced                                   : No
    $ L: @1 m& _) w) r% @

  27. 5 O- |( v1 {3 ]) F' d. I0 I
  28. Audio8 d2 A" ~0 X  j+ _# W
  29. ID                                       : 2
    7 g" G; m' e/ M) y0 C" t3 G, o1 r
  30. Format                                   : AC-3
    " x2 z! R0 _  a7 O8 }
  31. Format/Info                              : Audio Coding 3( a( \& t% l: z/ }; }6 ^" F# R
  32. Mode extension                           : CM (complete main)6 x1 {, Q/ t4 a: q% q$ ?
  33. Format settings, Endianness              : Big- w( J9 @( H! F+ f( _+ Y& z
  34. Codec ID                                 : A_AC3
    4 e. ?0 s8 W  E6 X
  35. Duration                                 : 1h 37mn
    + M5 P( \& H- I- Q, d
  36. Bit rate mode                            : Constant" O) K6 _- B: I6 x8 |' b, F
  37. Bit rate                                 : 384 Kbps
    9 J' U1 T! \  e: C+ n
  38. Channel(s)                               : 6 channels0 O+ Q0 A& S: |; W. f
  39. Channel positions                        : Front: L C R, Side: L R, LFE  E% z* b5 i( l: Z/ V
  40. Sampling rate                            : 48.0 KHz* V5 Z: V4 _" s* m/ z
  41. Frame rate                               : 31.250 fps (1536 spf)! i5 U: A: }, E: c2 ~9 {9 @$ e- T
  42. Compression mode                         : Lossy
    : V+ T" ]; D& ^- b. K; q4 `- P% }
  43. Stream size                              : 269 MiB (2%)
    " Q0 X7 L  u7 x0 q) ~) V, |
  44. Language                                 : English8 k7 Q/ G" q, x% D& }
  45. Default                                  : Yes
    0 n& q; m9 N% @1 _# B4 W
  46. Forced                                   : No
    ; k4 [# D1 r! N$ f; |. Q

  47. / j7 @2 N5 {+ m! V
  48. Text #1
    / M+ ]4 a* U( @7 I5 o8 g
  49. ID                                       : 32 t$ \, ^4 N- f3 x+ S
  50. Format                                   : UTF-8
    0 P0 q1 q0 C3 V; s9 [! c" t  t3 t
  51. Codec ID                                 : S_TEXT/UTF8$ c1 s. F0 _. Z& |% k4 b" W
  52. Codec ID/Info                            : UTF-8 Plain Text* x' ]2 Y4 D. J* a8 F& D
  53. Title                                    : English (Forced)  T$ C7 X3 X) l; l3 I) U: y
  54. Language                                 : English( B' D9 P4 D8 E5 j3 Z
  55. Default                                  : Yes
    7 k* ~3 ?) n  m* e" ~, E7 A
  56. Forced                                   : Yes
      l0 _3 l5 C6 V. F3 j; m

  57. ( c4 s8 a, ^# P3 W5 {9 \% ^
  58. Text #2
    . }9 j" S  R) F) t! J. s
  59. ID                                       : 4
    + h- i, V& m, {0 W9 d
  60. Format                                   : UTF-8
    ( k3 C, R4 A( a: l
  61. Codec ID                                 : S_TEXT/UTF8  G4 Q8 P/ J/ t/ t9 T& @
  62. Codec ID/Info                            : UTF-8 Plain Text2 |( i  U: a' L3 j  o/ k! ^; C
  63. Title                                    : English: u5 y8 k9 M; E8 V# z( ]
  64. Language                                 : English
      [* U2 z# ?4 |. B$ H- l$ r  l
  65. Default                                  : No8 V  J6 i2 I; }
  66. Forced                                   : No
      g) R* I) b7 v- U) C( H
  67. 8 u0 v& ^9 x# G' O
  68. Text #33 U- b! F& r+ g6 S( t, M; g
  69. ID                                       : 5- t4 k& L7 c! m
  70. Format                                   : UTF-8- H: O9 @$ F$ R3 v/ H1 C, w
  71. Codec ID                                 : S_TEXT/UTF8
    : S" X/ a# P% O8 z% \# Y
  72. Codec ID/Info                            : UTF-8 Plain Text3 B7 D' ^- }$ E. a  J4 p: K
  73. Title                                    : English (SDH)
    6 h6 }' q+ q  [) f  W
  74. Language                                 : English  j/ B* y4 z/ `0 X" b% Q
  75. Default                                  : No4 H0 x1 h$ w$ x6 @' f: r
  76. Forced                                   : No
    # K6 Y* L( D& {; e  r" D

  77. - z1 h# H& c/ W% s  a$ [  ~7 M( k* U
  78. Text #4
    + O3 l/ N6 a  A- y, z& u
  79. ID                                       : 6
    - a4 c5 b# B% Q% U4 H
  80. Format                                   : UTF-88 K* }# z' h% i/ S9 n; S! x
  81. Codec ID                                 : S_TEXT/UTF8+ L3 P* T' A3 a5 Z# T8 p
  82. Codec ID/Info                            : UTF-8 Plain Text. n3 H. P3 m, t! Z+ ~1 D( v2 {
  83. Title                                    : French4 g% P7 n3 \1 |. f
  84. Language                                 : French6 k8 T. x$ g7 R7 w( C# M
  85. Default                                  : No
    + S9 j4 E" w9 o' n
  86. Forced                                   : No- E6 @# y' H6 C' W2 b; ?; m

  87. . Q* d9 J2 Q" j" N1 |6 x
  88. Text #5* T. S' r, x2 n! i4 x5 |
  89. ID                                       : 7
    / D- @) q0 ?1 T! \' H
  90. Format                                   : UTF-89 d, z1 z, f0 ?
  91. Codec ID                                 : S_TEXT/UTF8
    % k% |( z3 l( s, d% r  f/ w
  92. Codec ID/Info                            : UTF-8 Plain Text) g; @+ `0 G# s  e" G2 D0 U5 W' J
  93. Title                                    : German
    5 k" z) o) a; E' W* U
  94. Language                                 : German
    , _# R+ k' K; g5 U9 Y* I
  95. Default                                  : No$ l$ v- X; _! p, ?
  96. Forced                                   : No- k: M2 d& z- I- x
  97. , z( n, e# Y% _. p( Q  M
  98. Text #6
    6 ]4 N4 y# q0 [4 K7 L* Z
  99. ID                                       : 8- ]2 U  p, A* s& h& L  g; u) Y
  100. Format                                   : UTF-8
    ( }1 R- p4 D- [7 u: O! R1 a( U9 Q
  101. Codec ID                                 : S_TEXT/UTF8: _$ i1 Y2 R" i- t
  102. Codec ID/Info                            : UTF-8 Plain Text
    * t" l* L' O+ ?5 y0 A
  103. Title                                    : Italian
    3 ]2 W( O2 G4 ?# l* J
  104. Language                                 : Italian0 @) Z8 W) d% z- S$ E, k  p
  105. Default                                  : No4 ~' N8 C4 X3 Z  x& {  w3 I, N
  106. Forced                                   : No
复制代码
3 o# i3 N3 b, r) I# J' t2 P

: m7 j5 V7 P/ P3 H& E9 j" u: u. p  L
1 O0 d* W. t; a. M
                               
登录/注册后可看大图
/ B' h1 o* y' y/ y

$ u" B& X* S( p1 ]: D, u0 z
, J9 p1 B# W5 a" O# F
游客,如果您要查看本帖隐藏内容请回复  捐助论坛可免回复查看隐藏内容 详情请点击
最近访问 头像模式 列表模式
HD一条街,身边的一条街。
发表于 2016-10-13 15:08:45 | 显示全部楼层
谢谢楼主分享
HD一条街,身边的一条街。
发表于 2016-10-17 09:16:33 | 显示全部楼层
聚焦網絡暴力等現實問題的紀錄片,感謝分享~~
HD一条街,身边的一条街。
发表于 2016-10-31 08:11:14 | 显示全部楼层
如果有中文就知道再说什么
HD一条街,身边的一条街。
您需要登录后才可以回帖 登录 | 加入我们

本版积分规则

手机版|小黑屋|有问题发邮件到admin#(换成@)hd1tj.org|微博|免责申明|HD一条街

GMT+8, 2017-1-17 12:53

Powered by Discuz! X3.1

© 2001-2013 Comsenz Inc.

快速回复 返回顶部 返回列表