开启辅助访问 切换到窄版

HD一条街论坛

 找回密码
 立即注册
查看: 47|回复: 3

[欧美] 纪录片:奥德里与戴茜 Audrie.and.Daisy.2016.1080p.WEBRip.X264-DEFLATE 10.56G

[复制链接]
发表于 2016-10-13 11:46:36 | 显示全部楼层 |阅读模式
p2376071610.jpg
! U$ I- n. n4 O3 ~7 ~0 y4 O. |1 B* {; q7 c! ], D
$ |3 l( B/ G$ D& F4 {& J6 H
◎译  名 奥德里与戴茜
! Q5 r$ j/ k) ]% A1 F1 }◎片  名 Audrie & Daisy+ G, v! e: I  I8 ]. u
◎年  代 20168 R0 d9 |9 v6 r8 U5 l
◎国  家 美国
( O$ k3 Y# R, }- u◎类  别 纪录片
2 v! f. K/ N4 E$ k. K6 P' A◎语  言 英语( q0 n' K) v! P
◎字  幕   英文6 z6 \7 p+ [/ X# r3 j
◎整  理   HD一条街 www.hd1tj.org
+ n3 @4 r( c4 S9 ^# J4 }4 \◎上映日期 2016-01-25(圣丹斯电影节)
4 `3 y, P; C- R6 z◎IMDb评分  7.4/10 from 952 users
# n  a5 c% u7 h◎IMDb链接  http://www.imdb.com/title/tt5278460/
' c4 V9 I& B) M: R; ?; S3 q) C0 W◎豆瓣评分 8.7/10 from 10 users
9 p! z: P# e& w! K& G, n◎豆瓣链接 https://movie.douban.com/subject/26679086/; X+ @( ^8 y6 O7 v! i# \
◎片  长 95分钟
/ ]) {4 Q+ ^& p' O! y; q& u- b- x◎导  演 Bonni Cohen / Jon Shenk
4 p/ W  \* o& b: y◎主  演 Daisy Coleman
- y- k) A% M) G4 ^& N0 @      Jim Fall
$ W2 _9 j* `& }" v; ^0 Z9 L+ U9 S      Delaney Henderson
( N* b5 D# n% \: a      Darren White( a0 U% F/ P0 H, O! H4 v

$ R4 L" n( ?$ p0 a. u( l0 X◎简  介
* Y2 m6 W3 s. z/ S- @, `4 }$ |
  After two high school girls in different towns are sexually assaulted by boys they consider friends, online bullying leads each girl to attempt suicide. Tragically, one dies. Assault in the social media age is explored from the perspectives of the girls and boys involved, as well as their torn-apart communities.+ Z8 ^9 m) {  j
  Sundance - World Premiere
( S, L5 Z9 h, Z- p& v3 G1 U: q0 j- ]* h) c2 r5 n& M
◎获奖情况& p$ K5 Q6 l( S$ E
3 }% R* H6 d+ e- ~
  第32届圣丹斯电影节  (2016)! D& O8 F) e7 P$ p1 j. `5 I
  评审团大奖 纪录片(提名)
  1. Video
    ( M) q/ l6 }: [# K4 Q& V
  2. ID                                       : 1
    1 Y, y4 k' A& L- v; [' H
  3. Format                                   : AVC
    ( n/ R8 A3 G0 u* U. d) _
  4. Format/Info                              : Advanced Video Codec2 r8 r3 h$ d: \' P0 l, K3 C
  5. Format profile                           : [email protected]) C! ~, `& |+ X6 d% t0 Z( f: ^
  6. Format settings, CABAC                   : Yes
    # z1 j/ g1 @! w9 V# r
  7. Format settings, ReFrames                : 4 frames
      v, w- o* q3 p* S' b0 u' a
  8. Codec ID                                 : V_MPEG4/ISO/AVC
    : U' r# |$ J+ O5 U
  9. Duration                                 : 1h 37mn7 I) V- K1 [# ?+ a: Z
  10. Bit rate                                 : 14.8 Mbps% r! E9 l4 b" H( Q5 [6 Q: n
  11. Width                                    : 1 920 pixels' c  S: Y$ {" f: N3 f
  12. Height                                   : 1 080 pixels
    4 q1 a- [$ q- U! _
  13. Display aspect ratio                     : 16:99 \1 |6 w7 L& D3 D" b' L
  14. Frame rate mode                          : Constant4 j* p) w+ r* B$ Q& C6 Z+ d) {' p& n8 G
  15. Frame rate                               : 23.976 (24000/1001) fps
    / {  e1 Q; O, x/ F$ L
  16. Color space                              : YUV- c) }7 Z  D+ k0 H$ k
  17. Chroma subsampling                       : 4:2:0! P6 v7 Y# H+ q& C% r: I* Z
  18. Bit depth                                : 8 bits" ]! s( I7 B$ \' P* P; h( t! F
  19. Scan type                                : Progressive0 [0 Q/ R! \0 J( `3 p& R
  20. Bits/(Pixel*Frame)                       : 0.297' h& {2 G6 t. W/ E1 m" S' G7 V
  21. Stream size                              : 10.1 GiB (96%)! Y3 P5 d9 c( z# i' o
  22. Writing library                          : x264 core 148 r2721+7 72d53ab / tmod 162ad1b X86_64
    4 R5 v3 ~  C% e
  23. Encoding settings                        : cabac=1 / ref=4 / deblock=1:-3:-3 / analyse=0x3:0x133 / me=umh / subme=11 / psy=1 / fade_compensate=0.00 / psy_rd=1.05:0.15 / mixed_ref=1 / me_range=36 / chroma_me=1 / trellis=2 / 8x8dct=1 / cqm=0 / deadzone=6,6 / fast_pskip=0 / chroma_qp_offset=-3 / threads=12 / lookahead_threads=3 / sliced_threads=0 / nr=0 / decimate=0 / interlaced=0 / bluray_compat=0 / constrained_intra=0 / fgo=0 / bframes=10 / b_pyramid=2 / b_adapt=2 / b_bias=0 / direct=3 / weightb=1 / open_gop=0 / weightp=2 / keyint=250 / keyint_min=23 / scenecut=40 / intra_refresh=0 / rc=crf / mbtree=0 / crf=17.0000 / qcomp=0.70 / qpmin=0:0:0 / qpmax=69:69:69 / qpstep=4 / ip_ratio=1.10 / pb_ratio=1.10 / aq=3:0.70 / aq-sensitivity=10.00 / aq-factor=1.00:1.00:1.00 / aq2=0 / aq3=0! O3 P& ~! n/ D: ^8 V
  24. Language                                 : English% C3 U' ?& R" e" D, d4 o
  25. Default                                  : Yes
    3 p& a0 O: E$ r) y, D8 m6 ~+ |
  26. Forced                                   : No/ {: J& m8 Q4 ^, V1 e

  27. 7 R% C( H9 t  Y+ f- N/ |. r6 v$ S
  28. Audio
    1 [6 U- c" ~, _9 Z
  29. ID                                       : 2& y1 z  t3 O$ b0 c$ \4 z. N& a3 L& h
  30. Format                                   : AC-3/ z! [. n, o2 t; o# ^, R4 N" x. g
  31. Format/Info                              : Audio Coding 3
    , J- \' {0 T! ?, m
  32. Mode extension                           : CM (complete main)! B2 Z) e6 W2 i. U+ M
  33. Format settings, Endianness              : Big
    ! M9 Q, b, z' G" M% _% D5 Z
  34. Codec ID                                 : A_AC3
    : N$ V1 M4 c; p) m1 R0 |" G4 K7 N
  35. Duration                                 : 1h 37mn
    + j2 `1 @9 y4 J" |. ^$ s1 m- R% s! z
  36. Bit rate mode                            : Constant
      V  R( b1 L% W' f4 N5 v
  37. Bit rate                                 : 384 Kbps
    - _% v6 G$ a1 w1 ~  o5 v( [) V
  38. Channel(s)                               : 6 channels% F/ L. V4 e* F1 E: H& R# V
  39. Channel positions                        : Front: L C R, Side: L R, LFE- ?& `- ~8 h- q4 a  ]
  40. Sampling rate                            : 48.0 KHz
    0 z/ t9 C  z( H# H
  41. Frame rate                               : 31.250 fps (1536 spf)  E- A. O' _1 U% `
  42. Compression mode                         : Lossy2 Y! a9 [) H/ Q% O1 O
  43. Stream size                              : 269 MiB (2%)
    6 `+ |# J$ C  H/ ~2 s
  44. Language                                 : English
    & E: x. _8 I% H9 S
  45. Default                                  : Yes
    7 q6 I" X' k  B
  46. Forced                                   : No3 Z1 v! }' m2 g0 ~5 X! ^
  47. ) m! ]& s% c2 [- {/ m( |' m  r: V
  48. Text #1: l8 F( K3 Q& n8 s# f- b! o" ]8 t* ~
  49. ID                                       : 3
    3 N( i7 X- \% J0 m( d+ U
  50. Format                                   : UTF-8! r5 e( ?3 t5 F3 R
  51. Codec ID                                 : S_TEXT/UTF8, n! n( ]4 |: ~5 @9 |- C
  52. Codec ID/Info                            : UTF-8 Plain Text9 @- M9 X7 G8 P
  53. Title                                    : English (Forced)
    - E  e0 s6 l1 M+ C  C
  54. Language                                 : English
    ! i, U/ O# u( P
  55. Default                                  : Yes/ r9 `6 R" n1 v2 Q
  56. Forced                                   : Yes
      p# \& i2 A8 y; p: k: r' B

  57. : R; s) X( w) t2 t( s0 N5 G
  58. Text #2
      \6 o- G! l9 ~( |
  59. ID                                       : 4
    7 U- Y1 t" t8 D6 Z2 F2 ~5 R
  60. Format                                   : UTF-8
    % }/ P3 p2 z* W$ n
  61. Codec ID                                 : S_TEXT/UTF8. _8 S/ T3 v3 }4 D/ g) f
  62. Codec ID/Info                            : UTF-8 Plain Text
      P9 ]  \$ D  U* i
  63. Title                                    : English
    1 ~; W! _* N9 K6 f
  64. Language                                 : English2 j  V( z7 o  X9 ?
  65. Default                                  : No) N) [7 k) i6 c/ ~" _
  66. Forced                                   : No) B$ g2 z6 m7 O5 F  _9 m
  67. & U" L9 X/ J3 U0 d
  68. Text #3
    1 v* C# D+ A: j, n( b) G; M
  69. ID                                       : 5
    0 _0 c0 v2 K* Y6 [
  70. Format                                   : UTF-8  O8 V2 x8 k9 J4 R' Z& b
  71. Codec ID                                 : S_TEXT/UTF8
    % q2 {$ k9 M7 o4 A3 N% N
  72. Codec ID/Info                            : UTF-8 Plain Text) A. h: f: r3 a
  73. Title                                    : English (SDH)
    8 h; d. {3 |# x- o0 Z4 v
  74. Language                                 : English
    , |3 f+ f, Y4 t: F/ U
  75. Default                                  : No
    * k: K8 ~+ T9 Q7 d! B) Z+ m% l# Q
  76. Forced                                   : No
    1 i: g; g  ^$ O/ [* O' ^

  77. 4 ]4 |5 c7 N6 c! u- h% ]7 b) ^
  78. Text #4
    9 B, I0 T% A; g: A9 w! ?/ a
  79. ID                                       : 60 E# n0 K, h& M1 a
  80. Format                                   : UTF-8
    . k. d5 @! i' K* }) X' j, g$ S# P3 o
  81. Codec ID                                 : S_TEXT/UTF8
    ! W% o; u: z# _0 p) o
  82. Codec ID/Info                            : UTF-8 Plain Text! _% ~' q9 S' O9 u" {9 V& t7 D0 H
  83. Title                                    : French9 Y5 C/ p# \6 l8 F9 T
  84. Language                                 : French( m2 N" v/ F# M% T2 Z/ w
  85. Default                                  : No
    , C# T5 v4 _8 V; U( H% @: l) B" A
  86. Forced                                   : No
    ' I( w0 U$ L7 }
  87. 3 D( z8 k* D# H' N  h
  88. Text #5
    5 G& R) H- k; r
  89. ID                                       : 7$ o4 b; }) w( |, ~. r" ?; {
  90. Format                                   : UTF-8
    - I5 T3 R0 K; g, G6 j2 ^# ^/ }' x' f
  91. Codec ID                                 : S_TEXT/UTF83 \: h1 L7 ?* S5 \" t
  92. Codec ID/Info                            : UTF-8 Plain Text& X' X1 K! s: r; I+ g5 D" U/ u8 Q. c! U
  93. Title                                    : German
    . F/ z# R# C* \
  94. Language                                 : German
    8 w+ V: Y) `6 `/ v* i4 A
  95. Default                                  : No, X. u% `6 J( _5 t- `
  96. Forced                                   : No
    / D6 x) {' K* Y& Z' {
  97. & x: J8 _3 b4 s) e) N
  98. Text #6& V% h( Y. v0 b0 U
  99. ID                                       : 8
    " y: T: u7 C5 M2 Y! K; I$ f$ R
  100. Format                                   : UTF-86 W" {5 k( T/ e* O1 Y. Y& B
  101. Codec ID                                 : S_TEXT/UTF8' j7 V# T; c$ {8 E) E$ y
  102. Codec ID/Info                            : UTF-8 Plain Text
    $ K" V6 g4 r! t& k% Y6 E
  103. Title                                    : Italian5 O& y3 n0 w6 K/ f6 ]* ]# K* w
  104. Language                                 : Italian0 ?2 L( w( B$ {' n6 n0 B: f
  105. Default                                  : No% D2 ~+ ^" e3 [- {+ q
  106. Forced                                   : No
复制代码
/ `3 z" p7 B9 _

0 K+ u+ B" q; U4 G

; a7 o) l8 }7 H( C                               
登录/注册后可看大图
# n) p( C0 k( `
) M" Z" i2 F3 `
* ?9 F. j- ]* d1 |0 H& K2 M1 j- f) {
游客,如果您要查看本帖隐藏内容请回复  捐助论坛可免回复查看隐藏内容详情请点击
HD一条街,身边的一条街。
发表于 2016-10-13 15:08:45 | 显示全部楼层
谢谢楼主分享
HD一条街,身边的一条街。
发表于 2016-10-17 09:16:33 | 显示全部楼层
聚焦網絡暴力等現實問題的紀錄片,感謝分享~~
HD一条街,身边的一条街。
发表于 2016-10-31 08:11:14 | 显示全部楼层
如果有中文就知道再说什么
HD一条街,身边的一条街。
您需要登录后才可以回帖 登录 | 立即注册

本版积分规则

手机版|小黑屋|有问题发邮件到admin#(换成@)hd1tj.org|微博|免责申明|HD一条街

GMT+8, 2016-12-5 00:19

Powered by Discuz! X3.1

© 2001-2013 Comsenz Inc.

快速回复 返回顶部 返回列表