开启辅助访问 切换到窄版

HD一条街论坛

 找回密码
 加入我们
查看: 88|回复: 3

[欧美] 纪录片:奥德里与戴茜 Audrie.and.Daisy.2016.1080p.WEBRip.X264-DEFLATE 10.56G

[复制链接]
发表于 2016-10-13 11:46:36 | 显示全部楼层 |阅读模式
p2376071610.jpg 0 n9 l" U- j0 h: f
- n# q  g- i3 {' ]( e
0 K+ G6 W" Z* M% ]3 i
◎译  名 奥德里与戴茜
- L  A1 A0 ^) u7 t◎片  名 Audrie & Daisy
2 A! s  i  c0 G3 F) ^4 o( s  C◎年  代 2016
% `/ M" r. C" \5 S- k5 m, d8 u◎国  家 美国/ l# w! s3 C  c1 `& h: @* I* I
◎类  别 纪录片' N4 M. U& Q9 B: ~& u3 u( Q0 D8 G
◎语  言 英语
3 q  o! ^( Z7 n9 S2 m◎字  幕   英文" }" m  l- Y, c
◎整  理   HD一条街 www.hd1tj.org
* @- {" A. l$ f2 j3 T, s; {◎上映日期 2016-01-25(圣丹斯电影节)
3 v9 o  [3 [5 ^' w, m◎IMDb评分  7.4/10 from 952 users. j- z0 r1 ^% \# A/ j/ G, A- T
◎IMDb链接  http://www.imdb.com/title/tt5278460/
: R: I1 K/ D+ c  D6 @4 o& U◎豆瓣评分 8.7/10 from 10 users5 d& {1 P* ^: I+ S+ _$ z& [" _' O
◎豆瓣链接 https://movie.douban.com/subject/26679086/( l1 C. z2 M( X- M
◎片  长 95分钟' F2 p# E3 {: [+ r
◎导  演 Bonni Cohen / Jon Shenk4 l9 @2 b/ H" j; ?
◎主  演 Daisy Coleman
" |7 p% c, E! A' H9 }8 z2 S9 ]      Jim Fall& a* X/ r' a; B" G) g8 V; E0 Q- I  D
      Delaney Henderson3 D) o9 k( w# x/ ]
      Darren White
, P* e: `$ T* N3 D
2 f/ E( P9 P, Y$ _9 _2 }◎简  介* @$ a& x" U! ]2 h0 \9 o

9 M! i+ R7 a; o5 ^  After two high school girls in different towns are sexually assaulted by boys they consider friends, online bullying leads each girl to attempt suicide. Tragically, one dies. Assault in the social media age is explored from the perspectives of the girls and boys involved, as well as their torn-apart communities.
; m+ p$ h5 o5 U  m$ R/ o1 ~' ~  Sundance - World Premiere* j. y. m7 {" i/ P/ E/ `% D' k
/ E" q8 m: \0 v  A/ L  l: ]4 L
◎获奖情况
& z7 D' @, h2 x
% S4 }1 _1 g+ M, d" s" L5 R  第32届圣丹斯电影节  (2016)6 g1 U4 L% W. R8 j" `$ F. i3 h
  评审团大奖 纪录片(提名)
  1. Video( D9 [+ z( M! C( G- L+ r  `
  2. ID                                       : 1* C, J* h7 u. U/ H/ m9 K
  3. Format                                   : AVC
    8 E* E# Q  ~- k: F/ ?
  4. Format/Info                              : Advanced Video Codec
    6 f$ s  i. p0 ]+ a& A: ?& k
  5. Format profile                           : [email protected]
    % [, F2 Q3 q4 }6 l5 c8 c
  6. Format settings, CABAC                   : Yes5 B; d# E/ H0 W6 c, J* F
  7. Format settings, ReFrames                : 4 frames" k7 ]8 H4 a3 y2 g3 `6 c3 B
  8. Codec ID                                 : V_MPEG4/ISO/AVC4 D& X' G; `( f& }) {: F
  9. Duration                                 : 1h 37mn/ B" k% a4 L4 x8 y; A8 x3 k
  10. Bit rate                                 : 14.8 Mbps
    2 z% {0 @; \, Q, T4 G8 |+ O. ]$ B. q
  11. Width                                    : 1 920 pixels
    % G: y, ?  |6 Z  N! e3 W" ?
  12. Height                                   : 1 080 pixels
    2 A* M$ ~# X- `" W
  13. Display aspect ratio                     : 16:9% n+ }6 C( C: g4 f2 i# n8 o
  14. Frame rate mode                          : Constant
    9 o8 v% l1 S5 M8 A( @9 g
  15. Frame rate                               : 23.976 (24000/1001) fps
    + ^! p* y/ x- f' p
  16. Color space                              : YUV6 f& n' r. B" g" C
  17. Chroma subsampling                       : 4:2:0! \" m6 m3 _7 j' V
  18. Bit depth                                : 8 bits, M" _+ o9 [/ V; b5 C, R7 c
  19. Scan type                                : Progressive
    2 N. j! @1 ?% h( t0 N3 P1 g
  20. Bits/(Pixel*Frame)                       : 0.297
    6 R3 I+ d; C. T6 |1 l0 c
  21. Stream size                              : 10.1 GiB (96%)
    * `, W+ V% N- t% E& I
  22. Writing library                          : x264 core 148 r2721+7 72d53ab / tmod 162ad1b X86_643 b3 s: e; i3 Y$ f
  23. Encoding settings                        : cabac=1 / ref=4 / deblock=1:-3:-3 / analyse=0x3:0x133 / me=umh / subme=11 / psy=1 / fade_compensate=0.00 / psy_rd=1.05:0.15 / mixed_ref=1 / me_range=36 / chroma_me=1 / trellis=2 / 8x8dct=1 / cqm=0 / deadzone=6,6 / fast_pskip=0 / chroma_qp_offset=-3 / threads=12 / lookahead_threads=3 / sliced_threads=0 / nr=0 / decimate=0 / interlaced=0 / bluray_compat=0 / constrained_intra=0 / fgo=0 / bframes=10 / b_pyramid=2 / b_adapt=2 / b_bias=0 / direct=3 / weightb=1 / open_gop=0 / weightp=2 / keyint=250 / keyint_min=23 / scenecut=40 / intra_refresh=0 / rc=crf / mbtree=0 / crf=17.0000 / qcomp=0.70 / qpmin=0:0:0 / qpmax=69:69:69 / qpstep=4 / ip_ratio=1.10 / pb_ratio=1.10 / aq=3:0.70 / aq-sensitivity=10.00 / aq-factor=1.00:1.00:1.00 / aq2=0 / aq3=0
    3 g1 F4 T+ y- G; A" K: `
  24. Language                                 : English& d9 D! {- s; y
  25. Default                                  : Yes; e! }' I0 I6 a( {6 c0 v, v; q3 ~
  26. Forced                                   : No7 ~! V' n5 c6 t2 L4 G( J) R

  27. ' N# W$ y$ O) X; I4 A  R
  28. Audio
    $ R; {* [- H9 N5 |. d
  29. ID                                       : 20 s# W  M* x1 e. o
  30. Format                                   : AC-3; ]/ w* J/ L2 P6 E7 ~+ I9 }
  31. Format/Info                              : Audio Coding 35 D$ l0 o9 t" s5 N
  32. Mode extension                           : CM (complete main). |4 _. w2 y9 W$ D3 z9 I4 ?- {1 Z& C
  33. Format settings, Endianness              : Big
    # O* y- K2 G$ \) p' r* z
  34. Codec ID                                 : A_AC3
    2 u- q0 l4 i6 W! c
  35. Duration                                 : 1h 37mn
    & X4 X+ }$ b0 m1 P
  36. Bit rate mode                            : Constant
    # u" P6 H% `1 W( Z" m! P' E
  37. Bit rate                                 : 384 Kbps9 u% H: \3 s1 F
  38. Channel(s)                               : 6 channels
      _, f" Q8 A$ u8 T) ]: ~8 S3 W2 K
  39. Channel positions                        : Front: L C R, Side: L R, LFE
    6 }0 N: |  [# @! `- |6 `
  40. Sampling rate                            : 48.0 KHz
    & r" q& U4 _- o, a1 @9 p
  41. Frame rate                               : 31.250 fps (1536 spf)! ]0 N( }* S: a7 N3 p
  42. Compression mode                         : Lossy8 ]% x' [1 ^, ^& E4 G
  43. Stream size                              : 269 MiB (2%)
    ! K% D0 v7 u5 G- k4 t& K! C
  44. Language                                 : English  Z) H. c# @7 E9 O( c- t
  45. Default                                  : Yes( H* Y7 J- s- T! r9 Z
  46. Forced                                   : No
    8 V2 H) K, Q5 \
  47. . h" v# @8 D: S: [& g/ p& P
  48. Text #1* D! o( \/ i* e9 F- G: s/ K; w
  49. ID                                       : 3
    ( F5 s) M! H* N% q  H% J& x. m
  50. Format                                   : UTF-8
    + ~$ _" n, h+ t
  51. Codec ID                                 : S_TEXT/UTF8) N& J- n) j  a% L( h) T& _
  52. Codec ID/Info                            : UTF-8 Plain Text0 a3 @0 S. f- U7 J4 `. m
  53. Title                                    : English (Forced)! {* V- p& X2 |" t0 P9 u, n# f  @+ ?* G
  54. Language                                 : English
    - w* B* m2 `, i
  55. Default                                  : Yes
    5 k" ?6 q! }/ v) z7 D
  56. Forced                                   : Yes. f+ r' a$ k+ r5 K! M
  57. % p3 @5 s2 e& i
  58. Text #2
    ) u  `6 ?3 ~: P: O( v/ {) B$ k
  59. ID                                       : 4( F& G/ O9 P; i5 z5 {! @9 H# q
  60. Format                                   : UTF-8
    6 Y. u; H5 d/ S( C; i* t
  61. Codec ID                                 : S_TEXT/UTF8
    3 \* y+ r! |; L3 f
  62. Codec ID/Info                            : UTF-8 Plain Text
    . Y: g. H- G5 H9 \5 Y' g' X
  63. Title                                    : English
    6 p2 Z7 r( w" e/ x' V+ C( C
  64. Language                                 : English/ F7 c5 w$ h" E# W; z6 S
  65. Default                                  : No
    : }% D' i: ^, K0 D. ^7 k
  66. Forced                                   : No
    9 D4 m) n) e( ~5 R! O
  67. * d* p# x8 e/ ?- F& @3 g
  68. Text #3
    ; Y  r" T# B$ T0 n. Y5 m7 g, j' X
  69. ID                                       : 5
    " H; k4 t5 U( ~- [* n2 D
  70. Format                                   : UTF-86 `% f7 ~: E! Z8 m( A3 q# A
  71. Codec ID                                 : S_TEXT/UTF86 ]$ q% y, t& G. q4 }4 _, l  ^
  72. Codec ID/Info                            : UTF-8 Plain Text
    ' }" ^2 _/ |7 V& o
  73. Title                                    : English (SDH)
    + n& J/ u& B3 a+ e: C1 k4 O4 W
  74. Language                                 : English# F, M! V/ i8 ~- d3 F& E2 r& A" _
  75. Default                                  : No
    6 o9 F% A6 p. T7 d5 Q5 T% x
  76. Forced                                   : No5 k1 }9 R& t7 V6 I( C  T. ~
  77. & G3 _0 ~! F% O% a
  78. Text #4
    7 ?+ N6 _' P- m  g2 l
  79. ID                                       : 6
    6 [3 a" I* {2 [3 _% B/ m/ A- C) j- v
  80. Format                                   : UTF-8
    ) O2 P% Q0 b8 G; o/ }9 o( }  V" J
  81. Codec ID                                 : S_TEXT/UTF89 Q+ G, R% @* D# ^
  82. Codec ID/Info                            : UTF-8 Plain Text- r7 {# C8 @4 W- J: e
  83. Title                                    : French% \% s2 q5 Q9 H
  84. Language                                 : French
    + n( p1 I2 A9 u; \8 D. D2 a
  85. Default                                  : No: T5 C4 N8 V1 I* d( A
  86. Forced                                   : No
    5 F0 M( X  _4 b9 T- v! Y
  87. 8 s3 `$ x8 }! \# d% y
  88. Text #5
    & M( t- Y! ?1 J
  89. ID                                       : 7+ ~3 x9 f" P2 t7 E, ~
  90. Format                                   : UTF-8- N1 W' I6 X0 ^
  91. Codec ID                                 : S_TEXT/UTF8
    7 s* y+ A& N3 W, N$ S9 ^/ l" d+ J; [
  92. Codec ID/Info                            : UTF-8 Plain Text) \) j  ~: X2 @
  93. Title                                    : German# c4 I# B1 Q9 l; h' r2 C
  94. Language                                 : German
    $ ~" P8 Z" l5 f9 x
  95. Default                                  : No- \: b9 |3 e+ I$ p; r1 K4 W: m
  96. Forced                                   : No
    7 M6 @! c- U0 i; n

  97. 7 f  l2 y* c6 ?  i$ ~# {7 L
  98. Text #6
    1 P( b% o: r" `. |5 r7 w
  99. ID                                       : 8
    * D4 p7 R' f+ M  H# }
  100. Format                                   : UTF-8
    8 U$ _" h- O0 S
  101. Codec ID                                 : S_TEXT/UTF8' v. o/ Y  M  ^" U, c
  102. Codec ID/Info                            : UTF-8 Plain Text, {5 m1 K( Y' P5 h& _% L
  103. Title                                    : Italian) K# e% \" {; G& T
  104. Language                                 : Italian
    % n" ^1 f8 p; h3 B+ T3 K
  105. Default                                  : No
    8 ~2 d9 O6 P) A* u3 }" s. j9 g" Z
  106. Forced                                   : No
复制代码

5 X! B3 I6 {$ A: p, f8 g* l* \4 c2 ?* G4 I" h% c- a/ W# J
2 v5 W. a* j( q/ \
                               
登录/注册后可看大图
: f/ @( q9 k& Z6 E. M
) c& t. p: E0 @1 c$ N
% W, V/ g  P% {, M1 ?4 |9 X
游客,如果您要查看本帖隐藏内容请回复  捐助论坛可免回复查看隐藏内容 详情请点击
最近访问 头像模式 列表模式
HD一条街,身边的一条街。
发表于 2016-10-13 15:08:45 | 显示全部楼层
谢谢楼主分享
HD一条街,身边的一条街。
发表于 2016-10-17 09:16:33 | 显示全部楼层
聚焦網絡暴力等現實問題的紀錄片,感謝分享~~
HD一条街,身边的一条街。
发表于 2016-10-31 08:11:14 | 显示全部楼层
如果有中文就知道再说什么
HD一条街,身边的一条街。

手机版|小黑屋|有问题发邮件到admin#(换成@)hd1tj.org|微博|免责申明|HD一条街

GMT+8, 2017-3-27 00:58

Powered by Discuz! X3.1

© 2001-2013 Comsenz Inc.

快速回复 返回顶部 返回列表