开启辅助访问 切换到窄版

HD一条街论坛

 找回密码
 加入我们
查看: 69|回复: 3

[欧美] 纪录片:McAfee创始人John McAfee的彪悍而作死的人生 Gringo.The.Dangerous.Life.of.John.McAfee.2016.720p.WEBRip.DD5.1.x264-NTb 2.03G

[复制链接]
发表于 2016-10-10 14:45:27 | 显示全部楼层 |阅读模式
71687b04d14b3cc91bdf8d35d92d7e887fa9a3f3.jpg  
$ f) N' [) P+ J
     他的人生比任何电影都精彩100倍。
  他贩毒、嗑药、酗酒、乱性、入狱,有“美国的韦小宝”之称。他拥有数学博士学位,创办了全球著名杀毒软件McAfee,如今70岁的他要竞选美国总统。
  在谷歌中搜索“网络安全传奇”,25万条搜索结果中,前10条的名字一定是迈克菲。
  所有人都认为,他成功的标签就是:作死。但是我认为,迈克菲最强悍之处是花式上头条。
  先了解一下他的奇葩经历,文章最后的干货部分,我会分析迈克菲的最强悍自媒体修炼,值得所有创始人借鉴。
  史上最彪悍创始人的作死人生
  迈克菲的人生可以用波澜壮阔来形容,但是38岁之前迈克菲就是一个大写的loser!
  即使在非常灰暗的那段日子里,迈克菲也极力吸引别人的关注,不管这种关注是好还是坏。天生具备上头条的天赋,不得不服!
  15岁的时候,经常对迈克菲实施家暴的酒鬼父亲饮弹自尽。父亲的死给他带来了极大的心理阴影。
" w( k" t1 H# Z: v' U$ G. |
                               
登录/注册后可看大图
* h9 S  z- ^) l8 N, A1 W
  上大学第一年,迈克菲就走上了父亲的老路,他开始酗酒,常常喝的酩酊大醉。但迈克菲非常独立,读大学时靠推销杂志赚取学费生活费,虽然学习很渣,还是糊里糊涂地毕业了。
  在东北路易斯安那州立大学攻读博士学位期间,迈克菲因为和一位低年级艺术系女生上了床,被学校开除了。离开学校后迈克菲找了一份编码的工作,没干多久,就因为贩卖大麻被带走,随后迈克菲被公司开除。之后,迈克菲编造了一份虚假简历,混进了密苏里太平铁路公司,因为每天磕了药之后去上班,迈克菲被公司开除了。1983年迈克菲进入Omex公司,几乎每天上午都要吸很多可卡因,每天都要喝光一瓶苏格兰威士忌。
    当时,迈克菲离崩溃只差一步,他一直在想自己会不会像父亲那样自杀。最后他找到了一位治疗师,那位治疗师建议他加入匿名戒毒会。就这样迈克菲挺过了那段最艰难的日子。
  70年代,迈克菲大量的时间花在了路上,他的生活里除了代码就是毒品。在墨西哥呆了一年,住在汽车里,向游客兜售金银、钻石,后来,Outside 杂志将他称为“吉普赛皇帝”。
  1986,巴基斯坦的哥俩编写出世界上首个针对个人电脑的病毒“大脑(Brain)”病毒。迈克菲偶然在《圣何塞墨丘利新闻报》上看到了一篇关于Brain病毒传遍美国的报道。
    迈克菲似乎闻到了金钱的味道。于是迈克菲迅速行动,很快便创办了用自己名字命名的杀毒软件公司。

* T5 W6 Z/ s$ o+ H) f( }5 J( L7 C                               
登录/注册后可看大图

1 S7 p; \1 z# y9 Y- z- h3 P
  迈克菲一下子火了,各种采访报道、各种上电视。于是他借机大肆宣扬电脑病毒的危害,1988年底,在电视节目《新闻时间》上,迈克菲告诉全国观众,电脑病毒造成的损失非常之大,很多公司已经“由于经济损失而濒临倒闭”。
# X9 ~( [) q3 X* u' r! Y
                               
登录/注册后可看大图
# u; H# {: W2 \) [! v7 x* g
  他还煞有介事地写了一本名叫《电脑病毒、蠕虫、数据诈骗、程序杀手和其他威胁》的书推波助澜。
  经过这一番“煽动”,迈克菲的软件在两个月的时间中涨了十倍,而公司的利润在六个月后涨了50倍,迈克菲分到了杀毒软件市场中最大的一杯羹。
  在1980年代末,迈克菲每年收入超过500万美元。1992年在纳斯达克上市,而他所持的股份价值则突然飙升到8000万美元。后来,他的这种奇葩的手段竟然被斯坦福大学当成经典案例编入教材。他的母校甚至为当初的“毒贩子”授予了名誉博士学位。

8 U0 _$ t# y' [. |                               
登录/注册后可看大图
( e# @1 w0 |1 q, a
  就在他功成名就打算退休的时候,迈克菲突然感到精神异常空虚,迈克菲决定提高境界,做一个安静的美男子。
  从2000年开始,迈克菲开始开瑜伽馆,写书,做反对毒品的公益广告。
  2008金融危机来袭,迈克菲的资产一下从10亿美元缩水到4亿。一向斗志昂扬的迈克菲却在此时选择了退休。
  两年后,Intel以76.8亿美元的天价收购了迈克菲的公司。
  他卖掉了几乎所有房产、私人飞机。他在谷歌地图上看上了一座叫做龙涎香的小岛,2008年4月亲自登上这座小岛并住了下来。
$ ?, t! ^6 r5 T' D9 B  ~5 `
                               
登录/注册后可看大图

/ ^% Z. G: l: m/ [5 j2 D; O7 {
  当时迈克菲已经67岁,但他觉得自己还没到了颐养天年的年纪,为了保持体型,迈克菲每周注射一些雄性激素。
  在岛上,喜欢折腾的迈大叔,开工厂,建码头,修豪宅,养姑娘。过上了皇帝般的生活。
$ E7 o: X& G* Q% H( b1 x
                               
登录/注册后可看大图

! R  k4 }3 t: T$ T% J
  迈克菲喜欢女人,也喜欢狗。甚至因为狗摊上过大事。
  他的爱犬在一个混乱的午夜被毒死了。第二天,迈克菲的邻居福尔遭枪杀,就在那一周,福尔还曾向市长提出正式申诉,抗议迈克菲养狗的扰民行为。
  因为涉嫌谋杀邻居,迈克菲过了一段被跑路的日,最终也没有直接证据表明是迈克菲杀死了邻居。
  2015年,迈克菲因为醉驾、携带枪支被捕。在警察局迈克菲笑着拍下了这张照片。
/ c5 M! q2 u2 U( u7 `2 K3 i
                               
登录/注册后可看大图
, F# u7 C/ t" Z6 z& N+ c! Q
  去年9月份,这位跨界小能手向联邦选举委员会递交了材料,准备参加2016美国总统大选。在接受采访时,迈克菲说:奥巴马政府不懂“隐私”是什么意思,让我来解释!
  看完迈克菲的经历,你肯定这哥们超级碉堡。但是,迈克菲说了这样一句话:我最喜欢的事情就是逗这帮傻X媒体玩。
  你所看到的,都是迈克菲希望你看到的。
  这个最牛自媒体的上头条大招
  下面就是这个自媒体网红的头条之道。
  金错刀认为,CEO的自媒体管理,有三个关键词:调性,持续升级,上头条。迈克菲把这三点都做到变态级:
  1. 调性:死磕非主流
  吸毒、酗酒,听平克·弗洛伊德,迈克菲喜欢这些亚文化的东西,这也是他身上最强悍的标签。这么多年以来,迈克菲一直通过各种方法保持着自己这种独特的调性。这也是他和其他创始人最大的区隔。

/ A+ E% I& Z' T5 j- |5 m
9 ?" Y7 i( E% }+ \8 N2 I/ w, q. i
                               
登录/注册后可看大图
; e2 l: \* s1 J5 b* H8 z0 b
  2. 持续强化:江湖上不能没有哥的传说
  在迈克菲背后,有一个超强的个人品牌维护团队,不管是视频还是图片,都经过精心的安排。快70岁的老爷子每周打雄性激素保持体型,因为迈克菲知道,媒体需要这样的东西。
* I2 z% J2 L3 M! A8 w
                               
登录/注册后可看大图
" }% {7 K/ N$ n; t; t& H' p
  3. 花式上头条:个人品牌养成之道
  你觉得迈克菲真的想当总统吗?并不是,这只是他强化个人品牌的一个途径罢了。在公众面前,迈克菲一直是一个极具争议的人物,甚至是人们的眼中钉肉中刺,作秀还是真性情,迈克菲并不在乎。
  想颓的时候,颓的要死,想牛的时候,牛的上天。随时随地扭转画风,也只有迈克菲这样的狂人才能做到。
  对于迈克菲,人生就是:从一处跑到另一处,养新的狗,泡新的妞,过你永远也想象不到的日子。
  迈克菲是拿生命上头条,真心服了。
  如果他真的直播吃鞋,你会关注吗?
  无论如何,他又赢了。
  1. Video
    7 C  u5 ]! }% x
  2. ID                                       : 1
    6 ?4 V& w$ B8 V+ d8 p( j
  3. Format                                   : AVC; N# z0 D  U5 j% M8 Q/ t3 K' f+ a
  4. Format/Info                              : Advanced Video Codec
    - R1 j) B1 g' E# U: u" v' I
  5. Format profile                           : [email protected]  u# S# b8 \6 c4 H
  6. Format settings, CABAC                   : Yes( J0 A8 \  p* T3 f9 Z; B' b1 }
  7. Format settings, ReFrames                : 5 frames
    $ s9 I  L) j) U' A) d8 _, b( u2 h. p
  8. Codec ID                                 : V_MPEG4/ISO/AVC
    $ o: m, t  q" u+ p2 R" F6 t
  9. Duration                                 : 1h 36mn
    9 E- \" o5 P  j4 }5 c; q% p
  10. Bit rate                                 : 2 301 Kbps" r6 a0 N( `' g& c
  11. Width                                    : 1 280 pixels
    " w8 k; H* F6 @/ N. W. n
  12. Height                                   : 720 pixels
    4 `$ j( U. g- Z- E* k
  13. Display aspect ratio                     : 16:9% U, P7 m( T/ l; J
  14. Frame rate mode                          : Constant: h/ n5 W9 ?% q" @
  15. Frame rate                               : 23.976 (24000/1001) fps: |6 {+ K8 W) j" \
  16. Color space                              : YUV
    ; n/ g/ V1 R) m) J. c# Z% [
  17. Chroma subsampling                       : 4:2:0* q3 }; \+ W/ _! h2 D! @" z
  18. Bit depth                                : 8 bits
    , s3 U9 V  e- U6 C2 t3 V
  19. Scan type                                : Progressive1 L/ C  g+ g, f/ R
  20. Bits/(Pixel*Frame)                       : 0.104
    9 `' ~' Y" ~' j$ D/ U) E8 N
  21. Stream size                              : 1.56 GiB (77%)
    ; I, \) y1 r  b1 q4 Q- s6 s4 n
  22. Default                                  : Yes
    * ]% p6 d) Q+ e9 `6 U6 f6 F: I
  23. Forced                                   : No2 o9 i+ I! R# s

  24. 4 M$ `" M% Y, _* o: K* @
  25. Audio
      k. X! ?. M0 |2 W: ]
  26. ID                                       : 2/ Z0 j  v* A0 M; E& Q9 K  o
  27. Format                                   : E-AC-3
    / s8 S# x5 t- Y: ]3 s
  28. Format/Info                              : Audio Coding 3$ u; \% [. O/ b" B) f" C- i1 ~
  29. Format settings, Endianness              : Big0 i9 P3 \* ?: Y
  30. Codec ID                                 : A_EAC3
    ! ^9 ~' y2 H9 K9 d4 J# G
  31. Duration                                 : 1h 36mn0 @6 k3 }5 W" l9 [( v* p
  32. Bit rate mode                            : Constant) F4 p+ g* B& D: P. j
  33. Bit rate                                 : 640 Kbps
    ( l0 M1 d  k9 j$ ]0 ^$ G3 m9 O
  34. Channel(s)                               : 6 channels
    # G( W" i9 q+ H+ |- r6 \) h9 l9 [5 T
  35. Channel positions                        : Front: L C R, Side: L R, LFE
    . \, p: }0 c0 d. v" m1 `
  36. Sampling rate                            : 48.0 KHz
    6 q: y6 M* k0 |9 P- e! K. O* y
  37. Frame rate                               : 187.500 fps (256 spf)7 O8 c) P7 Y7 n" J
  38. Compression mode                         : Lossy
    6 B" s9 a/ P7 n: ?7 }/ b0 u
  39. Stream size                              : 444 MiB (21%)
    % E/ I: [2 y6 |
  40. Language                                 : English: ^/ ?: g, k1 M
  41. Default                                  : Yes
    ( ~% u, D) l' B' w- q9 e+ c
  42. Forced                                   : No
    2 e" F, J/ o& }  u. s3 `
  43. 5 B) `* ]- P; z0 |  K/ m
  44. Text
    ; c. {) [& z2 u# f2 t% n1 F
  45. ID                                       : 3# O# X8 m6 H' j5 e( _: |
  46. Format                                   : UTF-8
    3 K) z6 `* f: Q3 l8 [
  47. Codec ID                                 : S_TEXT/UTF8
    ) R6 o5 P8 g/ ^# f/ ]# r( ^
  48. Codec ID/Info                            : UTF-8 Plain Text
    . q% m( J$ \5 m+ r5 \# q
  49. Language                                 : English
    # u0 v, I" n6 [- e1 w. x
  50. Default                                  : No4 p1 y$ E" T4 E: M5 [
  51. Forced                                   : No& H- ~* h, R/ p/ l+ y# |
复制代码
  H, W$ E2 L* i% i2 c

5 K6 k% \% D$ i$ P$ w5 t
" W4 h" q, f- u  p1 g' [% Y! s" c8 H1 L7 C
4 N- S! G% E& x- Y2 S5 Q: q
' m; r$ F2 n, F9 M

3 J. s% Z' K1 l
' G! l, T8 l. h; }- s6 p/ C. u' f* A
游客,如果您要查看本帖隐藏内容请回复  捐助论坛可免回复查看隐藏内容 详情请点击
最近访问 头像模式 列表模式
HD一条街,身边的一条街。
发表于 2016-10-10 15:12:54 | 显示全部楼层
看介紹,這人的人生真的好精彩,感謝分享~~
HD一条街,身边的一条街。
发表于 2016-11-6 18:26:23 | 显示全部楼层
感谢楼主分享,谢谢!
HD一条街,身边的一条街。
您需要登录后才可以回帖 登录 | 加入我们

本版积分规则

手机版|小黑屋|有问题发邮件到admin#(换成@)hd1tj.org|微博|免责申明|HD一条街

GMT+8, 2017-1-20 11:55

Powered by Discuz! X3.1

© 2001-2013 Comsenz Inc.

快速回复 返回顶部 返回列表