开启辅助访问 切换到窄版

HD一条街论坛

 找回密码
 加入我们
查看: 78|回复: 2

[欧美] 纪录片:海上火焰/怒海公民(港) Fuocoammare.2016.720p.BluRay.DD5.1.x264-DON 5.7G

[复制链接]
发表于 2016-9-26 12:18:34 | 显示全部楼层 |阅读模式
4 R6 Q2 v: q/ e$ C! C( W) X
                               
登录/注册后可看大图

# }) F5 a5 X* a3 X5 L0 N
3 C* M0 ^" @9 q, @
! m  w) K9 ^% d6 y' n◎译  名 海上火焰/怒海公民(港)/兰佩杜萨纪事/兰佩杜萨环岛/海上火: F$ V& ~* `/ x9 Z" c# Q
◎片  名 Fuocoammare9 L0 N. `" }1 `# E9 {3 t0 l
◎年  代 2016' |, H# O0 \! N7 G
◎国  家 意大利/法国
/ S7 {' U- w8 d0 a" ~◎类  别 纪录片
; B' u0 o2 X1 k) t* P6 }) ], ]8 o◎语  言 意大利语
" x  P% W5 k* F' z. \9 l- ]% N# s◎字  幕   英文
: n* k9 \- x8 [9 ]/ {% s◎整  理   HD一条街 www.hd1tj.org
+ }* `# L8 F- {+ ~◎上映日期 2016-02-13(柏林电影节)
" H2 _9 `3 i% r. ~( Z0 R6 F◎IMDb评分  7.2/10 from 928 users
2 ~# c: D- O& R+ p4 M7 o. G  Y7 g◎IMDb链接  http://www.imdb.com/title/tt3652526/
! V8 _6 u9 [" E* ^9 C( w! q◎豆瓣评分 6.6/10 from 507 users4 h4 |8 I$ E* `, p! X
◎豆瓣链接 https://movie.douban.com/subject/26344731/% i* V# j$ {2 n; |9 Q) v5 m
◎片  长 108分钟7 `5 T2 T, k# f5 R% D3 }/ M! \
◎导  演 吉安弗兰科·罗西 Gianfranco Rosi# I/ a4 L: B( ^6 N, N
◎主  演 吉安弗兰科·罗西 Gianfranco Rosi$ A1 j. {8 m8 |4 S" |

6 c. y' G9 j/ ?. m) i4 l◎简  介  w; B9 ^) U$ p2 W0 b( F4 [/ J$ a

& v* L/ G+ F( T7 R# B/ S1 }  Samuele是一个十二岁的男孩,居住在地中海的一个小岛上。和许多同龄男孩一样,他并不是很喜欢去学校,而是更愿意去攀爬海边那些岩石、玩他的弹弓、在海港转悠。但他的家乡并不是个平常的小岛而已。/ w  s" [2 ?+ \0 a
0 L' X% a" [1 m+ c  x
◎获奖情况
6 u1 M( L( k/ z/ i0 y: N: g/ Z, j+ k1 I: T0 g
  第66届柏林国际电影节  (2016)
3 w" h  H$ D5 h) W  金熊奖 吉安弗兰科·罗西
  1. Video" J  z: L8 e* v2 I
  2. ID                                       : 10 }1 [. U. @6 q4 M* G# z0 l
  3. Format                                   : AVC( v1 o! _8 E6 W* A$ z. }
  4. Format/Info                              : Advanced Video Codec
    1 U0 f: e* ^! \5 a
  5. Format profile                           : [email protected]
    , F+ u% C# j5 X, r" b
  6. Format settings, CABAC                   : Yes
    1 S7 W- g3 J' l& a! _
  7. Format settings, ReFrames                : 9 frames& y" j6 f; m2 t7 U$ R
  8. Codec ID                                 : V_MPEG4/ISO/AVC0 }" c- O. C' G. h) x7 P
  9. Duration                                 : 1h 54mn
    3 G$ l! I) k0 o' b" l0 i( S
  10. Bit rate                                 : 6 500 Kbps
    & l* Z$ K$ @/ d' {4 h; a2 \
  11. Width                                    : 1 280 pixels$ n/ h- R$ k- i0 `- E
  12. Height                                   : 692 pixels
    ) B5 f1 r9 t# _+ _0 _
  13. Display aspect ratio                     : 1.85:16 p5 u3 i  x  |- T( B( I
  14. Frame rate mode                          : Constant" V. P# S0 T3 F) A* y! B
  15. Frame rate                               : 23.976 (24000/1001) fps7 Z4 [) a% `) G
  16. Color space                              : YUV
    3 |# n0 V0 z  P$ D; |. d. w3 U) f% L
  17. Chroma subsampling                       : 4:2:0! Q6 R3 Y5 T0 p* Z7 ^
  18. Bit depth                                : 8 bits: b' D, O- }* p/ Y
  19. Scan type                                : Progressive5 M- |( q- ]; Z8 i  Y; o
  20. Bits/(Pixel*Frame)                       : 0.306
    3 D( e  k9 v1 e  a6 s# I5 k- x
  21. Stream size                              : 5.18 GiB (91%)
    $ Q2 g3 e* {% G% `( t
  22. Writing library                          : x264 core 148 r2705 3f5ed563 n3 z& R' {5 ?
  23. Encoding settings                        : cabac=1 / ref=9 / deblock=1:-3:-3 / analyse=0x3:0x133 / me=umh / subme=11 / psy=1 / psy_rd=1.00:0.00 / mixed_ref=1 / me_range=48 / chroma_me=1 / trellis=2 / 8x8dct=1 / cqm=0 / deadzone=21,11 / fast_pskip=0 / chroma_qp_offset=-2 / threads=18 / lookahead_threads=3 / sliced_threads=0 / slices=4 / nr=0 / decimate=0 / interlaced=0 / bluray_compat=0 / constrained_intra=0 / bframes=8 / b_pyramid=2 / b_adapt=2 / b_bias=0 / direct=3 / weightb=1 / open_gop=0 / weightp=2 / keyint=250 / keyint_min=23 / scenecut=40 / intra_refresh=0 / rc_lookahead=40 / rc=2pass / mbtree=0 / bitrate=6500 / ratetol=1.0 / qcomp=0.65 / qpmin=0 / qpmax=51 / qpstep=4 / cplxblur=20.0 / qblur=0.5 / vbv_maxrate=62500 / vbv_bufsize=78125 / nal_hrd=none / filler=0 / ip_ratio=1.40 / pb_ratio=1.30 / aq=3:0.75 / zones=0,1781,b=2
    , T/ k* m- |: L( }4 B3 y
  24. Language                                 : English3 k$ N6 H( I! r4 W
  25. Default                                  : Yes- A. z& u2 n5 @" i
  26. Forced                                   : No1 a: V( l. `1 @" j/ x
  27. 9 f! `# K( B: K+ U
  28. Audio  B) f; x1 F1 k  \* p- l; D
  29. ID                                       : 2* S* H; w3 d1 ]4 e
  30. Format                                   : AC-3
    6 I% c0 ~/ m; E1 O
  31. Format/Info                              : Audio Coding 3
    ( x- [# P  C; D; B+ A9 C2 Z
  32. Mode extension                           : CM (complete main)* S0 z, Z; o8 D
  33. Format settings, Endianness              : Big
    3 P; k+ [- i% ]0 s. N  H3 D& e
  34. Codec ID                                 : A_AC3/ k0 X6 F& w; h8 C" I/ A
  35. Duration                                 : 1h 54mn- C$ H. ?  G; [1 j
  36. Bit rate mode                            : Constant9 P/ I7 M* b- X! j3 a# u- j9 u+ V
  37. Bit rate                                 : 640 Kbps# Q( K% c! Q. D; s' S
  38. Channel(s)                               : 6 channels2 T4 ^3 W3 M, |2 K, h0 @8 p
  39. Channel positions                        : Front: L C R, Side: L R, LFE
    5 D; U% m) s2 W
  40. Sampling rate                            : 48.0 KHz
    . F, k" `' t: q. t2 J
  41. Frame rate                               : 31.250 fps (1536 spf)+ |  n8 x9 c1 i. ]8 m
  42. Compression mode                         : Lossy/ W; L( v; o2 G' y7 V7 K
  43. Stream size                              : 522 MiB (9%)
    1 L) q. G! D0 E' U/ _
  44. Title                                    : Italian AC3 5.1 @ 640 Kbps
      _: L- H; A6 O$ I) I
  45. Language                                 : Italian
    3 y4 G/ Q/ c: l  `6 S
  46. Default                                  : Yes; b: e" A1 A' o- [! y
  47. Forced                                   : No
    0 o  w" R& ^' e1 g6 H
  48. 2 G" \! G2 G7 Y4 b
  49. Text #15 M4 d7 n+ t4 K* x0 H
  50. ID                                       : 3/ _6 @: N' ~( x$ ^4 J( ^9 ~
  51. Format                                   : UTF-8( _. J* M7 F( W% p
  52. Codec ID                                 : S_TEXT/UTF8
    ' ~/ j, P% h6 [. p+ k& w* m4 }9 T
  53. Codec ID/Info                            : UTF-8 Plain Text
    0 M& j/ |8 w: c& p  y( P2 B* n
  54. Duration                                 : 1h 49mn# }: A, q! C6 s% n
  55. Bit rate                                 : 21 bps0 V5 s" O0 j$ n7 S
  56. Count of elements                        : 613% w# \' }9 V1 t* z
  57. Stream size                              : 17.1 KiB (0%)
    : W3 o3 Y, j! e- H
  58. Title                                    : English
    ! P2 S; X$ H% I! h( U8 p8 f
  59. Language                                 : English! ]/ }, M" C6 \' p! }6 ?3 P$ a
  60. Default                                  : Yes7 k5 j6 \* w! E& }* a
  61. Forced                                   : Yes* s( [. C$ `- F) ~! r

  62. & Q$ E$ y8 \$ H/ \5 K4 e# D
  63. Text #2
    3 V' b, g/ |) V# i9 v
  64. ID                                       : 4' o" x. w. x. o' g$ T! q
  65. Format                                   : PGS$ _2 u" B: N8 H: \; G9 u
  66. Muxing mode                              : zlib
    $ F& M+ L' M5 s$ C; }6 Q" _4 L
  67. Codec ID                                 : S_HDMV/PGS! l0 J4 q$ q& n0 h# d6 J+ `. I" R& p
  68. Codec ID/Info                            : Picture based subtitle format used on BDs/HD-DVDs
    / F  C! G4 B+ R* Y6 S
  69. Duration                                 : 1h 46mn
    ( _' r: U: u& U* ~. s! X4 n
  70. Bit rate                                 : 4 745 bps
    1 T- }: l# h" V
  71. Count of elements                        : 1194# q1 A$ b2 P5 l' j7 L
  72. Stream size                              : 3.63 MiB (0%)' }. ]0 B7 Y  K  s; k0 T6 k  A4 s
  73. Title                                    : Italian. s0 Y1 j/ }3 @) d2 B0 E, g
  74. Language                                 : Italian
    8 `+ f( _' `# u1 J6 c
  75. Default                                  : No, g" F9 d3 x7 E! t3 K' g
  76. Forced                                   : No; k9 j6 J4 y( |8 M
  77. & P( E3 M+ ?: u( c/ a8 y
  78. Text #3. j& @, G, {9 Q6 {8 p6 I
  79. ID                                       : 5
    8 t4 V+ a2 H/ Q; ?
  80. Format                                   : PGS
    , i/ H6 ^4 m3 P8 U, [
  81. Muxing mode                              : zlib# o. x5 J/ K6 K! a9 L' o- v" v
  82. Codec ID                                 : S_HDMV/PGS
      }( L+ ?9 K. A0 ~2 R5 @+ m
  83. Codec ID/Info                            : Picture based subtitle format used on BDs/HD-DVDs
    & p+ R1 n3 v# o; X. K
  84. Duration                                 : 1h 35mn
    7 V7 p* L! [+ W! r5 m
  85. Bit rate                                 : 2 053 bps
    ( G3 c( i) [; y& Z! F
  86. Count of elements                        : 494
    ; D& i& a4 y& u( t2 q
  87. Stream size                              : 1.40 MiB (0%)
    ! \" Z" i# Y) N/ S  [" H
  88. Title                                    : Italian Forced; c9 N+ w  e* W
  89. Language                                 : Italian
    - X, |2 O7 z& [5 v) ^' {
  90. Default                                  : No
    # l. ?* V9 w9 @* f9 m8 M/ O
  91. Forced                                   : No
    9 U# h( |, G( f- I
  92. 1 \6 E& b' I7 H/ z$ K
  93. Menu
      K- I4 k/ O7 Y
  94. 00:00:00.000                             : en:13 D( d6 h: ~+ q: N- X
  95. 00:08:08.446                             : en:2
    1 V# _. ~  a" q4 s" I8 V0 a
  96. 00:18:22.977                             : en:3. p- ^1 L. U; i. W4 N1 B* e
  97. 00:29:42.990                             : en:4
    ( b9 v) ~# P$ C5 b
  98. 00:39:56.185                             : en:5
    1 ]0 O* v' N' v; y2 r
  99. 00:48:16.519                             : en:64 o* r5 b8 ~# E, c3 e# b* B
  100. 00:55:28.992                             : en:7
    5 O( ?7 b6 h- r" W' q
  101. 01:04:27.447                             : en:8- j7 J, U- z* O* f8 B! G6 I0 \1 z
  102. 01:16:21.869                             : en:9
    ( y- b$ i: a6 R3 R; J6 T
  103. 01:26:21.259                             : en:10
    9 L3 D8 O- N) H3 L+ Q' n, I6 y
  104. 01:36:03.758                             : en:11
    6 }5 X7 Y2 r0 t
  105. 01:42:40.613                             : en:12
复制代码
: j; s- K* J! K& @  f: I
9 y# V* V; e* ^/ t: Q5 U8 j

( i1 x- v& ^2 R* i2 [: F: {6 t8 @9 W) s9 [

7 S; Z5 e  _  \+ |
: P' _- y3 @  C! c  }# d( S6 w6 E8 r8 R

' m4 Z3 Z7 i2 T
! i6 U& T  P/ }/ e) l
游客,如果您要查看本帖隐藏内容请回复  捐助论坛可免回复查看隐藏内容 详情请点击
最近访问 头像模式 列表模式
HD一条街,身边的一条街。
发表于 2016-9-26 14:08:12 | 显示全部楼层
这个片子一般般!!!!
HD一条街,身边的一条街。
发表于 2016-9-27 10:04:09 | 显示全部楼层
感谢分享么么
HD一条街,身边的一条街。
您需要登录后才可以回帖 登录 | 加入我们

本版积分规则

手机版|小黑屋|有问题发邮件到admin#(换成@)hd1tj.org|微博|免责申明|HD一条街

GMT+8, 2017-1-21 12:28

Powered by Discuz! X3.1

© 2001-2013 Comsenz Inc.

快速回复 返回顶部 返回列表