开启辅助访问 切换到窄版

HD一条街论坛

 找回密码
 立即注册
查看: 98|回复: 2

[欧美] 纪录片:海上火焰/怒海公民(港) Fuocoammare.2016.720p.BluRay.DD5.1.x264-DON 5.7G

[复制链接]
发表于 2016-9-26 12:18:34 | 显示全部楼层 |阅读模式

6 s* }% A$ Y8 y- R9 n) v; |3 k. y                               
登录/注册后可看大图

% d/ `* x/ D1 b2 e3 ?7 c& {
* I. H; n  s2 I" S$ |# \& n8 c! [6 l& ]* O
◎译  名 海上火焰/怒海公民(港)/兰佩杜萨纪事/兰佩杜萨环岛/海上火
5 U: W) t0 H3 o) M, S- G, ], U◎片  名 Fuocoammare
  |, n/ a+ Y* S3 _8 i; m, j) T◎年  代 2016- U7 x' Y# t7 b/ d: ~
◎国  家 意大利/法国( D7 I  n! m* ~3 ]3 t  p
◎类  别 纪录片! z. N6 N( u' r' N: _  Y; V
◎语  言 意大利语
$ P! K  C/ P! q◎字  幕   英文
+ K3 S) R8 y* H; o" w3 Z7 ~0 g: U3 W◎整  理   HD一条街 www.hd1tj.org0 h4 N1 C& N9 Q$ ~" H# g: j8 u3 E: E! w: i
◎上映日期 2016-02-13(柏林电影节), o9 |" q4 r! T8 |" m* u
◎IMDb评分  7.2/10 from 928 users# K# U' H9 U8 h2 V# j: c
◎IMDb链接  http://www.imdb.com/title/tt3652526/
# |0 q& x% a" d) f9 n1 J◎豆瓣评分 6.6/10 from 507 users2 X* N. G; m' U* D' U
◎豆瓣链接 https://movie.douban.com/subject/26344731/
9 ~% `: P6 Q6 a! _◎片  长 108分钟9 k/ l0 k( S) n
◎导  演 吉安弗兰科·罗西 Gianfranco Rosi' ^  ]- f" _9 M9 H4 [
◎主  演 吉安弗兰科·罗西 Gianfranco Rosi+ R4 t. U+ Y% U- ^; O+ r" _! @

% q: t/ K7 w0 p, e2 q& W◎简  介7 }: E- n$ N, s; U

4 j& G. l/ N7 M. q: C: M$ w1 w  Samuele是一个十二岁的男孩,居住在地中海的一个小岛上。和许多同龄男孩一样,他并不是很喜欢去学校,而是更愿意去攀爬海边那些岩石、玩他的弹弓、在海港转悠。但他的家乡并不是个平常的小岛而已。+ e8 C3 `, g! `) E4 m( a9 H
& `8 w0 x' h" e8 f7 s! b
◎获奖情况5 s2 s0 b& {( p7 T/ M

3 x8 G. G+ ~) u2 x, l2 P+ C  第66届柏林国际电影节  (2016)
* N: U( a8 [- A7 |  金熊奖 吉安弗兰科·罗西
  1. Video
    6 o+ H! B8 d0 D
  2. ID                                       : 1
    0 k" t7 L, }5 z; N. X' l
  3. Format                                   : AVC
    6 W% \: w2 B! h! C; X9 I: N
  4. Format/Info                              : Advanced Video Codec8 c, ?0 [4 F3 v, ]$ l! ?/ |
  5. Format profile                           : [email protected]% V8 ]2 q5 `8 R  F
  6. Format settings, CABAC                   : Yes1 S( @/ `2 \) f3 K7 t3 ?- b
  7. Format settings, ReFrames                : 9 frames8 z; I; H7 L- y1 Y0 G8 O
  8. Codec ID                                 : V_MPEG4/ISO/AVC
    * \( ]) \( @) H! P
  9. Duration                                 : 1h 54mn, R5 a! d4 _5 ^) v0 ]5 C' [
  10. Bit rate                                 : 6 500 Kbps
    * i* g# f- Z8 E# [0 b( X
  11. Width                                    : 1 280 pixels
    $ X1 `. t$ [8 K
  12. Height                                   : 692 pixels
    6 p' [$ k3 ^, j3 \  l  k
  13. Display aspect ratio                     : 1.85:1
    6 s9 [9 G/ h7 i
  14. Frame rate mode                          : Constant& k7 v5 R) V! w( p- }/ `' G
  15. Frame rate                               : 23.976 (24000/1001) fps% z6 g; Q) J4 [8 J
  16. Color space                              : YUV9 ~& l  {$ H" R
  17. Chroma subsampling                       : 4:2:0/ n2 w/ Q* S, V+ q5 Q% F, w$ s3 E
  18. Bit depth                                : 8 bits
    6 R% f- c7 N: q' l
  19. Scan type                                : Progressive
    9 I' r0 W0 u1 g4 t) j/ H7 D0 \
  20. Bits/(Pixel*Frame)                       : 0.306
    $ C4 i$ Z* r" y( l8 h; O7 r) l) j
  21. Stream size                              : 5.18 GiB (91%)# \; X) h6 @' ~  a* z2 G
  22. Writing library                          : x264 core 148 r2705 3f5ed56# X3 Z, n9 s. O5 z2 H* D( l$ T
  23. Encoding settings                        : cabac=1 / ref=9 / deblock=1:-3:-3 / analyse=0x3:0x133 / me=umh / subme=11 / psy=1 / psy_rd=1.00:0.00 / mixed_ref=1 / me_range=48 / chroma_me=1 / trellis=2 / 8x8dct=1 / cqm=0 / deadzone=21,11 / fast_pskip=0 / chroma_qp_offset=-2 / threads=18 / lookahead_threads=3 / sliced_threads=0 / slices=4 / nr=0 / decimate=0 / interlaced=0 / bluray_compat=0 / constrained_intra=0 / bframes=8 / b_pyramid=2 / b_adapt=2 / b_bias=0 / direct=3 / weightb=1 / open_gop=0 / weightp=2 / keyint=250 / keyint_min=23 / scenecut=40 / intra_refresh=0 / rc_lookahead=40 / rc=2pass / mbtree=0 / bitrate=6500 / ratetol=1.0 / qcomp=0.65 / qpmin=0 / qpmax=51 / qpstep=4 / cplxblur=20.0 / qblur=0.5 / vbv_maxrate=62500 / vbv_bufsize=78125 / nal_hrd=none / filler=0 / ip_ratio=1.40 / pb_ratio=1.30 / aq=3:0.75 / zones=0,1781,b=2+ m: S7 }8 _' P" i  R
  24. Language                                 : English
    2 x$ H" E8 K3 i; l& Y$ ^9 b
  25. Default                                  : Yes
    " {) C& b$ H5 P  e" O* d5 @/ |- Z
  26. Forced                                   : No
    & y0 F2 W3 ]5 e. s+ \6 L3 M

  27. " P; R$ `* @$ a$ g4 i
  28. Audio# E# k6 W, Q# ?
  29. ID                                       : 2- B6 I" P: O9 U$ |1 D+ X: ?+ l
  30. Format                                   : AC-3( X/ N8 E1 o- }- ?5 I
  31. Format/Info                              : Audio Coding 39 V9 D; y4 v( L. n- }: w* z5 q0 t' A
  32. Mode extension                           : CM (complete main)
      C" q" A% [! _
  33. Format settings, Endianness              : Big
    % {; ~0 g. w4 W: ~
  34. Codec ID                                 : A_AC3' p1 [$ T, y+ j2 S1 ^+ v# \
  35. Duration                                 : 1h 54mn
    ! q- }# v  z# U2 n
  36. Bit rate mode                            : Constant( p& j3 s: d/ |, y) u, r, T
  37. Bit rate                                 : 640 Kbps/ y% g0 T+ [9 H  D; s8 S% D" p' `
  38. Channel(s)                               : 6 channels/ k/ G6 F! o; V3 C: s
  39. Channel positions                        : Front: L C R, Side: L R, LFE
    # n2 j& l/ Y6 |* o0 {5 p
  40. Sampling rate                            : 48.0 KHz
    7 ^8 E6 I+ i& v  {. R/ }: l
  41. Frame rate                               : 31.250 fps (1536 spf). F% i: ?3 G8 ~) Z/ }% A; _( f: X
  42. Compression mode                         : Lossy
    0 X6 N2 i3 [2 ^0 i. ^0 A8 L
  43. Stream size                              : 522 MiB (9%)
    % ]7 P# f0 ^3 D8 U7 ?
  44. Title                                    : Italian AC3 5.1 @ 640 Kbps
    - `9 }8 T. _" v0 O, T7 ]9 J" G
  45. Language                                 : Italian8 d; g. z5 K' M  w- [
  46. Default                                  : Yes# u0 _! ]; o+ k5 T6 A
  47. Forced                                   : No
    / `6 b. P8 i+ {
  48. + S, e% y5 d! e
  49. Text #1
    . H3 q$ p- e" q# \( Z+ ?
  50. ID                                       : 3% v# Y- E0 y. N
  51. Format                                   : UTF-8  [7 V9 D: Z: `% V* K" C; \
  52. Codec ID                                 : S_TEXT/UTF8
    * v7 {3 r0 R3 G
  53. Codec ID/Info                            : UTF-8 Plain Text
    ; d/ Z0 i; I- B9 e, x5 c2 {
  54. Duration                                 : 1h 49mn$ A: }* n7 l  s5 {
  55. Bit rate                                 : 21 bps$ T, a" j: ]! }  C
  56. Count of elements                        : 613
    3 e, r3 c7 t0 U+ T. S+ C' k+ k
  57. Stream size                              : 17.1 KiB (0%), }$ i& _1 y8 w" x2 |
  58. Title                                    : English
    8 i3 f* I4 H, f' {5 F% D" D( ~8 j
  59. Language                                 : English6 s8 ]- ?8 v$ l& {; P6 N: B
  60. Default                                  : Yes2 n* H: T; f8 C5 C7 V
  61. Forced                                   : Yes6 o7 S$ ^) V) J' e  m& l5 Z- h

  62. % U" [" x2 e4 W
  63. Text #2* L( d3 l# x) m) R$ C
  64. ID                                       : 4/ D4 h  |, e  q  W6 |# ~, E
  65. Format                                   : PGS
    0 _* p+ i$ r, M% L% K0 Z3 W7 m$ n
  66. Muxing mode                              : zlib
    . \9 N. n' ]" J) M& V' \
  67. Codec ID                                 : S_HDMV/PGS7 o/ e# R& Q: j3 P' I/ j
  68. Codec ID/Info                            : Picture based subtitle format used on BDs/HD-DVDs  A, d  \" Q( J0 F# F
  69. Duration                                 : 1h 46mn9 K+ c6 t' Y3 U& z
  70. Bit rate                                 : 4 745 bps
    ; {/ K5 r2 Y% }4 U- f0 W
  71. Count of elements                        : 11942 b$ l6 ?# ?2 Z! ~: K' f
  72. Stream size                              : 3.63 MiB (0%)% o; ~4 v2 t4 u+ J
  73. Title                                    : Italian
    & f: V; A/ x4 [, y
  74. Language                                 : Italian
    2 T  h  ^- Z, E  z- s
  75. Default                                  : No% g4 N! s9 B/ U! {4 v' M
  76. Forced                                   : No3 W" O8 H3 v9 A" e, B/ w
  77. 2 ?+ k2 J5 i1 A3 R+ n8 m
  78. Text #3! O4 [( A5 u" ]
  79. ID                                       : 50 g1 X6 _/ e' J) c" j/ Q$ M
  80. Format                                   : PGS5 b& m0 K$ s. m5 h2 K2 S" U: U7 i* D
  81. Muxing mode                              : zlib! }4 ]% ]7 [6 T: P
  82. Codec ID                                 : S_HDMV/PGS
    " w' h' V% G* d
  83. Codec ID/Info                            : Picture based subtitle format used on BDs/HD-DVDs6 t1 k6 F9 s" t; t- y. N
  84. Duration                                 : 1h 35mn
    # V3 n0 p4 i' A9 p9 C* q
  85. Bit rate                                 : 2 053 bps5 Z: ]: a3 r+ a
  86. Count of elements                        : 4948 T1 ~6 B) |5 I1 u
  87. Stream size                              : 1.40 MiB (0%)9 M9 s  g, ]/ |: Y
  88. Title                                    : Italian Forced
    , h9 z. \3 ]/ q5 e* L% F# R* f
  89. Language                                 : Italian3 L5 p4 m! c" l2 R. U/ G+ n# ~
  90. Default                                  : No# F6 U% ~" }" v1 o- l
  91. Forced                                   : No5 j% ~/ g) i; J* Y: J* I  w+ \+ ]1 `
  92. ) o# w' K" S$ z5 J' a
  93. Menu
    4 {7 C7 m$ U$ V! y
  94. 00:00:00.000                             : en:1; M! Y  m1 v3 Y0 T: g: i
  95. 00:08:08.446                             : en:2: ^! D! c4 @) [: D6 [$ C
  96. 00:18:22.977                             : en:3
    3 s7 n* _. O$ M+ Y
  97. 00:29:42.990                             : en:4! f& b: t1 H  f: h' |) m
  98. 00:39:56.185                             : en:5
    3 }, }8 P" [: c# }/ d- u
  99. 00:48:16.519                             : en:6" d1 x& Y+ F9 q& ~
  100. 00:55:28.992                             : en:7! K& q$ x+ e. x  B" G
  101. 01:04:27.447                             : en:8
    . M: m) [; i5 w. o% L
  102. 01:16:21.869                             : en:9# w) g; |5 S0 Y5 T' B
  103. 01:26:21.259                             : en:10
    ! }  O. E7 m* _( y1 G8 F/ L' \
  104. 01:36:03.758                             : en:11
    7 M2 m- c: q  U/ J. v) h
  105. 01:42:40.613                             : en:12
复制代码
9 R7 ~, E2 Z; O. A7 d

. b, v' l2 j' a7 c! p
6 i) z6 m! Y3 K3 R
* w, t5 w$ m4 x9 y3 u
" {, V% F& P4 F+ J4 q8 Z' ^* ^$ q, K  O( |6 w, H7 \0 {& w
0 s$ s5 n8 L0 M/ E( C$ g

4 q+ p3 {% S( D# d: r
* ~8 i$ ?* e' f1 n
游客,如果您要查看本帖隐藏内容请回复  捐助论坛可免回复查看隐藏内容 详情请点击
最近访问 头像模式 列表模式
HD一条街,身边的一条街。
发表于 2016-9-26 14:08:12 | 显示全部楼层
这个片子一般般!!!!
HD一条街,身边的一条街。
发表于 2016-9-27 10:04:09 | 显示全部楼层
感谢分享么么
HD一条街,身边的一条街。

手机版|小黑屋|有问题发邮件到admin#(换成@)hd1tj.org|微博|免责申明|HD一条街

GMT+8, 2017-3-30 18:49

Powered by Discuz! X3.1

© 2001-2013 Comsenz Inc.

快速回复 返回顶部 返回列表