开启辅助访问 切换到窄版

HD一条街论坛

 找回密码
 立即注册
查看: 55|回复: 2

[欧美] 纪录片:海上火焰/怒海公民(港) Fuocoammare.2016.720p.BluRay.DD5.1.x264-DON 5.7G

[复制链接]
发表于 2016-9-26 12:18:34 | 显示全部楼层 |阅读模式

1 G' q) W8 F& H. c+ g+ Y                               
登录/注册后可看大图

- f: e* t: l4 k0 W; U5 }- l; e, N6 f- R) [/ ]. u* s* W" p, |
9 Z- `1 M. M# W! ?4 O
◎译  名 海上火焰/怒海公民(港)/兰佩杜萨纪事/兰佩杜萨环岛/海上火$ q. j8 Q5 ]- ^4 ~% f* [: N! m
◎片  名 Fuocoammare
8 ]( w5 C" [; W◎年  代 2016) ?, K. c0 J; j0 `& {" r
◎国  家 意大利/法国
9 R, h2 X1 b" B8 s) m! m. O- \◎类  别 纪录片
' g! ^0 ]1 j3 y* y  J, {& D◎语  言 意大利语
# u0 N3 ^( T2 p" y◎字  幕   英文
6 Y$ _0 d; _" X7 K◎整  理   HD一条街 www.hd1tj.org. |+ l$ t5 C# W% I" N5 Y5 Z
◎上映日期 2016-02-13(柏林电影节)
8 O! h9 X/ Q+ m( h1 Q7 q5 y◎IMDb评分  7.2/10 from 928 users& E; W# Z5 S# @0 \) ?' f" E
◎IMDb链接  http://www.imdb.com/title/tt3652526/
" M7 ?. n/ Y  I" U) @◎豆瓣评分 6.6/10 from 507 users
: K! |; S/ s/ z9 h$ i+ t7 d+ f& E◎豆瓣链接 https://movie.douban.com/subject/26344731/
3 m7 Z9 x. h4 @0 O1 X5 K/ I◎片  长 108分钟! Z( ]+ i" u2 Y/ Q, ~
◎导  演 吉安弗兰科·罗西 Gianfranco Rosi, ~5 a. J0 \% g0 M
◎主  演 吉安弗兰科·罗西 Gianfranco Rosi, j0 N- G5 D9 f: l4 D
, g* e. U( B% T1 T$ [2 ?7 D
◎简  介
) l6 R% J5 h; b- O+ m3 B4 T4 X2 G1 V/ s) r7 w
  Samuele是一个十二岁的男孩,居住在地中海的一个小岛上。和许多同龄男孩一样,他并不是很喜欢去学校,而是更愿意去攀爬海边那些岩石、玩他的弹弓、在海港转悠。但他的家乡并不是个平常的小岛而已。
7 C4 {: I5 [; h6 Z
2 d. O: i! b( T/ C8 e8 v! x; b◎获奖情况) L. [; a% ?+ d! Z: U/ m4 q

0 g* e$ p, O' m! W8 F7 B" q  第66届柏林国际电影节  (2016)
4 o/ O* e% N' Y- G  金熊奖 吉安弗兰科·罗西
  1. Video/ Q5 d8 w1 W% I) O
  2. ID                                       : 1
    : {* n' S; w/ K1 u
  3. Format                                   : AVC
    / f; _& Z4 _' x# i7 u$ o
  4. Format/Info                              : Advanced Video Codec, S+ w3 `: ^$ n% G/ B
  5. Format profile                           : [email protected]
    4 c" G! g9 }% G* k, C9 ?0 f: M( p
  6. Format settings, CABAC                   : Yes8 ?5 s* [5 G" m: F
  7. Format settings, ReFrames                : 9 frames
    : i+ J4 a, p0 X% b' H: u
  8. Codec ID                                 : V_MPEG4/ISO/AVC$ o3 _6 X" P; @" x; z& M
  9. Duration                                 : 1h 54mn; T" }. j2 c7 @) s. F4 t0 z5 ]6 ?
  10. Bit rate                                 : 6 500 Kbps
    - g4 |, x: x7 }# [4 Z% d& V
  11. Width                                    : 1 280 pixels
    7 ~4 K5 G/ [4 K8 {# v
  12. Height                                   : 692 pixels3 y$ [* x6 B4 s1 C8 a9 P: f
  13. Display aspect ratio                     : 1.85:1
    , ]% H4 \+ S- z  I
  14. Frame rate mode                          : Constant
    : D$ W, J$ k3 {7 Q" P
  15. Frame rate                               : 23.976 (24000/1001) fps3 y$ l# m- X" h7 S' `. [0 D
  16. Color space                              : YUV
    . o) C) @2 e/ f4 h  R% K
  17. Chroma subsampling                       : 4:2:0
    + a; W4 a+ e& k! q1 b: Y& M
  18. Bit depth                                : 8 bits5 v4 u* `) K0 L2 o
  19. Scan type                                : Progressive
    3 n  d! g  C# m( y
  20. Bits/(Pixel*Frame)                       : 0.306
    3 l* M  N% V. o3 i+ k
  21. Stream size                              : 5.18 GiB (91%)- }9 B5 V1 q6 R* o8 f. i5 R
  22. Writing library                          : x264 core 148 r2705 3f5ed56
    $ a. N' w1 g( z0 z* g6 p
  23. Encoding settings                        : cabac=1 / ref=9 / deblock=1:-3:-3 / analyse=0x3:0x133 / me=umh / subme=11 / psy=1 / psy_rd=1.00:0.00 / mixed_ref=1 / me_range=48 / chroma_me=1 / trellis=2 / 8x8dct=1 / cqm=0 / deadzone=21,11 / fast_pskip=0 / chroma_qp_offset=-2 / threads=18 / lookahead_threads=3 / sliced_threads=0 / slices=4 / nr=0 / decimate=0 / interlaced=0 / bluray_compat=0 / constrained_intra=0 / bframes=8 / b_pyramid=2 / b_adapt=2 / b_bias=0 / direct=3 / weightb=1 / open_gop=0 / weightp=2 / keyint=250 / keyint_min=23 / scenecut=40 / intra_refresh=0 / rc_lookahead=40 / rc=2pass / mbtree=0 / bitrate=6500 / ratetol=1.0 / qcomp=0.65 / qpmin=0 / qpmax=51 / qpstep=4 / cplxblur=20.0 / qblur=0.5 / vbv_maxrate=62500 / vbv_bufsize=78125 / nal_hrd=none / filler=0 / ip_ratio=1.40 / pb_ratio=1.30 / aq=3:0.75 / zones=0,1781,b=2. w/ i1 O3 y6 B0 X/ O+ x1 Q9 F
  24. Language                                 : English1 a$ P- v/ X2 e
  25. Default                                  : Yes7 d8 P$ R: ~9 t5 ^
  26. Forced                                   : No
    1 `6 P9 ^2 q$ }, k8 @/ u# C% Y4 }

  27. " x) D3 z; F' f# z4 m3 @. T7 L, b
  28. Audio
    % t- ]( k8 p, m" B7 h6 y) n; N
  29. ID                                       : 2! y; h- E2 ^( o( G: T9 B
  30. Format                                   : AC-3
    7 I3 Z& e9 Z9 V4 O  i
  31. Format/Info                              : Audio Coding 3
    * n7 @) Y2 N* i+ Y- [( P: J
  32. Mode extension                           : CM (complete main)& l0 m) b- v$ j: U6 K
  33. Format settings, Endianness              : Big$ Q2 @8 x7 _9 H, J8 U0 t
  34. Codec ID                                 : A_AC3
    : f/ R$ G# H3 E- {$ V' ^/ u1 _
  35. Duration                                 : 1h 54mn/ T2 M% T3 Y' I( K
  36. Bit rate mode                            : Constant
    - A4 u7 R+ P( R3 _! S  w
  37. Bit rate                                 : 640 Kbps
    - k0 q8 T3 U- C* D$ [5 H7 d( n* Z
  38. Channel(s)                               : 6 channels0 e; q* u1 B9 x& {( r# [  m+ |8 Y
  39. Channel positions                        : Front: L C R, Side: L R, LFE
    2 w* f+ k2 V$ x% d, D
  40. Sampling rate                            : 48.0 KHz
    ( L' ~- z7 p  w' @$ X. r
  41. Frame rate                               : 31.250 fps (1536 spf)4 |" l' C% E' x& G
  42. Compression mode                         : Lossy
      I' m) n! E+ H' b. t# M
  43. Stream size                              : 522 MiB (9%)% B7 E( Q- w! a3 ?: b
  44. Title                                    : Italian AC3 5.1 @ 640 Kbps
    0 a# ]& e2 Q2 c
  45. Language                                 : Italian- Y5 g# y- r1 E. A) b( e
  46. Default                                  : Yes3 V, j8 R3 j, z; d" n  F; Z$ n
  47. Forced                                   : No
    # w+ g' I9 G2 @3 d- G- t

  48.   O6 j- v% N2 ~$ q7 ?  |
  49. Text #1
    , ]! n: T5 V, L& x* u# f# @- i
  50. ID                                       : 3
    + i$ s8 d) z9 J2 ?  S
  51. Format                                   : UTF-8
    ; p2 ~" V2 q* d' A
  52. Codec ID                                 : S_TEXT/UTF8
    0 H# Q/ r9 S+ V- D% ?
  53. Codec ID/Info                            : UTF-8 Plain Text0 ?- i. e& c9 J- [. c
  54. Duration                                 : 1h 49mn/ i2 I9 l" P! E  ^2 P7 ?% z
  55. Bit rate                                 : 21 bps: Q1 m1 |$ L6 Y, k& S
  56. Count of elements                        : 613
    # ?* d9 |0 u) |, s1 G
  57. Stream size                              : 17.1 KiB (0%)
    . L5 N6 z$ s2 j' }1 ^
  58. Title                                    : English# f) @' T5 ?  t$ k$ g! l- I
  59. Language                                 : English" O- s: U- s( k( a
  60. Default                                  : Yes
    ) v" i( S+ `. R+ h0 T1 u# A# |/ f
  61. Forced                                   : Yes
    6 y. h( d% S* y: B2 \0 r) \. Y5 S

  62. & U, N9 i: L" u- s, L
  63. Text #2  R- ^* m- ^1 i& K+ A4 Z2 U& [
  64. ID                                       : 4
    1 K# H) T( G: r1 Y( z
  65. Format                                   : PGS
    7 S/ ^" K5 @, ?2 M& m
  66. Muxing mode                              : zlib! H$ ~% m2 D" ~% h' h) l8 `( ]
  67. Codec ID                                 : S_HDMV/PGS/ W# g8 n% j) k9 g
  68. Codec ID/Info                            : Picture based subtitle format used on BDs/HD-DVDs
    7 v+ G& {! r1 e
  69. Duration                                 : 1h 46mn9 W+ X- H2 r; Z3 k% W. j1 I
  70. Bit rate                                 : 4 745 bps
    0 m  ?/ g/ q, J! P, \
  71. Count of elements                        : 1194
    * ]! s% J) J. H3 B2 D4 D
  72. Stream size                              : 3.63 MiB (0%)
    " Q9 Q1 p2 {/ X$ _7 H; F
  73. Title                                    : Italian
    8 \/ C5 a* J. S) f  @
  74. Language                                 : Italian! O6 w0 L8 J7 [# _1 G# {8 w5 F: Z5 H5 L
  75. Default                                  : No
    4 z) \3 U" ]( D
  76. Forced                                   : No. K$ {% ^) Z) R; B: ~

  77. # A8 R4 r' B3 {) x! E) O
  78. Text #3
    % u9 n3 D; h( x  g( o
  79. ID                                       : 5) J9 y/ K; D+ W1 @# z0 \
  80. Format                                   : PGS5 Q* @& r/ {  v+ K: g
  81. Muxing mode                              : zlib
    * r2 y0 w/ }% R5 S
  82. Codec ID                                 : S_HDMV/PGS( L6 ?. `" e4 ~  @
  83. Codec ID/Info                            : Picture based subtitle format used on BDs/HD-DVDs! y$ ~9 B. ^. U, V4 o
  84. Duration                                 : 1h 35mn
      l+ P  l( T. p
  85. Bit rate                                 : 2 053 bps5 T( J, ]; x: ]$ l% Y- h
  86. Count of elements                        : 494
    . ~4 n# g8 [, M5 b
  87. Stream size                              : 1.40 MiB (0%)) h8 G4 ?; |5 Z% k
  88. Title                                    : Italian Forced
    7 t. g- @% ~" F+ [3 g3 y
  89. Language                                 : Italian
    , F+ |8 ]. S) J- E
  90. Default                                  : No* X7 T. m$ j4 T
  91. Forced                                   : No
    ' P# n! l# \% B7 ~$ f

  92. 0 v: J( h7 }8 Y1 X( B0 K, l
  93. Menu7 K% g$ R* o# N
  94. 00:00:00.000                             : en:1
    " ~% P  d$ ?+ W, S5 n3 q/ s9 a
  95. 00:08:08.446                             : en:23 O; g6 }, j) O( S( S2 j% [
  96. 00:18:22.977                             : en:36 ?2 q# @1 X" l3 A' L1 F4 L
  97. 00:29:42.990                             : en:4* [, Q8 w: X! g/ a$ f! V
  98. 00:39:56.185                             : en:5
    - ?: N; [" r" R  B
  99. 00:48:16.519                             : en:6
    3 @3 t" u" K2 S0 Y6 `
  100. 00:55:28.992                             : en:7( \3 D/ s/ u( v% u. S
  101. 01:04:27.447                             : en:8
    ; D( O; s: T, W: q4 q& j
  102. 01:16:21.869                             : en:9
    ) V( O) y7 S/ S; `9 y2 X
  103. 01:26:21.259                             : en:10( ]9 V  R4 h5 a, ~, N/ n
  104. 01:36:03.758                             : en:11* i8 }( x, f& K2 c
  105. 01:42:40.613                             : en:12
复制代码

1 H- _" I  m, ^7 _5 w  a8 R" H5 ^" D1 N/ u$ o, d

8 L2 L6 o- D0 t' w! K* }! @# O
7 R6 T  m4 R- v9 R2 b5 w. |9 }' }4 }; t( W0 q1 }) B& P
" ?9 i- t$ c: P" u

8 K1 o9 u  e6 c6 Y4 d/ P& [/ e4 G/ ?! S4 h

, F" c: L1 j+ ~) g! z2 c
游客,如果您要查看本帖隐藏内容请回复  捐助论坛可免回复查看隐藏内容详情请点击
HD一条街,身边的一条街。
发表于 2016-9-26 14:08:12 | 显示全部楼层
这个片子一般般!!!!
HD一条街,身边的一条街。
发表于 2016-9-27 10:04:09 | 显示全部楼层
感谢分享么么
HD一条街,身边的一条街。
您需要登录后才可以回帖 登录 | 立即注册

本版积分规则

手机版|小黑屋|有问题发邮件到admin#(换成@)hd1tj.org|微博|免责申明|HD一条街

GMT+8, 2016-12-11 04:26

Powered by Discuz! X3.1

© 2001-2013 Comsenz Inc.

快速回复 返回顶部 返回列表