开启辅助访问 切换到窄版

HD一条街论坛

 找回密码
 立即注册
查看: 71|回复: 5

[欧美] 纪录片:癫狂!/沉默的睪羊(港) Nuts.2016.DOCU.1080p.WEBRip.DD5.0.x264-CtrlHD 4.36G

[复制链接]
发表于 2016-9-21 11:24:49 | 显示全部楼层 |阅读模式
184150074ca7cf767f60ca003c2eadad50b0fa30.jpg
; r5 l9 N: K1 Z4 m6 o& j" o
. x8 K4 t+ M6 m( K2 a# _" Z
. }  V9 p4 g! k5 k8 m◎译  名 癫狂!/沉默的睪羊(港)- K3 y2 r6 m4 ^- Q8 F
◎片  名 Nuts!" ], D1 @5 u- H$ |# y; S
◎年  代 2016" W9 U2 v* N! s) @
◎国  家 美国' H6 G* A- i" n) a: i
◎类  别 纪录片
9 C0 O# {# p0 ?  X) j+ b9 _! f◎语  言 英语; Y1 B% \* g0 j, J+ `+ d: m% P! D' O6 Q
◎上映日期 2016-01-22(圣丹斯电影节)
8 t- n$ [* p( ]* ~9 O: @/ u: F$ `◎IMDb评分  7.5/10 from 143 users
+ g4 k2 [+ N" c+ {) U4 D% A' _2 e2 R◎IMDb链接  http://www.imdb.com/title/tt5236900/& K6 J1 ^1 ~" {$ `1 `$ u5 u6 `
◎豆瓣评分 7.6/10 from 14 users; d/ o  M6 f5 ]. O0 ^) O
◎豆瓣链接 https://movie.douban.com/subject/26677795/; C6 U4 F! R5 {6 E* e
◎片  长 79分钟  y  [9 x' M! }% N. }; S
◎导  演 Penny Lane
- }5 _" H& S0 M5 i
& H. Q. ]  d. |- v$ a* {* O◎简  介
9 e1 \' _+ A8 Q# ?) |
% V, H: C- l7 j) X; |* H  約翰拉姆斯賓克利(John Romulus Brinkley)是「威而鋼」的先驅,電台賣藥的始祖。他是天才還是騙子,是商人還是庸醫?& i0 n, P. |- |6 U. g% ?! i
  賓克利醫生本來在堪薩斯州執業,有個農夫病患深受陽痿之苦,只能羨慕公羊每天「性」致勃勃。兩人突發奇想,何不把公羊睪丸移植到農夫身上?結果農夫不僅重振雄風,還一舉得子。妙手神醫傳遍千里,賓克利成了回春救星,他不僅賺了大錢擴建醫院,還經營公羊牧場,提供患者配對選擇;甚至成立電台,宣傳他的神奇植入術。口若懸河的電台賣藥始祖,與聽眾親切互動,名醫又變成空中張老師。
) T4 V3 G- N8 S  t3 M7 X1 q  導演佩妮蓮恩除了邀請各界專家來解剖賓克利這個充滿爭議的人物,更大量使用手繪動畫再現當時的事件場景。類劇情片的敘事手法不僅挑戰傳統紀錄片,也像在提醒觀眾,說不定電影本身也是一場騙局。令這部妙趣橫生的奇片,更多了思辨的空間。. t, P8 F  M: `

* j; R+ V9 e# ?- F" s◎获奖情况
  _2 _. [- w; Y: [8 I) O, p1 k+ O; \$ B- c- [# g) y
  第32届圣丹斯电影节  (2016); i, x8 d) S8 J" P2 ]: S
  评审团大奖 纪录片(提名)
  1. Video: ^& G, J% S+ [: o
  2. ID                                       : 1
    ! K. V" Y2 p7 t' M
  3. Format                                   : AVC
    6 H+ _; w7 O0 K% b  v( X' ]( w; `9 L/ N
  4. Format/Info                              : Advanced Video Codec& u, Y+ S3 q$ I  P" }  g
  5. Format profile                           : [email protected]7 r1 k$ T% |8 @, Z0 i
  6. Format settings, CABAC                   : Yes8 y2 }) }5 s  R4 g# T+ X7 g" @: E
  7. Format settings, ReFrames                : 4 frames# M# i' U: {- |- y6 l. }9 ^2 V
  8. Codec ID                                 : V_MPEG4/ISO/AVC( \7 t2 b2 v2 E3 D
  9. Duration                                 : 1h 18mn
    & _& b+ [  U% e4 d
  10. Bit rate mode                            : Variable
    * O& ?% Y: E1 C+ O/ M+ F
  11. Bit rate                                 : 7 119 Kbps
    5 r  h: c% a+ e5 _3 s) z
  12. Maximum bit rate                         : 15.0 Mbps
    - @) g$ I9 f. P. q. S
  13. Width                                    : 1 920 pixels: E: E. z) `4 e; u: k
  14. Height                                   : 1 080 pixels1 I! w+ p" O# W4 t8 ~
  15. Display aspect ratio                     : 16:94 y1 z; V% ~: f5 @+ f( X
  16. Frame rate mode                          : Constant
    + m  l/ o  V) a# s1 Q
  17. Frame rate                               : 23.976 (24000/1001) fps
    " M  F0 J8 Z0 N& f" N3 v
  18. Color space                              : YUV$ X0 N' Z3 c9 v1 A
  19. Chroma subsampling                       : 4:2:0# Q1 q1 z8 R, w0 Z& z* S
  20. Bit depth                                : 8 bits5 c3 d: n! Z- X: D5 N0 V7 a
  21. Scan type                                : Progressive. S- K, w$ D$ H' [- U8 t9 ?
  22. Bits/(Pixel*Frame)                       : 0.143
    8 r# y, s" i" E2 A# a( t) `
  23. Stream size                              : 3.92 GiB (90%)0 @: T0 L6 j& l4 V
  24. Writing library                          : x264 core 148 r2623 d5b2374) W' N5 _# X  Z$ c- o5 B* m' a
  25. Encoding settings                        : cabac=1 / ref=4 / deblock=1:-1:-1 / analyse=0x3:0x133 / me=umh / subme=9 / psy=1 / psy_rd=1.00:0.15 / mixed_ref=1 / me_range=24 / chroma_me=1 / trellis=2 / 8x8dct=1 / cqm=0 / deadzone=21,11 / fast_pskip=1 / chroma_qp_offset=-3 / threads=34 / lookahead_threads=5 / sliced_threads=0 / nr=150 / decimate=1 / interlaced=0 / bluray_compat=0 / constrained_intra=0 / bframes=8 / b_pyramid=2 / b_adapt=2 / b_bias=0 / direct=3 / weightb=1 / open_gop=0 / weightp=2 / keyint=120 / keyint_min=61 / scenecut=0 / intra_refresh=0 / rc_lookahead=120 / rc=crf / mbtree=1 / crf=18.0 / qcomp=0.60 / qpmin=0 / qpmax=69 / qpstep=4 / vbv_maxrate=15000 / vbv_bufsize=31250 / crf_max=0.0 / nal_hrd=vbr / filler=0 / ip_ratio=1.40 / aq=3:1.00+ B# T- F- t/ f' x3 C8 W
  26. Default                                  : Yes
    ! H. s8 T. q4 }
  27. Forced                                   : No) a( G: `- \- Y/ N# J2 A+ b/ o
  28. Color range                              : Limited: ^7 @- y$ z) P5 @3 L  k
  29. Color primaries                          : BT.709( k0 E+ r; V2 R& m) T3 ^6 F6 L5 I# a
  30. Transfer characteristics                 : BT.709
    5 u9 f: l+ {& P! B, s* l# B
  31. Matrix coefficients                      : BT.709
    - Q- R# M4 e* e0 n7 @. X

  32. # a3 U1 y0 k- Q9 A. ~
  33. Audio$ d; k/ c" `8 s
  34. ID                                       : 2
    & s: S/ k& J: R* |; Y, Q7 \
  35. Format                                   : E-AC-3* S  ]$ _; g/ a, d
  36. Format/Info                              : Audio Coding 3* }* f3 d3 |6 |1 B' v1 u
  37. Format settings, Endianness              : Big
    $ v" h( P! G8 [! f+ C
  38. Codec ID                                 : A_EAC3
    : t9 L1 S/ B0 S7 l3 P$ J& A" N
  39. Duration                                 : 1h 18mn" M8 ^- y" m( E- }$ H
  40. Bit rate mode                            : Constant- T6 L" ~9 `$ K% B4 d
  41. Bit rate                                 : 640 Kbps
    5 I3 n( {# o% L: @) _2 \  o) c
  42. Channel(s)                               : 6 channels" x8 }. \, a- ?1 |
  43. Channel positions                        : Front: L C R, Side: L R, LFE# C* U: k# T: S7 l5 p
  44. Sampling rate                            : 48.0 KHz. v; n. v; t7 L
  45. Frame rate                               : 187.500 fps (256 spf)
    ! j, J( x. h. Q$ v. o8 W( D
  46. Compression mode                         : Lossy( w, `. S2 e5 A0 Q% ]$ M. I
  47. Stream size                              : 361 MiB (8%)
    ) S& s& F  o! g) {7 L1 c' r% F1 I
  48. Default                                  : Yes3 I" f% r% O9 e: t
  49. Forced                                   : No/ w2 n- `! B% F, E3 Q; b0 s
  50. . t  A$ a+ e- c0 v8 ^6 t4 C$ t
  51. Text+ D! a8 U, X3 H- ]0 P% Y
  52. ID                                       : 33 |! o7 ^2 i' g4 f" U/ k3 A
  53. Format                                   : UTF-8' D& `3 K$ c4 K, |& S' b; C
  54. Codec ID                                 : S_TEXT/UTF8
      C$ n7 A' g# {5 I" [: X& H& E
  55. Codec ID/Info                            : UTF-8 Plain Text9 y/ n- y" T8 l
  56. Title                                    : CC( I; A& j2 v, M- N& N7 C: W! Y# x
  57. Language                                 : English
    3 [# K7 m0 S( w
  58. Default                                  : No" x2 _$ K3 z6 O* G$ m8 v) o
  59. Forced                                   : No
复制代码

) W' u6 o" w# z4 p5 o
7 {6 w1 Y9 K0 Q' s2 Y, Q) y( f) y" V1 o& Z9 P7 `- I' }, N9 O6 Z# C# S4 C

) W) R5 o  A% p0 s; k  }8 i7 M
) ?3 b0 O( Y2 u2 I3 k4 e
! ^! ~0 ]9 Y* F4 l7 X9 N$ P: k% c2 g5 [3 \
; W. v: T2 E! l

9 o$ v+ @0 x* O% k. r8 V
游客,如果您要查看本帖隐藏内容请回复  捐助论坛可免回复查看隐藏内容详情请点击
HD一条街,身边的一条街。
发表于 2016-9-21 12:43:52 | 显示全部楼层
HD一条街, 是我心中的一条街
HD一条街,身边的一条街。
发表于 2016-9-21 17:46:14 | 显示全部楼层
来看看这部片怎么样
HD一条街,身边的一条街。
发表于 2016-9-22 08:34:41 | 显示全部楼层
壯陽的紀錄片嗎,感謝分享~~
HD一条街,身边的一条街。
发表于 2016-9-22 10:48:07 | 显示全部楼层
了解下  谢谢楼主发布
HD一条街,身边的一条街。
您需要登录后才可以回帖 登录 | 立即注册

本版积分规则

手机版|小黑屋|有问题发邮件到admin#(换成@)hd1tj.org|微博|免责申明|HD一条街

GMT+8, 2016-12-10 14:56

Powered by Discuz! X3.1

© 2001-2013 Comsenz Inc.

快速回复 返回顶部 返回列表