开启辅助访问 切换到窄版

HD一条街论坛

 找回密码
 加入我们
查看: 86|回复: 5

[欧美] 纪录片:癫狂!/沉默的睪羊(港) Nuts.2016.DOCU.1080p.WEBRip.DD5.0.x264-CtrlHD 4.36G

[复制链接]
发表于 2016-9-21 11:24:49 | 显示全部楼层 |阅读模式
184150074ca7cf767f60ca003c2eadad50b0fa30.jpg
7 I. E3 w4 G8 l' l' S- X
; y2 `4 p% D  H- O- e
; `0 W& b2 S/ Y) R* j9 ?! t0 K. i  U◎译  名 癫狂!/沉默的睪羊(港)( j& O- @+ D- ^8 @; ?
◎片  名 Nuts!( E% B$ N1 \9 \+ g
◎年  代 20163 |+ u* ?+ W8 S% I
◎国  家 美国
* d: u4 D4 z* b; D: C4 l◎类  别 纪录片! f& L' P: h. |
◎语  言 英语+ l% i' }/ U4 a' f' A: A( I* B# L
◎上映日期 2016-01-22(圣丹斯电影节)% r3 Z' R9 S% C5 z
◎IMDb评分  7.5/10 from 143 users
- j# `3 {4 ~0 H( N◎IMDb链接  http://www.imdb.com/title/tt5236900/4 e& B; v9 {+ p3 ]
◎豆瓣评分 7.6/10 from 14 users
% Q6 u. w9 N9 @( c$ P, c/ x◎豆瓣链接 https://movie.douban.com/subject/26677795/
8 I- Q& ~3 E" B) B, U" u◎片  长 79分钟
, A; ]% F4 a5 |8 k; R& B7 P+ ~- l4 x◎导  演 Penny Lane* \5 \, q: `0 R0 ?* w7 u

! p3 u0 R! b9 X. U& a( _+ \◎简  介
. O# K, o1 j2 F7 s$ \- b& ?4 a
6 w: O8 W' l. `9 U* }+ x: B  約翰拉姆斯賓克利(John Romulus Brinkley)是「威而鋼」的先驅,電台賣藥的始祖。他是天才還是騙子,是商人還是庸醫?
8 E3 S1 z% L  C0 V* h; D% }  賓克利醫生本來在堪薩斯州執業,有個農夫病患深受陽痿之苦,只能羨慕公羊每天「性」致勃勃。兩人突發奇想,何不把公羊睪丸移植到農夫身上?結果農夫不僅重振雄風,還一舉得子。妙手神醫傳遍千里,賓克利成了回春救星,他不僅賺了大錢擴建醫院,還經營公羊牧場,提供患者配對選擇;甚至成立電台,宣傳他的神奇植入術。口若懸河的電台賣藥始祖,與聽眾親切互動,名醫又變成空中張老師。4 j9 H' M0 Y6 U* P
  導演佩妮蓮恩除了邀請各界專家來解剖賓克利這個充滿爭議的人物,更大量使用手繪動畫再現當時的事件場景。類劇情片的敘事手法不僅挑戰傳統紀錄片,也像在提醒觀眾,說不定電影本身也是一場騙局。令這部妙趣橫生的奇片,更多了思辨的空間。
1 U0 v% _4 @( T. J4 T; x1 M6 C" U2 y) _7 M# r
◎获奖情况
8 w* Z5 w" |% l5 R
* A, X" P7 X8 `, C: a% d0 ^  第32届圣丹斯电影节  (2016)
+ O9 V' X+ I8 G1 L. F  评审团大奖 纪录片(提名)
  1. Video; M' G* |- i8 L: w
  2. ID                                       : 1
    : W5 u7 c5 r9 K% ^
  3. Format                                   : AVC5 h& c' L2 L3 z1 E- E5 P! r
  4. Format/Info                              : Advanced Video Codec" t" ?2 g$ {* H/ ?2 D4 Y1 f
  5. Format profile                           : [email protected]. G' E$ b" z1 F, W# {& k" c: c
  6. Format settings, CABAC                   : Yes2 \' ^5 k1 A( y- m2 q* G
  7. Format settings, ReFrames                : 4 frames
    ) o  d0 @' d/ D0 r! [: M- _
  8. Codec ID                                 : V_MPEG4/ISO/AVC
    ( t( T$ T* n) B; u; w; Y0 n# B
  9. Duration                                 : 1h 18mn3 l$ O1 B8 [, r* ]- e, `% g
  10. Bit rate mode                            : Variable5 E  M6 _5 f3 u, |
  11. Bit rate                                 : 7 119 Kbps
    ) s9 h- r6 t& S% p5 g: B7 O2 b# |
  12. Maximum bit rate                         : 15.0 Mbps
    7 [* J1 f9 [2 u7 W
  13. Width                                    : 1 920 pixels
    ' x* Z6 ~! L, `( W0 P
  14. Height                                   : 1 080 pixels
    1 H2 i& L9 m& U$ }' A/ u
  15. Display aspect ratio                     : 16:9+ j- ]: }# V. W5 l& C; z- u/ F
  16. Frame rate mode                          : Constant
    - K. D1 f9 J! S" r# c3 y
  17. Frame rate                               : 23.976 (24000/1001) fps2 P2 p7 p# D' `* \
  18. Color space                              : YUV' L8 Y* R& H% ^& t- c1 A' S# P9 J& J
  19. Chroma subsampling                       : 4:2:09 v( M* l+ y$ v  p# B
  20. Bit depth                                : 8 bits
      C# A- w' z9 F* G; W
  21. Scan type                                : Progressive' {# T  `7 c  t4 Z( n! Q6 [( {& N& i
  22. Bits/(Pixel*Frame)                       : 0.1437 r) B) c/ W2 a: r$ G9 w& L
  23. Stream size                              : 3.92 GiB (90%)
    ' X4 N3 v2 \  `' @$ ]
  24. Writing library                          : x264 core 148 r2623 d5b2374- b, _. h  |! ]' k
  25. Encoding settings                        : cabac=1 / ref=4 / deblock=1:-1:-1 / analyse=0x3:0x133 / me=umh / subme=9 / psy=1 / psy_rd=1.00:0.15 / mixed_ref=1 / me_range=24 / chroma_me=1 / trellis=2 / 8x8dct=1 / cqm=0 / deadzone=21,11 / fast_pskip=1 / chroma_qp_offset=-3 / threads=34 / lookahead_threads=5 / sliced_threads=0 / nr=150 / decimate=1 / interlaced=0 / bluray_compat=0 / constrained_intra=0 / bframes=8 / b_pyramid=2 / b_adapt=2 / b_bias=0 / direct=3 / weightb=1 / open_gop=0 / weightp=2 / keyint=120 / keyint_min=61 / scenecut=0 / intra_refresh=0 / rc_lookahead=120 / rc=crf / mbtree=1 / crf=18.0 / qcomp=0.60 / qpmin=0 / qpmax=69 / qpstep=4 / vbv_maxrate=15000 / vbv_bufsize=31250 / crf_max=0.0 / nal_hrd=vbr / filler=0 / ip_ratio=1.40 / aq=3:1.00, O- S8 i& @1 U9 Q% a+ R
  26. Default                                  : Yes5 r% `$ Q  i# y: m( \3 y. ^
  27. Forced                                   : No
    ( o! Q' h, G& Y% S) F3 y
  28. Color range                              : Limited! I& Z9 |# a* s* [
  29. Color primaries                          : BT.7091 I4 p6 b8 w7 h
  30. Transfer characteristics                 : BT.709
    & ^7 \4 J+ g/ v0 ~) }5 a
  31. Matrix coefficients                      : BT.709: D2 S1 N2 s! m0 e9 s) F
  32. 9 ]- w3 I: M/ {# q( z/ ^
  33. Audio% @5 C1 G2 Q2 Y% T6 k( G
  34. ID                                       : 2
    2 [6 O4 D0 x% q) H; j) A
  35. Format                                   : E-AC-3+ |" ?7 l9 D# t1 L: n& C
  36. Format/Info                              : Audio Coding 3( W4 ~1 Y( N: x" F5 `! m, _1 G
  37. Format settings, Endianness              : Big
    $ d9 y1 o- J* L! a! T6 [' L
  38. Codec ID                                 : A_EAC3
    5 u5 P! u% P9 {" L, L  C
  39. Duration                                 : 1h 18mn4 H, {& `* m7 W
  40. Bit rate mode                            : Constant8 d4 q; f8 g& w% m$ q7 }" v
  41. Bit rate                                 : 640 Kbps* q; H' p* F6 p
  42. Channel(s)                               : 6 channels+ W: Z+ y: T' a2 P! |& O# o4 w  n
  43. Channel positions                        : Front: L C R, Side: L R, LFE& Q, Y6 s! L; `: ]
  44. Sampling rate                            : 48.0 KHz
    4 Y; H, D' t2 S- n5 P& X- z
  45. Frame rate                               : 187.500 fps (256 spf)* J- ?3 s3 X- Z  _+ S
  46. Compression mode                         : Lossy3 o- [7 w6 F( k
  47. Stream size                              : 361 MiB (8%)5 g8 B% Y" C8 P$ k) K1 l/ a
  48. Default                                  : Yes
    8 T$ [* I- A' X2 o* V1 M
  49. Forced                                   : No
    : J) |, w& ?5 L6 z6 Q
  50. 4 q$ G4 V: ]% Q! ~. R; y7 a, `
  51. Text
    , r6 C# J7 D/ t. H$ O1 g8 i. w
  52. ID                                       : 3
    & ^* C" U/ X+ `; `0 A% W" w
  53. Format                                   : UTF-8  Q# B) O+ P. o. d2 ~$ p' F: K
  54. Codec ID                                 : S_TEXT/UTF8
    8 c+ d0 g; C; N' b
  55. Codec ID/Info                            : UTF-8 Plain Text% x, V/ _5 a* I
  56. Title                                    : CC$ s' U3 @; T6 ?1 H* _% v
  57. Language                                 : English' `1 H) w; P, n
  58. Default                                  : No2 t. j! f1 s2 Y. R) Q/ R* p/ e
  59. Forced                                   : No
复制代码
2 E; O% N' e3 m- p8 T
- x0 a# p1 V; l: _6 o% {
8 {4 ~5 z; l9 k8 X, [) U

+ k; h" w2 S# d* }+ X; h
* e4 }; B$ y1 t0 W9 a0 m
; g7 u9 P, p* v0 U( ~3 H& M8 a
& u5 P7 O* Y1 E
, B9 J* d) k, w) A5 Y" [8 B- [
& _  Y) W+ A) j5 C
游客,如果您要查看本帖隐藏内容请回复  捐助论坛可免回复查看隐藏内容 详情请点击
最近访问 头像模式 列表模式
HD一条街,身边的一条街。
发表于 2016-9-21 12:43:52 | 显示全部楼层
HD一条街, 是我心中的一条街
HD一条街,身边的一条街。
发表于 2016-9-21 17:46:14 | 显示全部楼层
来看看这部片怎么样
HD一条街,身边的一条街。
发表于 2016-9-22 08:34:41 | 显示全部楼层
壯陽的紀錄片嗎,感謝分享~~
HD一条街,身边的一条街。
发表于 2016-9-22 10:48:07 | 显示全部楼层
了解下  谢谢楼主发布
HD一条街,身边的一条街。
您需要登录后才可以回帖 登录 | 加入我们

本版积分规则

手机版|小黑屋|有问题发邮件到admin#(换成@)hd1tj.org|微博|免责申明|HD一条街

GMT+8, 2017-1-23 08:20

Powered by Discuz! X3.1

© 2001-2013 Comsenz Inc.

快速回复 返回顶部 返回列表