开启辅助访问 切换到窄版

HD一条街论坛

 找回密码
 立即注册
查看: 167|回复: 2

[欧美] 纪录片:遇见你之前/我就要你好好的(台) Hitchcock.Truffaut.2015.720p.DOCU.WEB-DL.DD5.1.H.264-FGT 2.47G

[复制链接]
发表于 2016-7-2 11:36:08 | 显示全部楼层 |阅读模式
p2333458839.jpg
3 {# B0 H9 C' p  d6 h% I1 }7 Z+ f0 k' b% x8 i: b
/ m3 N+ f$ D8 |2 K' A
◎译  名 希区柯克与特吕弗/希区柯克/特吕弗8 n6 }" n( ]: E, n0 D# l. s
◎片  名 Hitchcock/Truffaut
) ]$ I* X. Y- A& p+ q5 C3 p% N5 ^◎年  代 2015
$ h1 L) A0 m- L# L/ w5 K6 O  W◎国  家 美国/法国2 p8 C: a' h- H) d
◎类  别 纪录片1 T! T. t& ]& Y0 p* b; W
◎语  言 英语! B- Z8 d# D3 A% D8 t/ _
◎字  幕   N/A% j8 X  M  H& s& s' h
◎转  载   HD一条街 www.hd1tj.org
9 p" E7 S1 q0 m6 s; t◎上映日期 2015-05-19(戛纳电影节)/2016-04(北京电影节)2 G* r% X3 v% z% c9 {* z
◎IMDb评分  7.4/10 from 1,364 users4 Z/ U% b7 Z- c* p# s9 }
◎IMDb链接  http://www.imdb.com/title/tt3748512/  F* R+ @  a9 H/ q5 \3 h
◎豆瓣评分 8.0/10 from 424 users0 C. Q7 U$ \8 A( z* i1 D
◎豆瓣链接 https://movie.douban.com/subject/25893369/
- G0 ^& L4 ~1 s0 l: _  `◎片  长 79分钟& Q' J7 K( A  ]( S" r4 @: R
◎导  演 肯特·琼斯 Kent Jones
3 k! ?! X4 G# g. T, `( J! h8 ?' m6 K◎主  演 韦斯·安德森 Wes Anderson
2 y& C# J0 j# X4 r7 S0 W( b      奥利维耶·阿萨亚斯 Olivier Assayas
1 I( K  I' e7 s* Q      彼得·博格丹诺维奇 Peter Bogdanovich$ Q* E) z9 \# r3 V0 B, ?
      阿诺·德斯普里钦 Arnaud Desplechin
! k% S9 J5 L. m      大卫·芬奇 David Fincher
" _6 |$ b2 r% C, B5 g: h      詹姆士·格雷 James Gray) P- B/ }4 X$ e; @
      阿尔弗雷德·希区柯克 Alfred Hitchcock
) W) O7 o1 [$ a6 h  ^      黑泽清 Kiyoshi Kurosawa
( t3 p$ b- V+ i) G      理查德·林克莱特 Richard Linklater
! @7 @3 S% B# l" p2 R* u' V      保罗·施拉德 Paul Schrader
/ V5 b% r+ K% y3 m& u      马丁·斯科塞斯 Martin Scorsese
, X8 D/ [$ K, Y      弗朗索瓦·特吕弗 François Truffaut! r; `+ J% j$ H, q' O3 h# H1 a. }

' V( R: r8 A! W" R! Q( Z◎简  介
0 @! y( j; Z4 J) a
8 Y- k- a) Z0 W1 R9 N3 m, o* ^  这部纪录片展现特吕弗于1966年所著的《希区柯克论电影》如何影响了后辈导演们。该片受访者包括斯科塞斯,大卫芬奇,斯皮尔伯格,韦斯安德森,林克莱特,帕尔玛,阿萨亚斯,格雷等等。
  1. Video
    " H3 A# ]+ X9 N  L* }1 t
  2. ID                                       : 1
    + y5 u4 z# C! q& |
  3. Format                                   : AVC0 |" I/ c5 u0 t
  4. Format/Info                              : Advanced Video Codec
    * M( j, t2 ?5 c6 n  z/ T" {
  5. Format profile                           : [email protected]
    9 o! _8 v' X  L
  6. Format settings, CABAC                   : No
    $ F7 r" E- K$ }& L5 |3 X: u, I% a
  7. Format settings, ReFrames                : 2 frames
    2 f& `0 G" v! s* q  D" X
  8. Codec ID                                 : V_MPEG4/ISO/AVC3 Q# \) |, y* w* O& t3 O3 N) R
  9. Duration                                 : 1h 20mn( C8 {- k2 O4 R1 g
  10. Bit rate                                 : 3 948 Kbps
    3 U! `9 O1 N; e/ ]2 |- c6 ?
  11. Width                                    : 1 280 pixels! _( \2 E/ h; a  V
  12. Height                                   : 718 pixels" ?' \4 v1 z5 P
  13. Display aspect ratio                     : 16:9
    $ }5 {0 s) U9 S; O/ P# H
  14. Frame rate mode                          : Constant
    5 c) ~- C5 d7 P- S) y, L, I
  15. Frame rate                               : 23.976 fps# D' q/ }1 {4 _$ l
  16. Color space                              : YUV. M5 z+ U  v8 a( u
  17. Chroma subsampling                       : 4:2:0( e+ w# a' K! P0 i
  18. Bit depth                                : 8 bits
    5 S* k; r0 y8 _( ?, M0 L4 m
  19. Scan type                                : Progressive& }$ D) Y! h$ O& e' h, T- k# o% w  |
  20. Bits/(Pixel*Frame)                       : 0.1792 J' _% O5 ]& d$ C7 q0 _& Q
  21. Stream size                              : 2.21 GiB (89%)! o/ ^. e& T6 }& N7 n7 P' F8 _6 p
  22. Title                                    : Hitchcock.Truffaut.2015.720p.DOCU.WEB-DL.DD5.1.H.264-FGT
    " y, K) C7 D  X, Z1 N2 I3 b
  23. Language                                 : English8 d* y" N* u, ?, T; W7 G
  24. Default                                  : Yes
    , N% H; S9 E8 B0 u  u) t0 a
  25. Forced                                   : No
    3 W) X) W7 D9 t- M1 ^) ~% j5 l( ~
  26. Color range                              : Limited) B4 v- E8 L/ H0 Q" h) i2 }
  27. Color primaries                          : BT.7096 Y7 `" v4 z& }# p
  28. Transfer characteristics                 : BT.709
    4 ?1 L/ W4 O+ T; k& d
  29. Matrix coefficients                      : BT.709
    + I9 T# v% Q8 o( d! |
  30. 1 w" F) M* R- l( m! c) x4 e
  31. Audio9 I  j+ z$ p2 }7 n1 T3 `
  32. ID                                       : 2
    - l3 {" l9 x6 O/ Y$ n) u
  33. Format                                   : AC-3
    5 Q0 {- a. J& w) K) C
  34. Format/Info                              : Audio Coding 3
    ( I4 y3 ?7 z/ m/ G& n1 I
  35. Mode extension                           : CM (complete main)
    # h4 M( l" U; J+ Z, L
  36. Format settings, Endianness              : Big
    " j. m7 g3 V' B& q( {' P4 k9 j
  37. Codec ID                                 : A_AC3
    * F  ~) o! Z3 X
  38. Duration                                 : 1h 20mn7 Y! r: A! R. [* Z
  39. Bit rate mode                            : Constant" l, J1 p. o) L+ S- p& X4 ?
  40. Bit rate                                 : 384 Kbps# C7 ~) i' P1 r5 n0 s) h: ~7 t
  41. Channel(s)                               : 6 channels
    * L9 O; ]' v0 _. v; ]: W4 B
  42. Channel positions                        : Front: L C R, Side: L R, LFE
    " |7 H& C1 i2 q- {
  43. Sampling rate                            : 48.0 KHz# W# g9 G" y! J' i
  44. Frame rate                               : 31.250 fps (1536 spf)
    - ^$ b6 C& K" K. A. g
  45. Compression mode                         : Lossy
    6 C5 V" @( d& k- g7 u( Y3 H* F! v
  46. Stream size                              : 220 MiB (9%)
    ! x% A+ v4 D. f% b5 c% C
  47. Title                                    : Hitchcock.Truffaut.2015.720p.DOCU.WEB-DL.DD5.1.H.264-FGT
    8 v% Z% O- ]1 S8 y+ N" F4 E- e
  48. Language                                 : English/ Y3 }7 t/ O) i% C9 `$ ^7 _
  49. Default                                  : Yes
    ; ^* h% U6 ]; D/ o( y
  50. Forced                                   : No( n+ ~$ ]  j# k

  51. ) H# q% e* d5 ~: Q. E; C
  52. Menu$ T/ Q9 T9 g' N
  53. 00:00:00.000                             : en:19 G1 ~: T& }5 s, y
  54. 00:07:53.890                             : en:2( d. d" H& W& f5 @" u, L2 d
  55. 00:16:14.265                             : en:3
    9 i3 g  `8 u- z- A: Y
  56. 00:24:41.480                             : en:49 }0 Z- }8 _2 J% C# g1 ^
  57. 00:32:50.302                             : en:51 w$ e. O, q- {! X; c! c
  58. 00:40:22.295                             : en:6
    1 Q; l  {  [; N* K3 T3 P. G
  59. 00:48:12.390                             : en:7
    1 Y  W& d  l" {6 `' h0 A
  60. 00:54:24.637                             : en:8
    + @1 L' K7 e4 o6 v6 b* D
  61. 01:00:25.456                             : en:94 h$ Z% U4 n9 r% M* z3 X
  62. 01:07:30.422                             : en:10
复制代码

, j3 H1 S' I* h! M. f+ m9 O+ o- w( H4 e# j% i0 g* w1 `6 y8 `1 J
, v# B! ^+ N  r8 @$ G

$ o: D. B  X$ u2 ?) L5 b
4 z1 H% h, b' [- i
, @" u4 Q. x3 h% k9 ]. m1 j9 {; }$ I1 h/ L+ }. d6 W; f

& J9 y4 Z- x6 b( b% u5 g" e4 e1 y6 M4 W
游客,如果您要查看本帖隐藏内容请回复  捐助论坛可免回复查看隐藏内容 详情请点击
最近访问 头像模式 列表模式
HD一条街,身边的一条街。
发表于 2016-9-12 19:47:08 | 显示全部楼层
纪录片的名字好似电影一样浪漫
HD一条街,身边的一条街。
发表于 2016-12-20 09:16:53 | 显示全部楼层
一看名字以为是浪漫片,原来是希区柯克,谢谢分享!!!
HD一条街,身边的一条街。

手机版|小黑屋|有问题发邮件到admin#(换成@)hd1tj.org|微博|免责申明|HD一条街

GMT+8, 2017-3-29 09:29

Powered by Discuz! X3.1

© 2001-2013 Comsenz Inc.

快速回复 返回顶部 返回列表