开启辅助访问 切换到窄版

HD一条街论坛

 找回密码
 加入我们
查看: 151|回复: 2

[欧美] 纪录片:遇见你之前/我就要你好好的(台) Hitchcock.Truffaut.2015.720p.DOCU.WEB-DL.DD5.1.H.264-FGT 2.47G

[复制链接]
发表于 2016-7-2 11:36:08 | 显示全部楼层 |阅读模式
p2333458839.jpg 2 B  T6 j8 a$ D4 o: Y/ ]
3 V4 i6 f, @. K- B/ A

, i9 M! D5 S  M1 N! Y8 G◎译  名 希区柯克与特吕弗/希区柯克/特吕弗5 q: s. f, z) W# `$ W
◎片  名 Hitchcock/Truffaut
, u; n% [, s( F6 l6 }9 Q6 u◎年  代 2015+ P1 P" p$ T- L' ~; p$ u0 `( _0 P
◎国  家 美国/法国
1 f  e9 M8 j7 @5 ?! E◎类  别 纪录片
: U6 O4 C2 }8 M/ R; G+ l# ?* w◎语  言 英语
$ |, X: h8 }6 ~0 n- E◎字  幕   N/A+ L: v- ?% S  A2 g  o
◎转  载   HD一条街 www.hd1tj.org
0 x! J! G( n3 r- k* H$ F1 `! o4 r◎上映日期 2015-05-19(戛纳电影节)/2016-04(北京电影节)
; g! B( n* Q8 m& n! b◎IMDb评分  7.4/10 from 1,364 users6 j; c1 y  X2 y5 z) f; {
◎IMDb链接  http://www.imdb.com/title/tt3748512/
) b* W5 I1 i% \◎豆瓣评分 8.0/10 from 424 users1 H) J3 W0 \2 \. |7 d
◎豆瓣链接 https://movie.douban.com/subject/25893369/; \  G6 r) E7 D, R1 h
◎片  长 79分钟
* N* v: W+ P9 i3 ?◎导  演 肯特·琼斯 Kent Jones. ^3 q* _3 }' C0 e9 O# t: v! P+ N" j
◎主  演 韦斯·安德森 Wes Anderson
* w: Q% y; m$ }; ]# M0 M! Z* W      奥利维耶·阿萨亚斯 Olivier Assayas+ s6 }$ @+ Q; M. h
      彼得·博格丹诺维奇 Peter Bogdanovich
3 H, E+ A3 \- J  H9 @0 }8 l      阿诺·德斯普里钦 Arnaud Desplechin" ?9 O6 B/ E! U
      大卫·芬奇 David Fincher, e6 `3 h* W; D; c
      詹姆士·格雷 James Gray! J  Y& L0 f& s' Y
      阿尔弗雷德·希区柯克 Alfred Hitchcock- l$ @$ _, w0 \7 T, U
      黑泽清 Kiyoshi Kurosawa
9 f$ \3 @9 r5 ^) }8 o( o7 K+ V      理查德·林克莱特 Richard Linklater
4 F; {& ?" L; f' [% B# ^      保罗·施拉德 Paul Schrader
! f4 E; [  E: D- q+ \( h1 `! ^      马丁·斯科塞斯 Martin Scorsese
4 G' l1 @# I3 W8 R& k0 G' N) x6 j" n1 U      弗朗索瓦·特吕弗 François Truffaut; H; p1 u9 N+ O0 R' J8 |% D

; z' U( m/ h9 s$ B7 E$ o" ^+ n◎简  介3 Y" @$ w7 m& b  y

  w: k9 ^& ^& Y$ C1 {) U  这部纪录片展现特吕弗于1966年所著的《希区柯克论电影》如何影响了后辈导演们。该片受访者包括斯科塞斯,大卫芬奇,斯皮尔伯格,韦斯安德森,林克莱特,帕尔玛,阿萨亚斯,格雷等等。
  1. Video
    : X  o+ ^5 U  \% A4 n
  2. ID                                       : 1
    : M% N% a+ |& ^
  3. Format                                   : AVC% m  m+ I# {4 O, g
  4. Format/Info                              : Advanced Video Codec
    8 [5 e, `" ?' B! o2 u
  5. Format profile                           : [email protected]7 S1 \( H2 F0 Z) @' o. E
  6. Format settings, CABAC                   : No4 l$ M$ E- _. A$ q2 t2 y
  7. Format settings, ReFrames                : 2 frames9 x6 H% w; {) J1 ]9 l' P
  8. Codec ID                                 : V_MPEG4/ISO/AVC
    2 X  s0 t7 X) B" m& o  [: |
  9. Duration                                 : 1h 20mn
    - E# y# }4 U# d1 q
  10. Bit rate                                 : 3 948 Kbps
    " v  e9 _0 g, ]" y
  11. Width                                    : 1 280 pixels% G  A$ l# [$ I" Q& q* e* S
  12. Height                                   : 718 pixels
    ! A# f0 j0 P; l1 X- s7 @; S
  13. Display aspect ratio                     : 16:9
    # d- ^% |' X. K9 a4 R
  14. Frame rate mode                          : Constant
    0 S- g1 o6 r2 D/ P* I/ }1 I+ `6 b
  15. Frame rate                               : 23.976 fps
    # y( u$ ^! H* f$ s$ ?
  16. Color space                              : YUV
    ' Y0 A6 c! \& n0 u' k9 C) v
  17. Chroma subsampling                       : 4:2:0
    # W  P. H  {, H& K7 g. D3 s( c' `
  18. Bit depth                                : 8 bits
    + M8 w3 `  K# s- u/ S4 ~
  19. Scan type                                : Progressive
    ! {6 Q, r; f+ Z# n+ y5 _
  20. Bits/(Pixel*Frame)                       : 0.179
    # J, J* W& k( g
  21. Stream size                              : 2.21 GiB (89%): B. K& t+ k. b7 l8 F1 a& @
  22. Title                                    : Hitchcock.Truffaut.2015.720p.DOCU.WEB-DL.DD5.1.H.264-FGT7 v% e% @2 l4 i7 ?) g
  23. Language                                 : English
    0 {% z, P' }# I- }+ r2 ~
  24. Default                                  : Yes
    # \0 g5 _' X9 X# u2 T# V- z
  25. Forced                                   : No
    % ]# X: X& N' ^% k( {
  26. Color range                              : Limited0 Q1 ~+ ~* ?$ F  Y3 o  L: Y
  27. Color primaries                          : BT.709
    % O8 s% P) |; f" U) N! L/ J
  28. Transfer characteristics                 : BT.709
    7 o' G9 \: c/ K
  29. Matrix coefficients                      : BT.7094 @& _: E& D, U+ o: |" m
  30. 6 K$ {2 q7 e) ?; O7 A% ~
  31. Audio- j, A' T8 L$ q" {1 }0 J" q
  32. ID                                       : 2* l1 {7 ], I' t0 m2 C; G9 o: B  V
  33. Format                                   : AC-3
    0 G8 O) x0 i" ^. S; O; r0 y: B) J
  34. Format/Info                              : Audio Coding 3/ v% q" E1 l+ ~* K6 e
  35. Mode extension                           : CM (complete main)4 g: n9 b/ j+ u. x
  36. Format settings, Endianness              : Big) d& i+ L* U- G* w: G+ ]# D
  37. Codec ID                                 : A_AC3
    6 Z# i' ?& [0 v- c9 ~
  38. Duration                                 : 1h 20mn
    3 x0 u7 j* F3 M6 R+ A
  39. Bit rate mode                            : Constant
    : d% ^- i+ b! p2 W3 e8 y! X
  40. Bit rate                                 : 384 Kbps
    , Y8 E5 f! @! o
  41. Channel(s)                               : 6 channels
    ( k2 d- m% E& {$ j0 z& \& f' |& x
  42. Channel positions                        : Front: L C R, Side: L R, LFE5 S2 d% l" W1 \
  43. Sampling rate                            : 48.0 KHz
    8 k* g' O+ Z' V  o" j( f# K, P5 ~
  44. Frame rate                               : 31.250 fps (1536 spf)
    2 X( N5 S4 B* Y8 h$ X
  45. Compression mode                         : Lossy% c9 v  Z6 {: Z, _0 B
  46. Stream size                              : 220 MiB (9%)5 F6 w$ t  x2 K' D& m. u4 \% ^
  47. Title                                    : Hitchcock.Truffaut.2015.720p.DOCU.WEB-DL.DD5.1.H.264-FGT% ]3 ^0 O* x/ i
  48. Language                                 : English
    2 r% f. T  @: e9 @" S
  49. Default                                  : Yes8 E; L( w  }! u: o# ]+ x$ f" c3 {5 b
  50. Forced                                   : No
    3 L% M9 r/ f; Q
  51. ! ^4 b* q5 j; q4 n3 W( V
  52. Menu
    ; P6 q5 n9 M4 ~* j& k
  53. 00:00:00.000                             : en:1! [* R) H* `5 }# y  f
  54. 00:07:53.890                             : en:2
    2 p8 e( g+ q+ e% ]) Q
  55. 00:16:14.265                             : en:36 y" w# y' O* f* n9 L
  56. 00:24:41.480                             : en:4
    % J: J, [' q% G$ g. f+ ~4 f
  57. 00:32:50.302                             : en:5& m+ k/ G6 G# i0 R
  58. 00:40:22.295                             : en:6
    9 B4 ]9 Q  F' e' F
  59. 00:48:12.390                             : en:73 [9 X% a8 M6 e' o5 L# {8 Z/ u
  60. 00:54:24.637                             : en:82 B: ^" v- ^) p8 S2 Q; v% w
  61. 01:00:25.456                             : en:9
    ; b4 K$ m, h% }' N+ z7 j. S  ^
  62. 01:07:30.422                             : en:10
复制代码
$ C# B: e* Q9 f: G% h

6 S- @% q& D1 H& t9 k; t) O' |" W* W
3 p( e0 D1 N# v6 `, C6 j

  F* A/ s( }' n4 }6 }" R8 O- _) \& f' F" ]4 A) l
7 ]9 W* B5 ~1 q5 P; D6 V
) t- ~+ G, E) y7 Y- r+ b$ _) `
7 Q8 O; q$ L* d" y& y1 ?
游客,如果您要查看本帖隐藏内容请回复  捐助论坛可免回复查看隐藏内容 详情请点击
最近访问 头像模式 列表模式
HD一条街,身边的一条街。
发表于 2016-9-12 19:47:08 | 显示全部楼层
纪录片的名字好似电影一样浪漫
HD一条街,身边的一条街。
发表于 2016-12-20 09:16:53 | 显示全部楼层
一看名字以为是浪漫片,原来是希区柯克,谢谢分享!!!
HD一条街,身边的一条街。
您需要登录后才可以回帖 登录 | 加入我们

本版积分规则

手机版|小黑屋|有问题发邮件到admin#(换成@)hd1tj.org|微博|免责申明|HD一条街

GMT+8, 2017-1-21 04:11

Powered by Discuz! X3.1

© 2001-2013 Comsenz Inc.

快速回复 返回顶部 返回列表