开启辅助访问 切换到窄版

HD一条街论坛

 找回密码
 立即注册
查看: 125|回复: 1

[欧美] 纪录片:遇见你之前/我就要你好好的(台) Hitchcock.Truffaut.2015.720p.DOCU.WEB-DL.DD5.1.H.264-FGT 2.47G

[复制链接]
发表于 2016-7-2 11:36:08 | 显示全部楼层 |阅读模式
p2333458839.jpg , i4 P2 T* R1 F2 i( F
& |0 N2 @+ u/ @4 B* C  z* v; V" N8 l) \

: R, l4 b3 i2 u% e◎译  名 希区柯克与特吕弗/希区柯克/特吕弗
) u" @5 E: {& K" b. o4 O+ ]" {◎片  名 Hitchcock/Truffaut
2 O4 D3 t' ?1 F2 c; p8 w◎年  代 2015
0 B4 h/ v9 M+ [  Q8 O+ u1 t◎国  家 美国/法国
% M7 p  b) t. x/ @2 {◎类  别 纪录片& X7 w& V" N4 \0 l* E' E
◎语  言 英语
1 L. b8 ?9 f/ a* n, `$ I0 U# e/ |◎字  幕   N/A
! ?( P2 I: o/ N6 D, |# c◎转  载   HD一条街 www.hd1tj.org
" ^/ p, s; D4 u/ ?# [' f◎上映日期 2015-05-19(戛纳电影节)/2016-04(北京电影节). r+ t( k; h8 A3 ?1 w
◎IMDb评分  7.4/10 from 1,364 users
. T  m8 B3 r9 M/ _' F7 M◎IMDb链接  http://www.imdb.com/title/tt3748512/, m( M. F( a$ K: J
◎豆瓣评分 8.0/10 from 424 users8 Z4 k6 s- Z! b& _
◎豆瓣链接 https://movie.douban.com/subject/25893369/. g( l. ?: c4 b, z
◎片  长 79分钟
6 s) ]2 E7 n7 D◎导  演 肯特·琼斯 Kent Jones5 L* A8 ?/ ~, [# \. }0 S. t/ I
◎主  演 韦斯·安德森 Wes Anderson; F) A2 H6 B2 {  K
      奥利维耶·阿萨亚斯 Olivier Assayas
) V( G, w# ~2 D4 F      彼得·博格丹诺维奇 Peter Bogdanovich5 s# F" V% C! T: \5 s
      阿诺·德斯普里钦 Arnaud Desplechin
* G4 S3 J- x# a      大卫·芬奇 David Fincher
9 ^" B) ?( B; G2 E) M0 |      詹姆士·格雷 James Gray) H) F3 `' G: C8 v! s( x
      阿尔弗雷德·希区柯克 Alfred Hitchcock& Y' ~2 T3 p% j# I9 m# ~  O
      黑泽清 Kiyoshi Kurosawa( x. E! i8 ?, j
      理查德·林克莱特 Richard Linklater
' }6 k, Z8 ]& c2 D8 i2 E0 L      保罗·施拉德 Paul Schrader1 j* R# H- K3 a
      马丁·斯科塞斯 Martin Scorsese
! l# ^  z- ^& C. ~0 g      弗朗索瓦·特吕弗 François Truffaut) J5 i: V$ A2 w  U
3 e. r3 r7 y# v+ k$ k5 W5 [
◎简  介
( |  V+ O) I4 m( o" s' m$ `- c2 u1 a: N5 P$ U$ R; V
  这部纪录片展现特吕弗于1966年所著的《希区柯克论电影》如何影响了后辈导演们。该片受访者包括斯科塞斯,大卫芬奇,斯皮尔伯格,韦斯安德森,林克莱特,帕尔玛,阿萨亚斯,格雷等等。
  1. Video
    + V$ t4 \; D* p9 R; V0 s% m" V
  2. ID                                       : 15 J& p! [$ j: W
  3. Format                                   : AVC
    + t$ l! Q' b* Q; K5 z" b. K' v: I6 [9 L1 h
  4. Format/Info                              : Advanced Video Codec
      ]/ `9 ~% n& e) b# v) x' |
  5. Format profile                           : [email protected]
    5 W; E/ v* n& [& e" E* `
  6. Format settings, CABAC                   : No
    ; l8 e8 Y1 j) ?: B* m% _
  7. Format settings, ReFrames                : 2 frames
    & O; X/ ^8 p& ]( C* H; U* Q* U" L
  8. Codec ID                                 : V_MPEG4/ISO/AVC
    ; j  P! u4 {. \. A2 d3 G: Z5 i
  9. Duration                                 : 1h 20mn: O; R5 z+ g, `3 ]. {
  10. Bit rate                                 : 3 948 Kbps
    7 Z3 _# {2 q+ d6 E8 G" m2 x
  11. Width                                    : 1 280 pixels
    0 g, Q. N6 L" T8 f  l+ |& H. z& a
  12. Height                                   : 718 pixels7 B5 |$ N; Y, [2 r. f5 H
  13. Display aspect ratio                     : 16:9
    $ `4 R7 n% Z; g9 }  n2 D2 r$ ~6 k
  14. Frame rate mode                          : Constant
    ' x9 ]/ o8 R& u2 Q6 V- W
  15. Frame rate                               : 23.976 fps
    ( D" h* W( i6 X  q! E3 {% _
  16. Color space                              : YUV) K7 F; ]8 h8 ^+ B( j
  17. Chroma subsampling                       : 4:2:0( I4 }; S2 ]9 j. R# A1 V" Z
  18. Bit depth                                : 8 bits" u; l; T9 a2 O* K2 o
  19. Scan type                                : Progressive  O; H; q7 B) r7 ~# f
  20. Bits/(Pixel*Frame)                       : 0.179
    + W4 B, \1 Y3 z# L
  21. Stream size                              : 2.21 GiB (89%)/ A+ m3 k  Z$ W9 y
  22. Title                                    : Hitchcock.Truffaut.2015.720p.DOCU.WEB-DL.DD5.1.H.264-FGT) n, \; D7 g" ?9 v
  23. Language                                 : English
    / d) J' E: b2 Q9 j- f
  24. Default                                  : Yes( g8 _' r. B% n
  25. Forced                                   : No; O5 C3 ?- T& P! ]$ n
  26. Color range                              : Limited
    1 X+ i5 R* L7 u! \7 _# S3 M- W
  27. Color primaries                          : BT.709
    0 \3 I( t( F& F5 p1 S
  28. Transfer characteristics                 : BT.709
    , ^+ e: o9 S$ e3 j
  29. Matrix coefficients                      : BT.709- X2 {6 o6 I$ W3 E6 u4 ?

  30. 3 N- U- ?2 [& u2 g: M2 Z# Z
  31. Audio
    7 O( g, s' F; S; F* N, G3 d' t
  32. ID                                       : 2; [8 l; O* ]% M' d. v6 o5 M1 H) @
  33. Format                                   : AC-38 m& M& Y5 w' {) W
  34. Format/Info                              : Audio Coding 3
    ; b" l9 x1 v/ E; U' ]/ a
  35. Mode extension                           : CM (complete main)5 Z8 q, |# z. M$ e
  36. Format settings, Endianness              : Big* \% m3 U! t6 W, w
  37. Codec ID                                 : A_AC3
    6 \4 k! X' k; D0 O; B: ^
  38. Duration                                 : 1h 20mn7 P* p. d+ C- g9 z6 O7 V, |
  39. Bit rate mode                            : Constant/ m7 N: Z% Z6 o& u
  40. Bit rate                                 : 384 Kbps( @! \) M* O8 A; l6 l/ U- X6 s
  41. Channel(s)                               : 6 channels( p6 r, F/ t7 I
  42. Channel positions                        : Front: L C R, Side: L R, LFE
    ' c2 r: d' n8 F4 h2 q$ p
  43. Sampling rate                            : 48.0 KHz- |& x* X" I- J8 r: Z
  44. Frame rate                               : 31.250 fps (1536 spf)% U! v" D* d% {* e8 t
  45. Compression mode                         : Lossy+ G1 m/ o. n% z# }
  46. Stream size                              : 220 MiB (9%)
    1 h( ?! s- s5 r1 v3 e1 T6 y" r! o
  47. Title                                    : Hitchcock.Truffaut.2015.720p.DOCU.WEB-DL.DD5.1.H.264-FGT7 ]/ O) k& C0 r' x5 V3 q
  48. Language                                 : English' `7 M# e! X" `) U' N2 F
  49. Default                                  : Yes: z0 x1 E2 l2 |$ H) @. T, k: T/ G; D( V- t
  50. Forced                                   : No9 z" g2 \% S; B; A- @/ T$ N
  51. + _! E$ b  I- A- M& j
  52. Menu
    9 L/ B( y6 a; F+ [# ~
  53. 00:00:00.000                             : en:16 f4 `/ O1 ]2 y1 _: M
  54. 00:07:53.890                             : en:20 g0 E& t5 ~8 e/ @. q
  55. 00:16:14.265                             : en:3
    " G6 s* Q% i# j
  56. 00:24:41.480                             : en:41 M$ w1 [3 {) K/ }1 a/ r$ R# K
  57. 00:32:50.302                             : en:5
    % V2 j8 A7 G5 z/ c* K9 F8 A% g# |  d" w
  58. 00:40:22.295                             : en:6+ C7 Z. i8 j* i) P7 O( v
  59. 00:48:12.390                             : en:7) C, p& L" M7 g; q" f2 t
  60. 00:54:24.637                             : en:8
    ( j* U) Q7 O& L
  61. 01:00:25.456                             : en:9
    * \4 z) a$ e$ Z" v- ?& h, Q! f
  62. 01:07:30.422                             : en:10
复制代码
9 n# P' a6 f; C6 j. Y. p% m

6 n- [+ R1 o; t: [$ n
; a8 }- p$ o6 N) k5 Q$ b# u$ l/ p- T  M0 N( |9 ~/ ~  _
' X9 [0 y4 x* T
5 G& r% L" Y+ w5 l' q* s8 D! n

& Z* f% `6 E$ U$ T1 V, P2 w' d( v' {# `: V3 e. X1 l4 M0 q

5 W# f) d# v& u2 n  |* @
游客,如果您要查看本帖隐藏内容请回复  捐助论坛可免回复查看隐藏内容详情请点击
最近访问 头像模式 列表模式
HD一条街,身边的一条街。
发表于 2016-9-12 19:47:08 | 显示全部楼层
纪录片的名字好似电影一样浪漫
HD一条街,身边的一条街。
您需要登录后才可以回帖 登录 | 立即注册

本版积分规则

手机版|小黑屋|有问题发邮件到admin#(换成@)hd1tj.org|微博|免责申明|HD一条街

GMT+8, 2016-12-6 16:13

Powered by Discuz! X3.1

© 2001-2013 Comsenz Inc.

快速回复 返回顶部 返回列表