开启辅助访问 切换到窄版

HD一条街论坛

 找回密码
 加入我们
查看: 289|回复: 5

[欧美] 纪录片:俄罗斯啄木鸟 The.Russian.Woodpecker.2015.DOCU.720p.WEB-DL.DD5.1.H264-FGT 2.48G

[复制链接]
发表于 2016-5-29 10:33:11 | 显示全部楼层 |阅读模式
12.jpg
6 j. Z4 ?1 _9 Z7 U& i
# G5 q% o& o5 D
8 E: a" M" c: W. R3 z6 J◎译  名 俄罗斯啄木鸟
- @) @$ a! o# D- o) s5 o◎片  名 The Russian Woodpecker
; {( V+ }+ `6 i◎年  代 2014' w" K/ h! @0 ^* h+ I
◎国  家 美国/英国/乌克兰! Y3 i4 F' Y% ^% B* F/ b( M8 B
◎类  别 历史/纪录片
1 S5 u: U$ M& M+ G4 g0 f! M4 `◎语  言 俄语
' ?% Z+ x) ~( d$ T- K2 J0 R* o◎IMDb评分  7.1/10 from 517 users) f" N# I% j: u/ a: l* N
◎IMDb链接  http://www.imdb.com/title/tt4082596/
4 A) O# P' J  E◎豆瓣评分 0/10 from 7 users5 C6 U& G, x5 D' [, i' n$ W
◎豆瓣链接 https://movie.douban.com/subject/26276508/. _" \0 L, Y0 f4 J- y
◎片  长 72分钟
/ b% l' U  U$ d# {1 ^6 Z◎导  演 Chad Gracia
3 N9 ^# A' c) W& _0 N; w. v; ?) p& q) N0 k$ X
◎简  介* m& ]' e$ u5 z+ v+ R; O1 x
- ~4 t3 E7 @2 q- L* m- i  Z, `1 |
  As his country is gripped by revolution and war, a Ukrainian victim of the Chernobyl nuclear disaster discovers a dark secret and must decide whether to risk his life and play his part in the revolution by revealing it.0 R& ]# i! ?  E0 k

& K! Z- T% ]1 p# N! p: z◎获奖情况# O/ L8 E: V5 r' N
4 u: h0 X: |2 h: V! @
  第31届圣丹斯电影节  (2015)) ~2 k% f; b$ v6 l# E4 s- Y
  评审团大奖 世界电影单元纪录片7 c8 Y" b0 ?8 z3 B7 |

' ]4 |" C$ G. `- Z$ B5 a  第31届美国独立精神奖  (2016)1 y% i8 E$ x1 ^4 x- h
  最佳纪录片(提名) Mike Lerner
  1. Video9 K/ P& ?& N# j
  2. ID                                       : 1
    , m3 O) v6 I, i$ i- a
  3. Format                                   : AVC) k, Q6 d7 V$ W5 N2 K' a) O; S2 \
  4. Format/Info                              : Advanced Video Codec
    : p' ^* f5 K5 V; S
  5. Format profile                           : [email protected]7 w, G; C# Y! M3 J/ v% B* T/ ?
  6. Format settings, CABAC                   : No
    7 p/ V/ W1 ?1 M$ V( M6 P! n  o2 Z2 a9 k- J
  7. Format settings, ReFrames                : 2 frames- v# Y: U  X8 R2 d0 ~* ^/ T  Q
  8. Codec ID                                 : V_MPEG4/ISO/AVC2 C* F4 p, |+ z: ^
  9. Duration                                 : 1h 21mn. H4 M. D# J$ u$ s* a
  10. Bit rate                                 : 3 910 Kbps7 v! P4 `" y. P. }! F
  11. Width                                    : 1 280 pixels( D+ k) p9 j' X0 W" d$ @
  12. Height                                   : 720 pixels  r/ U4 }. |3 r
  13. Display aspect ratio                     : 16:9
    , @- q( [7 y, I2 }* K( c2 g
  14. Frame rate mode                          : Constant
    $ T* ?( w; `# K$ z2 J
  15. Frame rate                               : 23.976 fps* n- d8 A6 I8 Q  l; Q  u
  16. Color space                              : YUV! m' r( o3 N( s5 i$ @
  17. Chroma subsampling                       : 4:2:0  B5 `2 G# s& v; ]* L3 m
  18. Bit depth                                : 8 bits
    2 R- q4 d9 B) V" a7 n9 Z
  19. Scan type                                : Progressive
    - Z2 ^- B9 O1 h' {% K5 R
  20. Bits/(Pixel*Frame)                       : 0.177' Q$ E3 D5 U: z9 R( i
  21. Stream size                              : 2.21 GiB (89%)
    7 n/ S8 V$ N. X) h2 ~
  22. Title                                    : The.Russian.Woodpecker.2015.DOCU.720p.WEB-DL.DD5.1.H264-FGT6 _% A' `7 a# M+ _' d, B
  23. Language                                 : English6 G  f( c$ W/ Z. I
  24. Default                                  : Yes$ N( @4 U; C# W. m! N) {4 T
  25. Forced                                   : No
    8 h) i! f3 M, ]7 w9 L6 \8 m& A* |
  26. Color range                              : Limited  Y' J4 K& Z4 w7 D3 ^' n+ i
  27. Color primaries                          : BT.7097 D; [% X3 m" K2 A) l
  28. Transfer characteristics                 : BT.709/ g% z) J( K6 ?! N2 \! j+ ]! C+ r( `
  29. Matrix coefficients                      : BT.709( x. h  ], z2 W9 o# `

  30. 6 o; c" j  a4 l- Z
  31. Audio
      q3 [* S  z% V
  32. ID                                       : 2
    # \6 B5 T9 P# `$ ^* ]
  33. Format                                   : AC-3$ B; a: h- D6 u1 c0 @& c) G! {
  34. Format/Info                              : Audio Coding 3
    # u3 M( S) M( t8 S  Z% T/ ^7 M9 f, I2 g
  35. Mode extension                           : CM (complete main)
    1 I* e% c# g& V, d' E5 C& ^/ w: T" E
  36. Format settings, Endianness              : Big
    % J  X  H" Z7 E
  37. Codec ID                                 : A_AC3
    . t- k* y# p! J: A/ E+ D
  38. Duration                                 : 1h 21mn7 p. [" ]1 x4 T7 U0 y" j) Y
  39. Bit rate mode                            : Constant
    8 m1 q+ p+ R  f- C2 M1 V6 e* O
  40. Bit rate                                 : 384 Kbps' @( V, O7 D4 H( P
  41. Channel(s)                               : 6 channels. B# G8 a6 d& |: [1 T; D% b
  42. Channel positions                        : Front: L C R, Side: L R, LFE% n/ H+ C' S% y. E
  43. Sampling rate                            : 48.0 KHz( t9 F! z/ l& _
  44. Frame rate                               : 31.250 fps (1536 spf)3 T/ H3 e. I: J4 P$ e
  45. Compression mode                         : Lossy
    - X8 Z# ^" Y/ |, g" P2 P* q5 f
  46. Stream size                              : 223 MiB (9%)7 C( y6 k+ ?: |1 `- R' V; ^
  47. Title                                    : The.Russian.Woodpecker.2015.DOCU.720p.WEB-DL.DD5.1.H264-FGT
    * e& _9 F2 M* u7 W# t$ T5 x
  48. Language                                 : English9 P! H' T( r# u
  49. Default                                  : Yes
    3 E) V' V: D1 s4 z+ |
  50. Forced                                   : No
    ' p1 `* J* c1 e
  51. : [: o6 R5 i7 _! O' ~0 _4 H
  52. Text #1
    6 l% [. T' @3 C' S( j
  53. ID                                       : 32 D# V' g2 F& y) o' Q( K2 i; X5 I
  54. Format                                   : UTF-8) S7 X1 u) L8 q1 w9 i" J6 s0 i
  55. Codec ID                                 : S_TEXT/UTF8) r: v: |# ^* `9 P" J1 R2 p
  56. Codec ID/Info                            : UTF-8 Plain Text
      ]* Z# x5 ]$ Z) I/ j% x: T7 R
  57. Language                                 : English% ^: s$ F  @' e+ z
  58. Default                                  : Yes
    # C# L; E& A7 u
  59. Forced                                   : Yes; |% [; ^$ H4 ^- Y7 S8 A7 e* j

  60. ( W3 W" l! h. p9 D* s2 O: a* x3 S& v
  61. Text #2
    % o% m# v2 m% i- E7 {8 o
  62. ID                                       : 4
    7 \0 ^9 E  Z' `5 Q
  63. Format                                   : UTF-83 u9 q! }, E! |# Q" |. i2 E
  64. Codec ID                                 : S_TEXT/UTF8
    6 ]: B+ ~( r4 T, V( H
  65. Codec ID/Info                            : UTF-8 Plain Text
      a; i( s1 f! x( q
  66. Language                                 : Spanish4 C0 ?( u! @2 a, c* J$ Z% M
  67. Default                                  : No
    ! v% }. X2 T7 E6 }" N% l
  68. Forced                                   : No9 c( s+ N  Q  S

  69. ( T+ q. d, l$ {2 ~4 V- o6 \
  70. Menu$ |+ M* {% w$ ?  i
  71. 00:00:00.000                             : en:17 g- H: I& ], X. v
  72. 00:14:25.000                             : en:2
    # G; b! G7 I0 ?  K$ g6 E
  73. 00:29:48.000                             : en:3
    ( F3 B( `8 H1 E6 A  z! P
  74. 00:43:44.000                             : en:44 c9 H& ?; j- X& f" o
  75. 00:56:53.000                             : en:5
    ) {! D- {4 I. @+ [: ]
  76. 01:07:44.000                             : en:6
      }6 t; j5 T6 L& ~+ ?' I$ u
  77. 01:18:02.000                             : en:73 r/ W( M$ D5 T1 y2 K- y
复制代码
. X7 L9 ?% f7 X3 b- K" E, Z+ ~+ ~

& k7 @5 n2 w5 p9 X  b7 `: i+ V
2 m& P/ C- c# f- U
6 T5 R- w4 A" k. p* l3 W8 D6 D' Q3 e0 N6 N

' E6 j! Q% Q7 A6 a% F+ N( R$ V" ~! a
# B  Y2 e! I: w& ^( O0 c
! Z0 t9 a7 ?% n$ L+ T, Y7 p6 M& p
游客,如果您要查看本帖隐藏内容请回复  捐助论坛可免回复查看隐藏内容 详情请点击
最近访问 头像模式 列表模式
HD一条街,身边的一条街。
发表于 2016-5-29 12:39:48 | 显示全部楼层
啄木鸟!我还以为是法国的某个啄木鸟呢,支持楼主发片
HD一条街,身边的一条街。
发表于 2016-5-29 13:01:05 来自手机 | 显示全部楼层
俄罗斯的啄木鸟,和大陆的长得不都一样嘛?
HD一条街,身边的一条街。
头像被屏蔽
发表于 2016-5-31 18:50:01 | 显示全部楼层
提示: 作者被禁止或删除 内容自动屏蔽
HD一条街,身边的一条街。
发表于 2016-6-3 12:52:28 | 显示全部楼层
啄木鸟还是讲人
HD一条街,身边的一条街。
发表于 2016-6-15 17:25:43 | 显示全部楼层
下载收藏,谢谢版主!支持hd1tj!
HD一条街,身边的一条街。
您需要登录后才可以回帖 登录 | 加入我们

本版积分规则

手机版|小黑屋|有问题发邮件到admin#(换成@)hd1tj.org|微博|免责申明|HD一条街

GMT+8, 2017-1-22 07:46

Powered by Discuz! X3.1

© 2001-2013 Comsenz Inc.

快速回复 返回顶部 返回列表