开启辅助访问 切换到窄版

HD一条街论坛

 找回密码
 立即注册
查看: 255|回复: 5

[欧美] 纪录片:俄罗斯啄木鸟 The.Russian.Woodpecker.2015.DOCU.720p.WEB-DL.DD5.1.H264-FGT 2.48G

[复制链接]
发表于 2016-5-29 10:33:11 | 显示全部楼层 |阅读模式
12.jpg
6 D/ Y% M0 ~' p5 `, f
7 I/ X3 i; W& F/ Y. _& ^% G2 e! |% X: A7 t; E0 \% h( P' A
◎译  名 俄罗斯啄木鸟
/ i# T/ j, g1 B; E! u! I◎片  名 The Russian Woodpecker9 S) K) b9 r+ W3 |
◎年  代 2014
$ t9 K  k- _+ s◎国  家 美国/英国/乌克兰
9 w7 I. w; M4 {  _◎类  别 历史/纪录片. H1 X7 T! }  f7 X/ w9 B7 `  D
◎语  言 俄语9 `$ e5 T5 F5 }. N7 z
◎IMDb评分  7.1/10 from 517 users
3 Z, u  |: u# H, S, D4 i◎IMDb链接  http://www.imdb.com/title/tt4082596/
% }/ Q. q' p6 p7 @8 [/ W. W& Z◎豆瓣评分 0/10 from 7 users6 M  v: C0 s4 d
◎豆瓣链接 https://movie.douban.com/subject/26276508/! z( u3 E, J2 U% [! }
◎片  长 72分钟
1 {5 S7 a: W# I+ K$ k$ L; L◎导  演 Chad Gracia7 ?0 F" G5 d/ |
$ g1 j& E$ v0 v' c, W
◎简  介" {* a5 Z* ^5 W, G3 R
( t) r. b$ a5 `6 `
  As his country is gripped by revolution and war, a Ukrainian victim of the Chernobyl nuclear disaster discovers a dark secret and must decide whether to risk his life and play his part in the revolution by revealing it.
4 N2 r- o% A/ l' Q% i1 j' z2 V+ W: g' I- c
◎获奖情况' I) H+ l# @1 R8 f. j- N, V" x
; R+ p5 x7 J& M* [
  第31届圣丹斯电影节  (2015)( S2 p" b6 r' P
  评审团大奖 世界电影单元纪录片& e! v2 ]7 G) H3 g" O
: J( l3 m1 c: I$ S* M
  第31届美国独立精神奖  (2016)
9 w: F' w0 a% [4 B1 Q  最佳纪录片(提名) Mike Lerner
  1. Video
    / ]& m0 n" D5 ?$ s* }9 {, b
  2. ID                                       : 1
    0 y: O8 ^7 D+ [% N
  3. Format                                   : AVC% t; C' Y0 v: z2 L: o
  4. Format/Info                              : Advanced Video Codec5 l" W- K  q6 q4 v
  5. Format profile                           : [email protected]
    " o: }( ~0 i+ a- ?
  6. Format settings, CABAC                   : No+ }4 \: r* n# z6 S! u5 v' p
  7. Format settings, ReFrames                : 2 frames
    % L2 b0 }. f2 D
  8. Codec ID                                 : V_MPEG4/ISO/AVC
    % F+ c. p  Z7 w2 d5 J! X
  9. Duration                                 : 1h 21mn9 i, P2 U5 M" e1 h* U
  10. Bit rate                                 : 3 910 Kbps
    2 o0 S  F  z- ]
  11. Width                                    : 1 280 pixels
    5 y- Q/ c7 S9 c: _3 V0 M" t
  12. Height                                   : 720 pixels
    . Q! J" Q4 E4 K/ m, B- v% \
  13. Display aspect ratio                     : 16:9
    . R) v3 V7 h6 i- o8 r& w
  14. Frame rate mode                          : Constant
    ( E8 o0 d! i6 s
  15. Frame rate                               : 23.976 fps2 E/ K# _# U* v& ]! O
  16. Color space                              : YUV
    ; ?& t, g+ h2 m4 U) V
  17. Chroma subsampling                       : 4:2:0& f4 L5 U6 ~/ B+ v: Q3 E% T
  18. Bit depth                                : 8 bits
    & A- d- v8 V' |% O
  19. Scan type                                : Progressive
    ( [9 d. Z; H3 W" O9 R
  20. Bits/(Pixel*Frame)                       : 0.177
    0 p. ?4 g* X8 f6 i+ ~/ _9 U9 O3 f
  21. Stream size                              : 2.21 GiB (89%)! N* R' y$ ^. Q$ e. Y4 e
  22. Title                                    : The.Russian.Woodpecker.2015.DOCU.720p.WEB-DL.DD5.1.H264-FGT
    # X' z; [/ ]/ ~
  23. Language                                 : English
    ) T" U9 F$ a* |- _
  24. Default                                  : Yes
    9 u: P/ h, b) G2 z
  25. Forced                                   : No
    3 R# S- |9 x- B  |, K) v. j
  26. Color range                              : Limited
    / L) g7 t" L/ s6 R9 q9 Z
  27. Color primaries                          : BT.709' _* t3 b0 x1 n( y- l, E
  28. Transfer characteristics                 : BT.709
    ; m  ]. G* ?0 e4 G7 Q# [
  29. Matrix coefficients                      : BT.709
    6 D; f2 G! B" q% a
  30. 5 j  R1 G4 `+ m0 t) q
  31. Audio7 t! r, V# X  A
  32. ID                                       : 25 f" N0 w1 c; i) Z7 F' ^
  33. Format                                   : AC-3
    % X$ i% i( m) l5 R5 Y' {( ^
  34. Format/Info                              : Audio Coding 36 p# d' D5 Q3 T, v7 b4 p
  35. Mode extension                           : CM (complete main)
    " X! G9 F$ c+ Z  x" |
  36. Format settings, Endianness              : Big
    , e. Y- w' I- t
  37. Codec ID                                 : A_AC3
    3 c1 Z7 X; I2 }; u: s
  38. Duration                                 : 1h 21mn1 X. ~) v# x% R& L
  39. Bit rate mode                            : Constant1 g1 u$ E4 |, C5 g5 h, x: U9 a
  40. Bit rate                                 : 384 Kbps
    ; {% d( @. o' q5 P
  41. Channel(s)                               : 6 channels
    % ^+ V) _+ W1 y0 e; E: W
  42. Channel positions                        : Front: L C R, Side: L R, LFE
    . r; w3 g8 x% J' r
  43. Sampling rate                            : 48.0 KHz6 u' u: O) A" c" `2 B- w0 @  z  J+ `
  44. Frame rate                               : 31.250 fps (1536 spf)* E1 P# e3 v" L
  45. Compression mode                         : Lossy, h9 H8 D) w2 Y: `: P; B
  46. Stream size                              : 223 MiB (9%)  W0 f- A4 O* u' T
  47. Title                                    : The.Russian.Woodpecker.2015.DOCU.720p.WEB-DL.DD5.1.H264-FGT' X- M, a  [7 w% s* y
  48. Language                                 : English+ B8 ?/ J& m$ h  l8 `: k8 g
  49. Default                                  : Yes
    + M, K+ D+ Y- @, M$ _
  50. Forced                                   : No
    * u% m% Y5 o# m3 e( `

  51. ! \! f& l/ ]% s9 T4 B5 u. k
  52. Text #1
    + V9 ?! e8 F% F0 A& v% J% z
  53. ID                                       : 3- Y9 W( t5 R# k
  54. Format                                   : UTF-86 J# M9 `: O' J5 B  ?
  55. Codec ID                                 : S_TEXT/UTF8  E& k( ^$ R, j
  56. Codec ID/Info                            : UTF-8 Plain Text
    8 Y" F. m& _$ t( P2 M2 S" i
  57. Language                                 : English$ C" K' e7 D( \  W, h! ?# J
  58. Default                                  : Yes+ _; {; G% q0 o
  59. Forced                                   : Yes
    - P) ]1 |& w! @+ K8 _' G. X5 h
  60. 4 N0 j) g0 c. [% ?& ^
  61. Text #29 n9 U" |: g( o: S
  62. ID                                       : 4
    1 _' l* G9 @- j8 l' B5 d
  63. Format                                   : UTF-86 c* ^" N) ~$ o, d  U, K
  64. Codec ID                                 : S_TEXT/UTF8
    % a* Q6 g( z! {2 ]- k9 m
  65. Codec ID/Info                            : UTF-8 Plain Text
    ! h5 X1 i2 M0 M& `7 }
  66. Language                                 : Spanish
      a6 U- T2 O6 h7 r, j! e/ W: v
  67. Default                                  : No. u  I. X/ z5 x, i# ~
  68. Forced                                   : No
    ; L  I: y3 S4 m7 G7 i
  69. - a  {  ], ~' i5 A0 J9 m3 u
  70. Menu
    ! C5 V3 E2 ~5 V
  71. 00:00:00.000                             : en:17 M5 d) }! ]' p) D: _- L
  72. 00:14:25.000                             : en:2
    , }2 w: K( a0 [
  73. 00:29:48.000                             : en:3
    7 l' w/ L; ?9 g  w
  74. 00:43:44.000                             : en:4$ E, Z; W) X0 ~3 L4 t& k
  75. 00:56:53.000                             : en:59 @; G8 ?/ p% `* b, e
  76. 01:07:44.000                             : en:6
    ) X: W+ t- A/ {7 [! l. x1 L# |5 f0 E
  77. 01:18:02.000                             : en:7
    ( d3 N+ _6 K  w
复制代码

9 m2 H7 c6 w# d" B  b- r6 J- d0 B# h% R9 J
; v# Y; x2 r! V( a7 K/ g% V8 u
- [) ~* O- J( x% o# T8 [
% F2 N' Y8 F0 f. Q( F$ N$ G
) P2 @, ~4 ~: T" ~
: n3 X7 a* `! x- {' n- b- F# I

- _5 `/ Y9 i. F- l4 b) p4 `1 k( N3 B/ r4 c& H; p' G
游客,如果您要查看本帖隐藏内容请回复  捐助论坛可免回复查看隐藏内容详情请点击
最近访问 头像模式 列表模式
HD一条街,身边的一条街。
发表于 2016-5-29 12:39:48 | 显示全部楼层
啄木鸟!我还以为是法国的某个啄木鸟呢,支持楼主发片
HD一条街,身边的一条街。
发表于 2016-5-29 13:01:05 来自手机 | 显示全部楼层
俄罗斯的啄木鸟,和大陆的长得不都一样嘛?
HD一条街,身边的一条街。
头像被屏蔽
发表于 2016-5-31 18:50:01 | 显示全部楼层
提示: 作者被禁止或删除 内容自动屏蔽
HD一条街,身边的一条街。
发表于 2016-6-3 12:52:28 | 显示全部楼层
啄木鸟还是讲人
HD一条街,身边的一条街。
发表于 2016-6-15 17:25:43 | 显示全部楼层
下载收藏,谢谢版主!支持hd1tj!
HD一条街,身边的一条街。
您需要登录后才可以回帖 登录 | 立即注册

本版积分规则

手机版|小黑屋|有问题发邮件到admin#(换成@)hd1tj.org|微博|免责申明|HD一条街

GMT+8, 2016-12-5 08:25

Powered by Discuz! X3.1

© 2001-2013 Comsenz Inc.

快速回复 返回顶部 返回列表