开启辅助访问 切换到窄版

HD一条街论坛

 找回密码
 立即注册
查看: 212|回复: 5

[欧美] 纪录片:月球上的最后一人 The.Last.Man.on.the.Moon.2014.DOCU.720p.WEB-DL.DD5.1.H264-FGT 2.9G

[复制链接]
发表于 2016-5-29 10:31:00 | 显示全部楼层 |阅读模式
fd41496ff93ca0fd5d899d0440baa1b9b75be33f.jpg ' T/ [3 A6 T2 g5 [+ c% C# N+ |5 t& l
, V, k0 o% i  i" Q$ B  M* w
◎译  名 
  A1 V0 u+ z$ C◎片  名 The Last Man on the Moon# [5 U- P, f: J& ~* i7 \
◎年  代 2014
0 f& X+ ^0 r; y) ]7 S: s◎国  家 英国
. s: b' M1 ^% H) Q◎类  别 传记/冒险/纪录片
9 n4 B7 C* I: ^/ j# g/ B- J◎语  言 英语
9 H2 G  a1 A/ `$ `3 a/ a◎上映日期 2014-06-085 R& M5 I' `+ j4 A
◎IMDb评分  7.6/10 from 231 users  v% r+ k8 j) R1 x- \4 e
◎IMDb链接  http://www.imdb.com/title/tt3219604/; G( |/ {6 N, d8 {8 P
◎豆瓣评分 0/10 from 1 users
/ q3 @8 n' L( G- B4 B1 k◎豆瓣链接 https://movie.douban.com/subject/25907060/8 r# H2 `* S, y. w
◎片  长 99分钟
2 S+ W4 q% ]1 }3 m' [9 P- I/ X( z2 g◎导  演 Mark Craig: l2 Y; ^. }3 u% @
◎主  演 Alan Bean
. {# Q4 D! A1 `2 o, q* @$ ^4 p+ }      Eugene Cernan
! C! ^; S/ h8 G      Charles Duke
2 ?5 |9 _$ R: `" e( o" t& V" M
/ e- I% l4 i7 c0 c7 ^◎简  介
+ w0 W8 k( Q: N- ]
2 K+ m; G; d% k' d1 {5 z  The 1960s was an extraordinary time for the United States. Unburdened by post-war reparations, Americans were preoccupied with other developments like NASA, the game-changing space programme that put Neil Armstrong on the moon. Yet it was astronauts like Eugene Cernan who paved the uneven, perilous path to lunar exploration. A test pilot who lived to court danger, he was recruited along with 14 other men in a secretive process that saw them become the closest of friends and adversaries. In this intensely competitive environment, Cernan was one of only three men who was sent twice to the moon, with his second trip also being NASA’s final lunar mission. As he looks back at what he loved and lost during the eight years in Houston, an incomparably eventful life emerges into view. Director Mark Craig crafts a quietly epic biography that combines the rare insight of the surviving former astronauts with archival footage and otherworldly moonscapes.
  1. Video
    4 R/ D5 a5 I! L: L) V* U. `; b
  2. ID                                       : 1# o$ l: [6 b0 c6 ]! ~: x
  3. Format                                   : AVC
    3 R* U  V* T, ~: b, J8 O& V. i
  4. Format/Info                              : Advanced Video Codec
    4 d- }0 I0 ~; `4 h& K; `) _
  5. Format profile                           : [email protected]$ i- G& ?1 u3 J) n% s# p
  6. Format settings, CABAC                   : No& o" f. t9 h; d$ X
  7. Format settings, ReFrames                : 2 frames
    6 V. M; X0 Z* }) z9 G. }! {) M
  8. Codec ID                                 : V_MPEG4/ISO/AVC) ]% Y9 K3 s9 `
  9. Duration                                 : 1h 36mn# I( i! x' [9 R- g+ D- Y6 Y- x
  10. Bit rate                                 : 3 851 Kbps
    6 h' K! c2 s% E0 U) {2 z. v
  11. Width                                    : 1 280 pixels- b  O8 Z# O) v$ t5 T
  12. Height                                   : 688 pixels& ]2 _( m2 i+ ~! c+ k
  13. Display aspect ratio                     : 1.85:1
    . L2 M* e5 i5 z8 u( y
  14. Frame rate mode                          : Constant
    . `4 p3 ~7 u6 P
  15. Frame rate                               : 23.976 fps  i3 d( y/ f5 B0 R3 }* w
  16. Color space                              : YUV
    . C- w% i2 M$ L
  17. Chroma subsampling                       : 4:2:0) _$ Z: R% R0 ~9 X( m8 k
  18. Bit depth                                : 8 bits
    3 f' \! X/ U( x4 R6 P" \( }" z
  19. Scan type                                : Progressive
    $ i& ?& r# ~7 E. x& A! \! Q* R/ z3 E+ L8 p
  20. Bits/(Pixel*Frame)                       : 0.182. ]6 x; ~( s2 y# @: V0 }
  21. Stream size                              : 2.58 GiB (89%)/ R/ I; V4 v, w/ u
  22. Title                                    : The.Last.Man.on.the.Moon.2014.DOCU.720p.WEB-DL.DD5.1.H264-FGT
    + e' {' N  V4 \' T
  23. Language                                 : English
    2 G% t. h7 k# w5 c
  24. Default                                  : Yes3 f. Z' f0 g: A
  25. Forced                                   : No% |5 q$ [. @# N; @
  26. Color range                              : Limited1 @& u7 V/ W# C1 ?1 a" \3 i
  27. Color primaries                          : BT.7096 m, B* ?) t- |1 D- O7 {; H
  28. Transfer characteristics                 : BT.7097 B5 v$ k) i* y+ H* Z+ y
  29. Matrix coefficients                      : BT.709
    , j# {2 x" C3 f) p$ v+ {. C# u' S

  30. . P, o& _& p( ~: T% e# l
  31. Audio% A6 X) m+ i$ f3 j8 H$ d
  32. ID                                       : 21 N& V2 g& f* H" ]% s
  33. Format                                   : AC-30 Q3 b6 J5 p# S6 D/ L7 B1 }$ i
  34. Format/Info                              : Audio Coding 3- m$ J$ K+ ~" Y, H6 i
  35. Mode extension                           : CM (complete main)3 T& ~% c- q; o
  36. Format settings, Endianness              : Big
    & W7 q( [7 w# c. |; ^0 M+ v3 G
  37. Codec ID                                 : A_AC3
    7 ?# A, f" A$ v5 d, v7 V: X. P: ?
  38. Duration                                 : 1h 36mn
    " h2 N1 D  i# l: r& z
  39. Bit rate mode                            : Constant. a3 x4 G1 \) g; K3 |# Q2 p
  40. Bit rate                                 : 384 Kbps
    * R# z) ~& E+ a" U3 O$ m/ M0 N
  41. Channel(s)                               : 6 channels
    3 [; f! ^- x& l4 c- Y
  42. Channel positions                        : Front: L C R, Side: L R, LFE  E3 K$ R9 o! @9 v8 H% s1 t
  43. Sampling rate                            : 48.0 KHz
    ; H: f) M0 i6 V3 w% h
  44. Frame rate                               : 31.250 fps (1536 spf)0 I" ]; ~" A$ N% A: S
  45. Compression mode                         : Lossy
    9 o% k7 e: Z' {7 W8 H/ ?
  46. Stream size                              : 264 MiB (9%)
    " o$ w$ v1 G4 n6 _  d
  47. Title                                    : The.Last.Man.on.the.Moon.2014.DOCU.720p.WEB-DL.DD5.1.H264-FGT
    5 s8 j# e* T; _; o
  48. Language                                 : English4 m3 F* _2 t, X4 A9 m8 h
  49. Default                                  : Yes
    . j4 d! p7 R$ u3 K+ Y! A) U
  50. Forced                                   : No
复制代码

6 h$ o+ e# {5 u7 _0 c5 C3 G' I( d5 b% h6 j6 T) m8 W' p

% n  v# b8 F. h  O* _. ?( i9 e# o$ _9 O6 d8 ]

, h7 m$ _; D) @. P' g6 c1 T3 Z. g/ C3 o

  E5 U8 T" L( v- X: {2 F9 F' s- s) Y' {) z/ e$ ]+ t
7 _  O& F% l7 t# V8 A* p
游客,如果您要查看本帖隐藏内容请回复  捐助论坛可免回复查看隐藏内容详情请点击
最近访问 头像模式 列表模式
HD一条街,身边的一条街。
发表于 2016-5-29 11:35:41 | 显示全部楼层
一直没看过纪录片 总感觉很沉闷的样子5 |7 N4 t5 x+ A6 ~+ C1 i
HD一条街,身边的一条街。
发表于 2016-5-29 13:02:19 来自手机 | 显示全部楼层
月球上有人吗?咱的嫦娥系列都到几号了?
HD一条街,身边的一条街。
发表于 2016-5-29 13:19:39 | 显示全部楼层
中国在宇航上正在奋起直追,期待超越的那一天。谢谢楼主的分享
HD一条街,身边的一条街。
发表于 2016-7-18 23:12:40 | 显示全部楼层
谢楼主无私分享
HD一条街,身边的一条街。
头像被屏蔽
发表于 2016-7-19 01:43:10 | 显示全部楼层
提示: 作者被禁止或删除 内容自动屏蔽
HD一条街,身边的一条街。
您需要登录后才可以回帖 登录 | 立即注册

本版积分规则

手机版|小黑屋|有问题发邮件到admin#(换成@)hd1tj.org|微博|免责申明|HD一条街

GMT+8, 2016-12-5 00:16

Powered by Discuz! X3.1

© 2001-2013 Comsenz Inc.

快速回复 返回顶部 返回列表