开启辅助访问 切换到窄版

HD一条街论坛

 找回密码
 加入我们
查看: 372|回复: 17

[720p] 霸王花/霸王花与霸王花 [国粤双语] The.Inspector.Wear.Skirts.1988.BluRay.720p.AC3.2Audio.x264-CHD 4.36G

[复制链接]
发表于 2016-5-18 13:46:57 | 显示全部楼层 |阅读模式
本帖最后由 雷筱轩 于 2016-5-18 13:54 编辑
: @5 z: q6 U2 N4 \, e
# c0 ]( E6 @; ]7 w
" H9 J$ v6 g5 v% g# t+ l
                               
登录/注册后可看大图

% Y9 c; ]/ Y* e: Y◎译  名  霸王花/霸王花与霸王花
6 U( n9 X3 `: Z; F1 q1 B◎片  名  The Inspector Wear Skirts+ p, G/ S. `  x5 n
◎年  代  1988+ j5 |- u. e* r# |, k* U
◎国  家  中国香港+ n* o& q( o  m3 {5 `
◎类  别  动作
# Z3 K' q; c+ Z◎语  言  粤语/普通话: Y% ?5 k5 u+ U% b  {' }& g
◎字  幕 简体中文6 F, R: U& B) V) R7 S6 R" w/ h
◎IMDB链接   http://www.imdb.com/title/tt0094694
7 O  y1 [3 h! ~: [8 C0 Y◎片  长  91 Min4 D) c5 i- o6 r( {+ g. N! ~" {
◎导  演  钱升玮, t, M) W4 }6 Z& d
◎主  演  惠英红Kara Hui....May as Ying Hung Wai4 r4 F2 v+ `7 P) X0 u' _/ ~
      胡慧中Sibelle Hu....Madam Hu0 R" ]0 n3 I7 e3 m) G8 M: O
      罗芙洛Cynthia Rothrock....Madam Lo
0 }8 o' E5 i: d+ E( ]      柏安妮Ann Bridgewater....Karen
- m  G! b* f1 R% Z      简慧珍Regina Kent....Ailene( n$ q8 W; n/ j2 ]* {) W1 m
      火星Mars....Tiger Squad Member
: {% U& r, S5 A: T0 k      杜德伟Alex To
* S4 C) L4 a2 y      董骠Bill Tung....Commissioner Tung
1 S6 z$ G7 C. Y      Anthony Carpio: a; K2 D2 z% i; G# u0 w
      Vanessa Chan
7 g0 ~4 ?5 p- W8 ~, t( Q6 g  d      Jeffrey Falcon....Robber
+ ^4 P* }5 f' D; {% {9 d8 [      Jeff6 `) E! b# K1 i
      Candy Lai" R! S! s% s; ?; \- z& R* T1 \
      陈国新Dennis Chan....Club Manager
! b) Z8 Y) d! G+ p& H3 a      陈雅伦Ellen Chan....Jean6 H) }4 p+ I7 R( [& L6 k- a& X
      陈佩珊Joanna Chan
, L% \7 m0 Z9 n% q0 n      周文健Michael Chow Man-Kin....Peter
- J0 o% q8 s7 t; q' U9 g      冯淬帆Shui-Fan Fung
1 u( ^) q$ w& D      楼南光Billy Lau....Bespectacled Tiger Squad Member/ i) B) F. P2 s6 I% S
      卢惠光Ken Lo4 I/ H) N( W8 k$ f" O
      吴君如Sandra Ng....Amy- W' N" T% I' ~$ V" `: G
      成奎安Fui-On Shing....Robber7 a( t4 ], @4 g2 u: [" P; h
      许冠英Ricky Hui....Cook8 Z" @6 f+ }- n! f3 T0 N% A

5 S5 H9 b* s! J, ?2 `3 t  ]6 I$ r8 y◎简  介 . a) H. i7 t4 G2 g% I9 w
/ u4 F" I6 D& ~- ~
       剧情主要描述新成立的女飞虎队经过严格的训练后,人个成为英勇善战的女豪杰,并在追捕毒贩的实战中表现优异,成为突出的霸王花队伍。影片在强烈而艰苦的训练中,也安排了女队员与男队员之间的争斗和感情纠结,增添了温馨的气氛。
# {: |2 ^% P$ h6 m% k    “霸王花”这一商业概念脱胎于《五福星》电影,最初是胡慧中经典的警女形象而独享的一个称谓。在1988年,《五福星》经典电影拍档相继分崩离析之后,其中的诸多商业卖点都被电影圈一抢而空,不只是王晶接连以《精装追女仔2福星俏佳人》、《最佳损友》、《最佳损友闯情关》连续掠料,而成龙则更是巧取了其中“霸王花”这一卖点大肆炒卖。影片以身手出众的女警官作为主推,胡慧中、惠英红、罗芺洛这样的金牌打女终于有了用武之地,在影片中大展中国功夫。冯淬帆、许冠英、吴君如、成奎安、董骠等人的加入,更为影片提供了连篇累牍的笑料,影片虽说情节较为简单,也没有超级雄厚的资金投入,但以上这些元素已经足以令其在市场上回收成本。本片在1988年获得了一千六百万的票房,算是中上,但以影片主推新人的阵容来看,这一点收益已经是极为难得。
" Y" I8 S% m! o: o" q
General
% R3 B8 K2 d5 e* ]Format                         : Matroska
/ J! s" @! |, k& X$ _Format version                 : Version 27 f4 @8 y9 e, t
File size                      : 4.36 GiB  Q1 H) K. K' {! i* s: e
Duration                       : 1h 35mn
- x* G5 h9 {8 k1 tOverall bit rate               : 6 560 Kbps$ @/ b. Q# E" D1 c
Movie name                     : 霸王花.1988 ) e6 C  {. X) a6 I3 m) T2 c

. G7 T3 r' O& E) i" [! |: KVideo" A2 w- x# |6 `4 U1 G9 {6 L% @
ID                             : 1. S# n7 {$ d  Y6 ^+ R! c
Format                         : AVC/ P; T7 g0 s, Q5 q
Format/Info                    : Advanced Video Codec5 Q, ]$ Y$ {4 Q3 {1 \
Format profile                 : [email protected]- c- h$ P6 N: A/ L* v/ k
Format settings, CABAC         : Yes) ?, U( U- ?4 x' Y/ i/ R: l1 x
Format settings, ReFrames      : 9 frames
  k" `: w5 v9 y1 x/ lCodec ID                       : V_MPEG4/ISO/AVC6 q7 q$ B% r/ {% f
Duration                       : 1h 35mn
5 n  U! w2 H  K5 F( }! w/ W+ `7 lBit rate                       : 5 281 Kbps( m4 A7 |1 x, }6 W
Width                          : 1 280 pixels
! g; ]4 L2 k  Z+ wHeight                         : 676 pixels' K+ y1 P# h( p
Display aspect ratio           : 1.893- [' ]( ]. ?: n2 r4 H
Frame rate mode                : Constant
, Q3 E. J6 V! I+ T# D  dFrame rate                     : 23.976 fps
$ Y# H& u" J5 a0 u/ j7 HColor space                    : YUV
( N/ T2 j, Y7 \6 i* vChroma subsampling             : 4:2:07 R6 M2 l% x% }! R) v* S
Bit depth                      : 8 bits
, P9 m) X7 _" v  G, y3 f8 J( L8 HScan type                      : Progressive7 L7 G& P+ D. c  U
Bits/(Pixel*Frame)             : 0.255
. {7 T' I7 N- T! V( s" m& k8 Z% Z' gStream size                    : 3.43 GiB (78%)6 i' b: b# ^' U- J7 |  S+ d
Title                          : The.Inspector.Wear.Skirts.1988
0 U5 d: x* y0 L6 @Writing library                : x264 core 116 r2037+593 ba36cdb
8 Q7 Q' H# s0 SLanguage                       : Chinese
: l! ~* l& ^$ O7 n# jDefault                        : Yes2 y4 Q8 A5 z1 ?& C. ~( T; h! S2 @
Forced                         : Yes' P* R% `; \6 r

* @) D1 W* n: E1 H0 \+ {5 ]Audio #1
+ V8 y1 P8 p! a  C) h8 TID                             : 2. c! d2 T$ p8 ]* D+ V3 ~
Format                         : AC-33 Q3 D7 y0 M# }. K! ^3 g
Format/Info                    : Audio Coding 3! d% i9 X9 u3 G1 E
Mode extension                 : CM (complete main)
- H) k8 [$ A  rFormat settings, Endianness    : Big
: H" U/ q6 E: X) \9 h8 gCodec ID                       : A_AC3$ Y6 m# K5 P. E6 y3 @0 N6 |
Duration                       : 1h 35mn
, t! T" r- S$ A0 `% ?  YBit rate mode                  : Constant
  I( V' L' x7 W' |& A: lBit rate                       : 640 Kbps
% ~2 F* ^& k! d1 @Channel(s)                     : 6 channels
! A9 g  {, D2 @! }/ BChannel positions              : Front: L C R, Side: L R, LFE# `, j1 D: r( x6 Y6 z5 i% g3 u
Sampling rate                  : 48.0 KHz5 @4 Q' w' U0 I' ?' @+ M1 P, o9 l% S, _
Frame rate                     : 31.250 fps (1536 spf)5 u( f% g" V# i7 }8 Y
Compression mode               : Lossy- t, I+ O3 @- F- L7 |$ f* I3 `6 [# q& v
Stream size                    : 436 MiB (10%)
' b- J% ^* i+ ?6 }4 aTitle                          : Cantonese TrueHD core AC3 5.1 640Kbps
. g7 `$ y) j0 X9 B) OLanguage                       : Chinese
) W& r/ t* W6 c! T' @: @Default                        : Yes
0 a" |' B! k. {- @Forced                         : Yes5 M( j' c) F( e% s& F4 v" \

( Z4 q* m1 a/ j4 NAudio #2: C' q# ^* p6 A) N  P) Y
ID                             : 33 F- X7 V: n- N& b7 S/ ]$ k
Format                         : AC-3: e; [9 V" {$ P: ?
Format/Info                    : Audio Coding 3
/ G; `) h5 g+ ?1 ]Mode extension                 : CM (complete main)
! ~5 F1 v4 d; vFormat settings, Endianness    : Big
: s; w5 K* V; \6 h4 }$ C0 t3 l: TCodec ID                       : A_AC34 H# }! U. j; V; K  ]
Duration                       : 1h 35mn! l, |! y3 [( s% p- u3 Q
Bit rate mode                  : Constant
6 v8 f' J" h. j& Z- f0 uBit rate                       : 640 Kbps
- w" D3 \- o4 N" Z7 d6 G- M! H* `Channel(s)                     : 6 channels1 i0 r4 P0 o" v$ g0 c
Channel positions              : Front: L C R, Side: L R, LFE1 x; _4 t7 h' H5 `! r% {
Sampling rate                  : 48.0 KHz
5 z; Q' L, \8 P# L1 }  vFrame rate                     : 31.250 fps (1536 spf)# C' k' l! Z( _# F: X+ d
Compression mode               : Lossy
/ p7 J8 ]2 _! \) i4 e" ?6 A  yStream size                    : 436 MiB (10%)  g0 K% M2 a) y3 B4 Y
Title                          : Mandarin AC3 5.1 640Kbps
5 s; s* d- u: A6 l8 v8 h! k# sLanguage                       : Chinese
* `3 N) ?: V  rDefault                        : No6 m2 @/ N5 O. g+ h  r' [" o9 u
Forced                         : No
: y& l' u# l( o$ M* i& K

0 P3 S- X$ ^- I/ l8 O: h2 N5 b                               
登录/注册后可看大图

# T% T% L0 S' D1 O# |

! h  n+ a, p5 t- p+ _$ D& _4 i# e                               
登录/注册后可看大图
* y- A! w( o" n

2 c0 I0 N* X6 }$ J7 H                               
登录/注册后可看大图
. f6 c" y+ s  b7 Y

" b" m% @- s# a, P/ q                               
登录/注册后可看大图
+ O5 @) Q9 O9 n' }
  E- @3 J( g( L
                               
登录/注册后可看大图
) q% Z, @1 b; E

3 e2 }* `3 ]! ?+ l  S) Z                               
登录/注册后可看大图
" `0 u. \) a- J$ h, T6 S
4 |7 j. E  ^9 m# W$ ?
                               
登录/注册后可看大图

8 k% H) y; W1 g  _' e- d

, v) l& w% ~8 ^* h) B2 ?) i1 l                               
登录/注册后可看大图

4 Z% g. R1 K8 I/ t
' R  d$ P3 X# H  f# {. ~, V' w# v3 ^
                               
登录/注册后可看大图

! D7 E, o: ]. E

- m* R3 |1 c% ~3 n% M                               
登录/注册后可看大图
5 f% r! _, I0 f2 z/ m  D8 S0 W$ I4 {

; d$ k8 `  s1 E6 A8 u                               
登录/注册后可看大图

! y2 j: K) L5 q, A! g5 R. D7 f
3 v: y. B: L) Q0 q4 Z1 L% ~
                               
登录/注册后可看大图
; |6 v2 ~% J; b+ S" }0 ?
游客,如果您要查看本帖隐藏内容请回复  捐助论坛可免回复查看隐藏内容 详情请点击

9 S) a  A+ T/ H+ ^0 D- A字幕
- t3 E: c4 z9 O
游客,如果您要查看本帖隐藏内容请回复  捐助论坛可免回复查看隐藏内容 详情请点击
最近访问 头像模式 列表模式
HD一条街,身边的一条街。
发表于 2016-5-18 18:58:04 | 显示全部楼层
多谢分享这么棒的经典电影。
HD一条街,身边的一条街。
发表于 2016-5-18 23:34:36 | 显示全部楼层
非常经典的电影,收藏了
HD一条街,身边的一条街。
发表于 2016-5-19 21:23:23 | 显示全部楼层
经典不容错过~谢谢分享
HD一条街,身边的一条街。
发表于 2016-5-19 23:41:04 | 显示全部楼层
经典电影,感谢楼主提供
HD一条街,身边的一条街。
发表于 2016-5-26 10:49:32 | 显示全部楼层
老片子啦,谢谢楼主!
HD一条街,身边的一条街。
发表于 2016-5-29 11:08:18 | 显示全部楼层
谢谢分享霸王花~
HD一条街,身边的一条街。
发表于 2016-5-29 18:05:23 来自手机 | 显示全部楼层
惠英红演的很霸气!
HD一条街,身边的一条街。
发表于 2016-6-4 17:54:06 | 显示全部楼层
这剧太好看了,谢谢分享。
HD一条街,身边的一条街。
您需要登录后才可以回帖 登录 | 加入我们

本版积分规则

手机版|小黑屋|有问题发邮件到admin#(换成@)hd1tj.org|微博|免责申明|HD一条街

GMT+8, 2017-1-18 01:16

Powered by Discuz! X3.1

© 2001-2013 Comsenz Inc.

快速回复 返回顶部 返回列表