开启辅助访问 切换到窄版

HD一条街论坛

 找回密码
 立即注册
查看: 352|回复: 16

[720p] 霸王花/霸王花与霸王花 [国粤双语] The.Inspector.Wear.Skirts.1988.BluRay.720p.AC3.2Audio.x264-CHD 4.36G

[复制链接]
发表于 2016-5-18 13:46:57 | 显示全部楼层 |阅读模式
本帖最后由 雷筱轩 于 2016-5-18 13:54 编辑 1 Z# X' ]/ J! |! k/ D
) M$ P: T4 B- K6 G0 |( [, M# ~
9 c. J% u4 h  M: Y
                               
登录/注册后可看大图

- c/ k+ V8 I$ B$ y◎译  名  霸王花/霸王花与霸王花, v' }* U" b9 i  Y6 T, F( i
◎片  名  The Inspector Wear Skirts
! d& A, w# ^/ R3 h- W* ^* e9 `: K◎年  代  1988
: ?* g/ F4 i6 m/ t4 E4 l2 S) B◎国  家  中国香港# C8 r+ t' a) z; ^# _
◎类  别  动作1 p7 b2 X( P/ A0 K$ f+ O
◎语  言  粤语/普通话% p1 j- H4 C" x: Y+ c) n, A
◎字  幕 简体中文
4 E1 c2 @% L- l. F0 G! l◎IMDB链接   http://www.imdb.com/title/tt0094694
# V. Z3 y' @2 A# y& s◎片  长  91 Min
6 l  R- e  F; s* W9 X( G/ q◎导  演  钱升玮
* H6 e# ?/ A6 m) I0 Z" A◎主  演  惠英红Kara Hui....May as Ying Hung Wai
. j0 ]7 r/ i) s- @/ a      胡慧中Sibelle Hu....Madam Hu" o- i9 A$ k/ [4 _: O5 p
      罗芙洛Cynthia Rothrock....Madam Lo
# c7 A  _- H% _% {2 Q# w! p. z      柏安妮Ann Bridgewater....Karen3 X) q+ [6 ]4 O, w
      简慧珍Regina Kent....Ailene
8 h: ]+ m! X) [      火星Mars....Tiger Squad Member* [2 |. o/ \; a- J" W
      杜德伟Alex To4 W4 {+ ?( o& z
      董骠Bill Tung....Commissioner Tung
0 B- s2 Z# \, h! o% |- H      Anthony Carpio5 k; g# D! b, |* s1 b
      Vanessa Chan- ^3 H, T& u8 R- x* ^, J! `5 E
      Jeffrey Falcon....Robber$ u9 A9 n, N- M3 K2 L! x$ C9 p
      Jeff
- m! H7 e% Q/ ~* o. P" V  G      Candy Lai
& n! s8 M- `, T* m4 \      陈国新Dennis Chan....Club Manager0 l+ V5 p2 H2 J6 b* r4 \9 k& R
      陈雅伦Ellen Chan....Jean
0 K. K! C- M+ f* u      陈佩珊Joanna Chan5 I4 ?6 J7 N0 g  \3 R# E' g5 d. R- b
      周文健Michael Chow Man-Kin....Peter6 {- j+ N! t8 U! F5 [  g3 Y; i
      冯淬帆Shui-Fan Fung2 m8 o2 h5 c! r# i3 @% {
      楼南光Billy Lau....Bespectacled Tiger Squad Member3 }. L3 B) _/ [% W- g. y7 F  a
      卢惠光Ken Lo
5 E$ I( `# J9 }4 a! m0 b      吴君如Sandra Ng....Amy
2 s6 b" C" U2 c4 p" O7 d      成奎安Fui-On Shing....Robber" Q( F; Q0 T% F$ H/ _
      许冠英Ricky Hui....Cook% F$ v$ f# q3 Z+ ^5 }" ^
9 z( r$ i: {, Y2 N- D" U
◎简  介 
6 z& ^4 G/ i" s% n  w) N# N7 h0 a& V% U5 s0 u9 X
       剧情主要描述新成立的女飞虎队经过严格的训练后,人个成为英勇善战的女豪杰,并在追捕毒贩的实战中表现优异,成为突出的霸王花队伍。影片在强烈而艰苦的训练中,也安排了女队员与男队员之间的争斗和感情纠结,增添了温馨的气氛。, M" ]: @9 N% u4 U+ e, I
    “霸王花”这一商业概念脱胎于《五福星》电影,最初是胡慧中经典的警女形象而独享的一个称谓。在1988年,《五福星》经典电影拍档相继分崩离析之后,其中的诸多商业卖点都被电影圈一抢而空,不只是王晶接连以《精装追女仔2福星俏佳人》、《最佳损友》、《最佳损友闯情关》连续掠料,而成龙则更是巧取了其中“霸王花”这一卖点大肆炒卖。影片以身手出众的女警官作为主推,胡慧中、惠英红、罗芺洛这样的金牌打女终于有了用武之地,在影片中大展中国功夫。冯淬帆、许冠英、吴君如、成奎安、董骠等人的加入,更为影片提供了连篇累牍的笑料,影片虽说情节较为简单,也没有超级雄厚的资金投入,但以上这些元素已经足以令其在市场上回收成本。本片在1988年获得了一千六百万的票房,算是中上,但以影片主推新人的阵容来看,这一点收益已经是极为难得。
# H! A8 a% L- F
General' V( Y$ I' i/ B& O; r' Y
Format                         : Matroska5 k. M* e7 K2 S' I3 M
Format version                 : Version 2
0 t+ T$ ~8 ^! w( [File size                      : 4.36 GiB
! c! y9 v" U% w% `5 HDuration                       : 1h 35mn
5 s: v/ G; ^* D& vOverall bit rate               : 6 560 Kbps
, E: c$ [% j2 F1 b/ F* OMovie name                     : 霸王花.1988
' L2 W2 q2 {; Y7 a2 s! E
. `' m; Z/ c, ^/ ZVideo, I+ u9 ^2 ^0 y7 [
ID                             : 1, X! w9 B% ~+ [* r6 p" d! g
Format                         : AVC
: u. U  w9 Z' CFormat/Info                    : Advanced Video Codec# I# z8 P' L: z& w, m. k  |* m% w
Format profile                 : [email protected]
4 ]; E5 N, z5 g: HFormat settings, CABAC         : Yes9 A3 H& G+ f/ V' {" r
Format settings, ReFrames      : 9 frames
- H' m9 M4 p# f+ A' v, [+ }Codec ID                       : V_MPEG4/ISO/AVC4 q) L9 n* ~7 Y
Duration                       : 1h 35mn
0 S6 H) d1 \( R  ]+ P( pBit rate                       : 5 281 Kbps2 T5 l0 M" X$ O7 i2 ^& a; g; t* m
Width                          : 1 280 pixels  u( ^2 Z: X; q, [
Height                         : 676 pixels) v- F" \1 T/ J- x1 |; P6 x, y
Display aspect ratio           : 1.893
- A4 r. w0 i* J) g* e" C6 [Frame rate mode                : Constant
7 I* e! P4 ~$ ]1 h' R5 sFrame rate                     : 23.976 fps) ]- }: q8 {1 ^8 _3 J1 r
Color space                    : YUV7 V2 _7 ?, @* k8 X
Chroma subsampling             : 4:2:0
! B& b2 v5 z, q9 w9 z- fBit depth                      : 8 bits
0 W9 {4 T, \* T: I/ sScan type                      : Progressive2 a+ c* |3 _  C2 @+ H
Bits/(Pixel*Frame)             : 0.255
9 K& s) Z6 p. ~- Q" e2 DStream size                    : 3.43 GiB (78%)
4 q8 J- F7 \% bTitle                          : The.Inspector.Wear.Skirts.1988
9 u- W( P1 W- D, D( @8 UWriting library                : x264 core 116 r2037+593 ba36cdb
% K: @+ z  V$ |0 |9 nLanguage                       : Chinese& k- n( {8 a8 v
Default                        : Yes
" ~; S) {) L) A+ Q, i" PForced                         : Yes, @3 }, l) G& G" i0 g+ b% j% m5 x. h

, B4 A" n1 U' B% C5 `& b# |Audio #1
1 C1 j0 v' n% Z4 u. g$ v5 T" ]* ^ID                             : 2
$ h4 r2 A( H% G" G! ]! R! K2 IFormat                         : AC-3
4 Q4 I5 e( Q3 t( ~Format/Info                    : Audio Coding 3
4 n* r% ^% Q, Q3 J9 d5 BMode extension                 : CM (complete main)
8 @$ ?) t  k7 m* R% D! IFormat settings, Endianness    : Big
$ l6 T4 T+ E3 b5 x# Y0 e! b+ {! kCodec ID                       : A_AC3# {) {% B. P! ^  ]
Duration                       : 1h 35mn6 Q( C. _& y3 ?9 o5 U" U% |9 p
Bit rate mode                  : Constant; I" Q4 ?+ W: m, a; [
Bit rate                       : 640 Kbps
; _% n# L0 ~6 |0 D2 ^7 w4 `Channel(s)                     : 6 channels( @. T+ O& b+ K
Channel positions              : Front: L C R, Side: L R, LFE
3 A' h  c% ^/ G7 ?8 ^Sampling rate                  : 48.0 KHz
8 Z. R% r5 F" v+ `' OFrame rate                     : 31.250 fps (1536 spf)$ [) _* _. B9 z6 \0 d9 G7 r; v
Compression mode               : Lossy  _- ^! @# y1 O. T
Stream size                    : 436 MiB (10%)$ x+ X- t: @/ M1 J: L9 u# K- \
Title                          : Cantonese TrueHD core AC3 5.1 640Kbps% \; w' {2 v* F9 Y* }6 r3 O
Language                       : Chinese' p- ^0 }, _! k& {- I4 _
Default                        : Yes+ d4 ]+ ^' l/ M  K# ?+ H: p  P
Forced                         : Yes
- ~- a2 z" b  X: }" D. o/ w' {4 Z( i5 h0 Q% D3 C( V5 ?
Audio #2  a" p3 Z6 n0 K6 t* H8 \* Z7 H
ID                             : 3. t6 i- C; L4 g
Format                         : AC-3
7 r/ E5 |6 K( wFormat/Info                    : Audio Coding 3
9 L, }7 i! y' V* ~) [* L! \9 OMode extension                 : CM (complete main)! ~: p9 S5 D) z6 {: \
Format settings, Endianness    : Big
3 J6 k) {4 y% R! k, C. S9 a: q' _Codec ID                       : A_AC3! t" ~* l( q( h! G0 K; |2 ?
Duration                       : 1h 35mn
6 ~( n5 `4 O7 p  K8 FBit rate mode                  : Constant' B" h0 F3 a' d
Bit rate                       : 640 Kbps( }( o! G9 q/ b4 ^
Channel(s)                     : 6 channels  ?* i: R0 G# G. m  \
Channel positions              : Front: L C R, Side: L R, LFE2 D. ]7 b" d) C( a' k5 [1 b3 k
Sampling rate                  : 48.0 KHz
7 m% \% }! E! h# QFrame rate                     : 31.250 fps (1536 spf)! }; w8 \4 |2 q& ?) g3 W" e( b9 g) I
Compression mode               : Lossy" g  c0 q3 \! }& W3 b0 i
Stream size                    : 436 MiB (10%)
4 }. g0 c0 Y, o6 `  vTitle                          : Mandarin AC3 5.1 640Kbps
1 j3 O2 b  M8 ^7 [Language                       : Chinese
+ X5 d  R0 z/ F6 J3 [Default                        : No
' X7 S3 y: X! s1 zForced                         : No

( x0 M" A* p) B! f

7 q$ H1 F' D: J4 I) |0 u- ~8 M0 p                               
登录/注册后可看大图
( q6 e0 q4 J: m- R
8 M# u1 c' }5 B
                               
登录/注册后可看大图

5 p4 B+ e! G& O5 g* F3 Z7 f

- N* x' a9 x3 m. [* J  \" g                               
登录/注册后可看大图
' l) Z1 b2 l6 U6 _5 P+ v

, B9 R. V+ @+ O- C2 f8 v4 V                               
登录/注册后可看大图
+ u9 w- {$ }3 n' }

1 e5 x4 v" }- [$ K6 ]                               
登录/注册后可看大图
, w- v' Q( @. _

7 h/ ~2 ]6 u0 e6 F$ j% t; ^9 Q                               
登录/注册后可看大图

+ D# ^$ V9 b) ~+ |

% N+ i1 G: l; _4 N) c" |# Y9 T                               
登录/注册后可看大图

2 g7 C2 V4 \) I
- p  j  d1 l* {4 q
                               
登录/注册后可看大图
1 }6 _0 x3 f" S: Z
* E0 |2 }; s' i% [8 U
                               
登录/注册后可看大图

) Q) F$ O: y1 O& ~. G, \( g( a

7 I! r  I0 X( s; V# E                               
登录/注册后可看大图
9 ]: _0 x; F0 V6 n% @7 S  q2 p
% l: K% T7 Y1 r3 H
                               
登录/注册后可看大图

& H9 Q0 a. ~# Z4 w8 V

4 M" T9 P6 q; Q" i  h, @                               
登录/注册后可看大图
, [8 e# {- ~7 h9 ~3 Q/ M" K
游客,如果您要查看本帖隐藏内容请回复  捐助论坛可免回复查看隐藏内容详情请点击
6 I, Y$ V, t" `4 N7 t, E
字幕$ ~; @0 B. m8 f8 b9 v7 d) r6 j4 [
游客,如果您要查看本帖隐藏内容请回复  捐助论坛可免回复查看隐藏内容详情请点击
HD一条街,身边的一条街。
发表于 2016-5-18 18:58:04 | 显示全部楼层
多谢分享这么棒的经典电影。
HD一条街,身边的一条街。
发表于 2016-5-18 23:34:36 | 显示全部楼层
非常经典的电影,收藏了
HD一条街,身边的一条街。
发表于 2016-5-19 21:23:23 | 显示全部楼层
经典不容错过~谢谢分享
HD一条街,身边的一条街。
发表于 2016-5-19 23:41:04 | 显示全部楼层
经典电影,感谢楼主提供
HD一条街,身边的一条街。
发表于 2016-5-26 10:49:32 | 显示全部楼层
老片子啦,谢谢楼主!
HD一条街,身边的一条街。
发表于 2016-5-29 11:08:18 | 显示全部楼层
谢谢分享霸王花~
HD一条街,身边的一条街。
发表于 2016-5-29 18:05:23 来自手机 | 显示全部楼层
惠英红演的很霸气!
HD一条街,身边的一条街。
发表于 2016-6-4 17:54:06 | 显示全部楼层
这剧太好看了,谢谢分享。
HD一条街,身边的一条街。
您需要登录后才可以回帖 登录 | 立即注册

本版积分规则

手机版|小黑屋|有问题发邮件到admin#(换成@)hd1tj.org|微博|免责申明|HD一条街

GMT+8, 2016-12-9 23:31

Powered by Discuz! X3.1

© 2001-2013 Comsenz Inc.

快速回复 返回顶部 返回列表