开启辅助访问 切换到窄版

HD一条街论坛

 找回密码
 立即注册
搜索
查看: 468|回复: 17

[720p] 霸王花/霸王花与霸王花 [国粤双语] The.Inspector.Wear.Skirts.1988.BluRay.720p.AC3.2Audio.x264-CHD 4.36G

[复制链接]
发表于 2016-5-18 13:46:57 | 显示全部楼层 |阅读模式
本帖最后由 雷筱轩 于 2016-5-18 13:54 编辑
  K3 n; O2 d! t; a0 O- v$ I2 N( M3 g, z0 q

+ w/ r1 A4 h, B* P6 {                               
登录/注册后可看大图
0 ~, a! P( V, o5 v% u5 b+ w0 [( C. h
◎译  名  霸王花/霸王花与霸王花9 s6 ?* }' Q, j9 H; \8 i6 Q- q
◎片  名  The Inspector Wear Skirts
% O9 M, p+ F0 `, w◎年  代  1988
$ `) Z: D; Q8 _6 A◎国  家  中国香港
  C& ~( v4 t$ a6 D" d◎类  别  动作
" u7 G  ^5 z( H◎语  言  粤语/普通话5 z! f( L$ \0 f9 S  j8 }+ z) `
◎字  幕 简体中文
7 x' P: V8 G( t7 ?+ }5 S# |◎IMDB链接   http://www.imdb.com/title/tt0094694
" M# L$ {* _! Z" z8 x* Y◎片  长  91 Min
. O% w2 P. j3 T5 \2 L◎导  演  钱升玮8 w2 j/ L% E; {1 G
◎主  演  惠英红Kara Hui....May as Ying Hung Wai
$ \# H) j' h) q" J1 E; Y      胡慧中Sibelle Hu....Madam Hu
5 S, B7 E" q9 M7 M2 l" H/ W0 e  i      罗芙洛Cynthia Rothrock....Madam Lo2 M; a* T2 B/ v' b* C9 d
      柏安妮Ann Bridgewater....Karen' s% E1 u4 T5 ~
      简慧珍Regina Kent....Ailene
# T4 a& i8 @6 K- w4 U7 m      火星Mars....Tiger Squad Member
% a/ `% A7 g) O      杜德伟Alex To& @6 ^8 e/ w) `* |, t; ?
      董骠Bill Tung....Commissioner Tung
2 a9 m1 [4 j4 \4 G6 k& |      Anthony Carpio
( p# x7 P- T9 c5 j( y7 `0 n      Vanessa Chan
+ O8 n, s, y) E- B      Jeffrey Falcon....Robber
+ z, t9 y* K6 j2 }' m: J      Jeff
- {7 l/ Z% s" _* }      Candy Lai6 v  g8 V1 u% |
      陈国新Dennis Chan....Club Manager: `7 j" `5 \2 n3 [7 M. o
      陈雅伦Ellen Chan....Jean
& ?- V4 w$ p* S7 x9 W. S      陈佩珊Joanna Chan. L9 [- o$ _* j
      周文健Michael Chow Man-Kin....Peter! L1 Z& s' E. z2 n1 C: K
      冯淬帆Shui-Fan Fung! z, T, w) C) k7 q) a/ q
      楼南光Billy Lau....Bespectacled Tiger Squad Member
2 z' [8 W; {' M      卢惠光Ken Lo
/ G$ Z9 v  Z3 E$ {* b, X      吴君如Sandra Ng....Amy
, I% F* o% l  w/ A9 |      成奎安Fui-On Shing....Robber2 b! B* m4 U) G& A) c; Z- w
      许冠英Ricky Hui....Cook
6 b: ]+ z& r) a' ]  }4 g5 ?7 L! E) S' c! {: B
◎简  介 , f; y# F! w  N0 R0 a9 M
- H/ K7 t# T% b! _0 ~, R
       剧情主要描述新成立的女飞虎队经过严格的训练后,人个成为英勇善战的女豪杰,并在追捕毒贩的实战中表现优异,成为突出的霸王花队伍。影片在强烈而艰苦的训练中,也安排了女队员与男队员之间的争斗和感情纠结,增添了温馨的气氛。
# N# o& H) n" W/ {    “霸王花”这一商业概念脱胎于《五福星》电影,最初是胡慧中经典的警女形象而独享的一个称谓。在1988年,《五福星》经典电影拍档相继分崩离析之后,其中的诸多商业卖点都被电影圈一抢而空,不只是王晶接连以《精装追女仔2福星俏佳人》、《最佳损友》、《最佳损友闯情关》连续掠料,而成龙则更是巧取了其中“霸王花”这一卖点大肆炒卖。影片以身手出众的女警官作为主推,胡慧中、惠英红、罗芺洛这样的金牌打女终于有了用武之地,在影片中大展中国功夫。冯淬帆、许冠英、吴君如、成奎安、董骠等人的加入,更为影片提供了连篇累牍的笑料,影片虽说情节较为简单,也没有超级雄厚的资金投入,但以上这些元素已经足以令其在市场上回收成本。本片在1988年获得了一千六百万的票房,算是中上,但以影片主推新人的阵容来看,这一点收益已经是极为难得。1 R/ h, u# k5 s: L. g
General- j+ ]9 y/ a% _7 O  ?
Format                         : Matroska
. S5 e. d+ A$ kFormat version                 : Version 2
. n  r& Y. G& n8 iFile size                      : 4.36 GiB& D1 i+ z0 r- i; N! p" r
Duration                       : 1h 35mn9 E5 n5 w$ r! N( ?9 e! @+ a
Overall bit rate               : 6 560 Kbps& V% r* U; H5 S: h5 Z7 m+ a
Movie name                     : 霸王花.1988 * N; y! V/ a  L* m. [

3 f! D' V9 @# V/ `* FVideo
3 e2 f# K" ~' mID                             : 1) l2 {4 T8 f& a. m
Format                         : AVC
/ [9 W5 f6 |/ }( q' uFormat/Info                    : Advanced Video Codec. ~9 ?  z5 z+ y' r, b0 t
Format profile                 : [email protected]
3 ~/ t' {7 t4 ~6 f$ G& |8 ^* Z$ BFormat settings, CABAC         : Yes
7 X2 h/ C" m4 k, oFormat settings, ReFrames      : 9 frames8 T6 P/ u& L. o. }& K# N
Codec ID                       : V_MPEG4/ISO/AVC4 o& G4 [; j: k+ B
Duration                       : 1h 35mn% z' y( I: a5 |* E% N
Bit rate                       : 5 281 Kbps
7 X( z. Z( K6 t8 d" G: f( A; X( aWidth                          : 1 280 pixels
4 U3 S  d7 C3 J; }- j" \7 r$ pHeight                         : 676 pixels
! s) o3 R8 p# R3 LDisplay aspect ratio           : 1.893" y" `4 n: q* r
Frame rate mode                : Constant
+ P# V& }" D# e# f; tFrame rate                     : 23.976 fps: f% z) |, [8 G5 u* s( y) E6 x- W
Color space                    : YUV
/ Z0 S$ G) v* }7 [+ C# G. DChroma subsampling             : 4:2:0
: H1 C$ l0 A4 P' GBit depth                      : 8 bits. g6 I+ S1 h% g) T& B
Scan type                      : Progressive" U3 ]( y' ^" i4 \
Bits/(Pixel*Frame)             : 0.255
# j3 Z9 p  D! c, c( L7 J/ E1 wStream size                    : 3.43 GiB (78%)
, `7 u& h2 U! `( p# [Title                          : The.Inspector.Wear.Skirts.19885 K+ N' y+ }# d
Writing library                : x264 core 116 r2037+593 ba36cdb
& j" b" @4 J' u2 h  r. cLanguage                       : Chinese% C! R) k6 j' Q, i
Default                        : Yes
" F4 \+ B: Q6 V8 E' ]Forced                         : Yes
% O, M. E; U8 W, [: a# z! P! b3 K+ t$ s3 A: S; E' I
Audio #1: |7 j* I: T' K* Y$ `
ID                             : 2, `, t# V! {; ^5 G- M
Format                         : AC-34 L5 f$ P# i& K; g) w/ t
Format/Info                    : Audio Coding 3& K9 j- I8 @, W& m" T, O: W( R
Mode extension                 : CM (complete main)! s0 C# [7 I! _: S! X9 _, t* l9 M3 J$ V
Format settings, Endianness    : Big
- C' b1 U+ T/ ^0 QCodec ID                       : A_AC3
0 p  [5 `5 n0 k/ @Duration                       : 1h 35mn3 F+ \3 X$ X$ v% Q" f4 F6 _
Bit rate mode                  : Constant; |2 f. Z- H4 v
Bit rate                       : 640 Kbps
+ ?  r; ~! \; c' bChannel(s)                     : 6 channels0 C9 d0 q9 i, T6 i9 U: z6 ]
Channel positions              : Front: L C R, Side: L R, LFE
) W  ]4 @: k3 K# \' Z% dSampling rate                  : 48.0 KHz' }4 Y% V! V% X4 b  p5 h  [
Frame rate                     : 31.250 fps (1536 spf)4 f) V9 e' B# O# k& m5 l* A
Compression mode               : Lossy% Q- ?+ X9 K. |- ~2 A8 K. f, ^
Stream size                    : 436 MiB (10%)
" Y* C* @3 L( t2 ITitle                          : Cantonese TrueHD core AC3 5.1 640Kbps
7 X, T7 j3 U' y  k: PLanguage                       : Chinese3 s2 T$ k! a$ J4 |1 G. m' ~/ S
Default                        : Yes4 @( }4 K- `2 E; I* L: w7 Z
Forced                         : Yes
% D& X- E2 ?/ ?4 C) M; ]9 K" r
% T# @  k- d4 d. T$ V, ?Audio #2
3 ?/ z, R+ [5 _$ [: F5 n# rID                             : 3
# E% g, [/ l; r& I7 A/ P6 c' CFormat                         : AC-3
7 M. C  T# k/ f3 T! a, WFormat/Info                    : Audio Coding 3# p5 a- J1 ~1 m7 o  c9 @  ^
Mode extension                 : CM (complete main)' w1 N4 A, H* H  N
Format settings, Endianness    : Big8 A% O- i' K7 g5 ~
Codec ID                       : A_AC3! `$ Y9 ?. g! V3 n$ p# q$ y& i
Duration                       : 1h 35mn
$ j+ o4 C3 N$ `3 q& C) P6 VBit rate mode                  : Constant
3 [% w) R0 d9 t4 {7 tBit rate                       : 640 Kbps/ P: i4 m" j3 R' Y: a8 o* D( ]
Channel(s)                     : 6 channels! V* E4 u  v- Z
Channel positions              : Front: L C R, Side: L R, LFE* t/ o$ }* K. Y* c) `
Sampling rate                  : 48.0 KHz. Q4 o' R: B( @
Frame rate                     : 31.250 fps (1536 spf)' |/ p- p3 l' X
Compression mode               : Lossy
, u& \% u" i( `. V4 \- y! [, tStream size                    : 436 MiB (10%)0 E2 _5 j# R/ d; `, E
Title                          : Mandarin AC3 5.1 640Kbps
6 M! v3 a' D3 iLanguage                       : Chinese
/ o  Y9 j) f9 c4 z6 E2 N8 vDefault                        : No# s& u4 ]. y5 D4 R
Forced                         : No

( c, i7 u  @  a$ M- D

4 ^' u1 O/ b0 M$ E; U' W, X, F) l                               
登录/注册后可看大图
9 \9 w9 P* c8 i+ @

1 S' Q6 y. L$ o# c0 B                               
登录/注册后可看大图
$ h9 T0 B* z  j1 ?

" w( t4 ^& R0 @; z' }                               
登录/注册后可看大图
" b$ v# Y& g! A. ]" `& h( d

0 q6 U& `' w5 h# M; z) B; c! l                               
登录/注册后可看大图

+ [* d! \* n- K! }* y+ ]0 J

: l# \2 x# d5 u, ^. W                               
登录/注册后可看大图

' _! [/ T3 E" J2 d9 P9 P
6 i8 G$ T- W' Z
                               
登录/注册后可看大图

$ ~1 e$ T# R+ X0 p  o1 L5 D% ~3 d

* k& v+ z2 }& t+ y" p5 m0 K                               
登录/注册后可看大图

& b7 X9 a: l1 T& G6 p* t/ `
( R" f' r. X0 \2 M5 l" T- Q
                               
登录/注册后可看大图

) l* ?0 O0 S3 O$ w
1 l/ T& A% z% }1 N
                               
登录/注册后可看大图
- T) H! i5 T  H) j1 K. s

7 l, J" c/ p7 m" Z1 o3 n7 ^                               
登录/注册后可看大图
# Y% v0 k0 H$ V) a+ K( B1 P. a+ z

, [. d- b1 B5 K7 e( t! Z                               
登录/注册后可看大图
5 E0 _6 @2 ]+ u$ C9 C' A3 W

5 @6 l0 R1 O9 x$ O) \; j. U                               
登录/注册后可看大图

% p; C" ]2 w* P$ P: @  d$ }
游客,如果您要查看本帖隐藏内容请回复  捐助论坛可免回复查看隐藏内容 详情请点击

0 l; \( K- a" C8 b字幕% _$ \+ e7 N$ b+ Y: ]$ }) `; ~, C
游客,如果您要查看本帖隐藏内容请回复  捐助论坛可免回复查看隐藏内容 详情请点击
最近访问 头像模式 列表模式
HD一条街,身边的一条街。
发表于 2016-5-18 18:58:04 | 显示全部楼层
多谢分享这么棒的经典电影。
HD一条街,身边的一条街。
发表于 2016-5-18 23:34:36 | 显示全部楼层
非常经典的电影,收藏了
HD一条街,身边的一条街。
发表于 2016-5-19 21:23:23 | 显示全部楼层
经典不容错过~谢谢分享
HD一条街,身边的一条街。
发表于 2016-5-19 23:41:04 | 显示全部楼层
经典电影,感谢楼主提供
HD一条街,身边的一条街。
发表于 2016-5-26 10:49:32 | 显示全部楼层
老片子啦,谢谢楼主!
HD一条街,身边的一条街。
发表于 2016-5-29 11:08:18 | 显示全部楼层
谢谢分享霸王花~
HD一条街,身边的一条街。
发表于 2016-5-29 18:05:23 来自手机 | 显示全部楼层
惠英红演的很霸气!
HD一条街,身边的一条街。
发表于 2016-6-4 17:54:06 | 显示全部楼层
这剧太好看了,谢谢分享。
HD一条街,身边的一条街。

手机版|小黑屋|有问题发邮件到admin#(换成@)hd1tj.org|微博|免责申明|HD一条街

GMT+8, 2017-5-1 06:41

Powered by Discuz! X3.1

© 2001-2013 Comsenz Inc.

快速回复 返回顶部 返回列表