开启辅助访问 切换到窄版

HD一条街论坛

 找回密码
 加入我们
查看: 398|回复: 17

[720p] 霸王花/霸王花与霸王花 [国粤双语] The.Inspector.Wear.Skirts.1988.BluRay.720p.AC3.2Audio.x264-CHD 4.36G

[复制链接]
发表于 2016-5-18 13:46:57 | 显示全部楼层 |阅读模式
本帖最后由 雷筱轩 于 2016-5-18 13:54 编辑 ' w% M5 `: q$ _

! F) l: V* k# z# P
; t7 M# @4 `6 X% h2 e0 s/ q
                               
登录/注册后可看大图
- R8 m" x1 H* C
◎译  名  霸王花/霸王花与霸王花( q7 [& d1 B% `$ t& [/ j* ^
◎片  名  The Inspector Wear Skirts
6 M! @; \3 F, m) r7 V6 o; e, g◎年  代  1988- @# J; L) ], ^( F# w
◎国  家  中国香港
) k- w0 B, b/ z2 |7 Y# X& e◎类  别  动作
; b! O. T5 t1 H1 x+ T◎语  言  粤语/普通话
7 M- }! `, L3 |5 ^7 D, v◎字  幕 简体中文+ Z3 Q8 R( |5 q8 k! J4 i' W
◎IMDB链接   http://www.imdb.com/title/tt0094694" G  N& q# r( o6 ?4 G+ A' i4 }
◎片  长  91 Min5 V/ Y" K6 T/ }
◎导  演  钱升玮
# I. E8 Y: O/ R, B◎主  演  惠英红Kara Hui....May as Ying Hung Wai9 h6 v* Z" ^" t( r; `7 l2 Z0 x
      胡慧中Sibelle Hu....Madam Hu( p6 X9 O4 @. f+ x7 @
      罗芙洛Cynthia Rothrock....Madam Lo
$ e  J+ G& t; y! Q! S; D3 O$ x  J      柏安妮Ann Bridgewater....Karen& e9 q8 R* e+ a1 q
      简慧珍Regina Kent....Ailene4 n: m# |, d/ ~. o' |
      火星Mars....Tiger Squad Member
/ @, D4 u8 y, D  H% l, T      杜德伟Alex To
; t5 I: c4 s) A6 A/ O" ?      董骠Bill Tung....Commissioner Tung
7 O8 \" P0 u( b) s3 X1 O5 T: b      Anthony Carpio
; y. v/ s% A3 F+ w' z      Vanessa Chan) m# _( ]# L- S7 }* y5 o
      Jeffrey Falcon....Robber% [& H, j( ]3 T% R0 b2 Y2 ?
      Jeff
" {  t$ h" e0 K( b# t8 [      Candy Lai
! P* j# g' l' H      陈国新Dennis Chan....Club Manager2 G) d% Q& I& I$ q5 v9 [
      陈雅伦Ellen Chan....Jean2 @' ^* l0 O" }. v& l
      陈佩珊Joanna Chan
# {3 f1 r5 @% c& c  B/ ]! O      周文健Michael Chow Man-Kin....Peter
9 Z% z5 U+ n  K% s6 q      冯淬帆Shui-Fan Fung
# m! n5 d" Z7 ^% {3 Y$ \2 d' [      楼南光Billy Lau....Bespectacled Tiger Squad Member* i2 F/ R: C4 Z8 e" f1 _
      卢惠光Ken Lo) u, N# N5 e( y! ?" W
      吴君如Sandra Ng....Amy) d+ M/ w6 g  v) r' |- B
      成奎安Fui-On Shing....Robber2 d: N: G9 ^. K' A1 n) s/ N
      许冠英Ricky Hui....Cook
# J+ X! }- G' G1 J* H
( L0 I% K/ M# T+ C# }  f1 q# R" J# |◎简  介 
5 S( c& P8 ?! L1 K
/ q  c5 |0 B, T: b! y: o  E       剧情主要描述新成立的女飞虎队经过严格的训练后,人个成为英勇善战的女豪杰,并在追捕毒贩的实战中表现优异,成为突出的霸王花队伍。影片在强烈而艰苦的训练中,也安排了女队员与男队员之间的争斗和感情纠结,增添了温馨的气氛。
: V- B4 y6 o9 E0 i0 c$ t% j    “霸王花”这一商业概念脱胎于《五福星》电影,最初是胡慧中经典的警女形象而独享的一个称谓。在1988年,《五福星》经典电影拍档相继分崩离析之后,其中的诸多商业卖点都被电影圈一抢而空,不只是王晶接连以《精装追女仔2福星俏佳人》、《最佳损友》、《最佳损友闯情关》连续掠料,而成龙则更是巧取了其中“霸王花”这一卖点大肆炒卖。影片以身手出众的女警官作为主推,胡慧中、惠英红、罗芺洛这样的金牌打女终于有了用武之地,在影片中大展中国功夫。冯淬帆、许冠英、吴君如、成奎安、董骠等人的加入,更为影片提供了连篇累牍的笑料,影片虽说情节较为简单,也没有超级雄厚的资金投入,但以上这些元素已经足以令其在市场上回收成本。本片在1988年获得了一千六百万的票房,算是中上,但以影片主推新人的阵容来看,这一点收益已经是极为难得。
- y6 V% ?& B! {- G, ]
General
3 R4 I+ E8 p4 B, s* _Format                         : Matroska. s% u* i& H7 ^
Format version                 : Version 2
" ]6 i' m6 L& I: |; sFile size                      : 4.36 GiB$ y% E5 ]8 p) F4 ?5 j6 {
Duration                       : 1h 35mn
. `* p2 i( ?6 |Overall bit rate               : 6 560 Kbps
! a: {3 b8 _# t/ ^: PMovie name                     : 霸王花.1988 * _1 Q. E* M' G8 m/ C

8 y1 r; K, m9 x9 @* c6 tVideo
3 u! O5 b6 O) d$ x( ]3 lID                             : 1
* G, c6 I3 k7 j6 |, vFormat                         : AVC, |  w4 x1 G  @
Format/Info                    : Advanced Video Codec
' I' l2 J' G/ g5 ^) UFormat profile                 : High@L4.1
8 E6 f. n+ n5 Z% X& pFormat settings, CABAC         : Yes& Y3 _! `& s, |6 c# i& G" l
Format settings, ReFrames      : 9 frames+ N$ ]! p/ ]3 U3 D
Codec ID                       : V_MPEG4/ISO/AVC
: ]: `5 R$ c, I" C# A0 lDuration                       : 1h 35mn
7 [2 s! _6 Y3 C- G, N$ D% fBit rate                       : 5 281 Kbps
3 p# [1 l- A) p( M" lWidth                          : 1 280 pixels. G2 y5 m2 c4 T' O0 Z! |
Height                         : 676 pixels9 \) e- t8 k- {* a
Display aspect ratio           : 1.8933 p9 C2 u- t& U2 P0 Z* B
Frame rate mode                : Constant
8 h8 ~: c( {+ J  A+ \& G6 N) E* z. iFrame rate                     : 23.976 fps
" w& T# U; N! @- c4 Y/ W9 SColor space                    : YUV* S9 E: K; O1 L: j
Chroma subsampling             : 4:2:0* n# v* K5 q2 `9 P- w
Bit depth                      : 8 bits
, ]* }' J& T7 {8 z# E. ZScan type                      : Progressive" r4 V5 N# V$ g# @2 \5 H8 Z/ s
Bits/(Pixel*Frame)             : 0.255
! T, M3 O$ D8 ?Stream size                    : 3.43 GiB (78%). o2 X. w6 F. h6 E* D% S+ B
Title                          : The.Inspector.Wear.Skirts.1988
9 Q, R( y4 z, T" xWriting library                : x264 core 116 r2037+593 ba36cdb
1 {% U* }. }1 w& XLanguage                       : Chinese; i% X7 o- n3 J6 L' r; o, _
Default                        : Yes
9 B( t* A2 x4 N2 K; I! e) aForced                         : Yes* y$ V9 G4 d- b; z9 F
+ x/ E( R: G: ^! g* [
Audio #1
5 z# T# y, l( p4 MID                             : 2
& p" @7 o9 t& |4 fFormat                         : AC-3
& E& `1 o! c$ ?+ EFormat/Info                    : Audio Coding 3
* R  p, {# t  z9 {Mode extension                 : CM (complete main)" }& D, o, h  @+ }/ v
Format settings, Endianness    : Big* A' b" q# s; M
Codec ID                       : A_AC3
! F: d5 r3 X: x% X3 u9 }Duration                       : 1h 35mn( _2 V% S5 A5 }* P: {9 x
Bit rate mode                  : Constant9 B5 \' y( {: \0 Y. I' O2 c$ P8 r
Bit rate                       : 640 Kbps
2 D/ I" S, R7 a( b  y; S& f8 U8 IChannel(s)                     : 6 channels/ c2 G$ H7 L3 A( I! K
Channel positions              : Front: L C R, Side: L R, LFE
# I9 p- \! J9 S. G4 x0 S6 `# ?Sampling rate                  : 48.0 KHz
6 h& {$ A; o8 ?8 N  VFrame rate                     : 31.250 fps (1536 spf)% R9 R# z1 j0 ^$ m) {3 o, N
Compression mode               : Lossy
' k8 H2 X( n3 X9 rStream size                    : 436 MiB (10%)
* \6 P+ m, i; mTitle                          : Cantonese TrueHD core AC3 5.1 640Kbps+ ^. ]& ^) _. `* _
Language                       : Chinese8 a0 E4 ]$ A+ P; i
Default                        : Yes
9 X  s1 g# c) hForced                         : Yes" r3 z& c: @% ^9 H" o, }- ^" m

3 b# ?6 D$ q5 [, k' a) VAudio #2
+ C$ v) f& W# f# N% vID                             : 30 O6 K2 l. C5 ]0 M' Q
Format                         : AC-3
8 g* Q( Z. T# i2 ^1 uFormat/Info                    : Audio Coding 3
6 H" b' U3 e, ~) q8 f7 V; XMode extension                 : CM (complete main)( n: O, F! m1 C6 E- x, i
Format settings, Endianness    : Big
2 b* z5 |6 q0 H- rCodec ID                       : A_AC3
. ?8 n/ O7 l9 V: x3 ?* @2 V/ jDuration                       : 1h 35mn, X2 c* Y* l- C) _' Y
Bit rate mode                  : Constant" `% E* f6 B+ }
Bit rate                       : 640 Kbps- p2 f1 s2 S1 n! V+ N
Channel(s)                     : 6 channels7 b6 K5 H: p: ?" g* B  ], ?5 b7 f
Channel positions              : Front: L C R, Side: L R, LFE
5 n/ A5 P( R3 \# \Sampling rate                  : 48.0 KHz
2 D  ]& S; N# A1 B( v. K0 h! mFrame rate                     : 31.250 fps (1536 spf)6 H' Z6 l8 [$ U
Compression mode               : Lossy
8 u2 j& [* f/ ^; H$ r  K- r& t! P3 F/ K  TStream size                    : 436 MiB (10%)
* {6 F' l/ H7 X' W% p# dTitle                          : Mandarin AC3 5.1 640Kbps
) Y* P3 ^2 X- D) n0 `! x, J3 [Language                       : Chinese
: E4 d# ]: w" IDefault                        : No, e6 Q, L/ h) u
Forced                         : No

' o! e, N8 f8 s- V0 J3 k3 u" [
. }4 d' I$ s7 g( B
                               
登录/注册后可看大图

+ _5 l2 ~0 W# ^
1 V8 G6 n- |. s. K" o/ h  K9 J
                               
登录/注册后可看大图
( }8 D9 y9 E# c* W

7 K, A. H9 ]  W4 D! L                               
登录/注册后可看大图
9 M9 _) J  t. v0 M
7 u8 K# H/ \: x1 F' W
                               
登录/注册后可看大图
  R0 H2 z/ I. K
2 d1 i4 ~$ G4 C
                               
登录/注册后可看大图
2 z& {5 A) \9 m* }2 g
  l( P. T! `8 w$ E) [# \- ]
                               
登录/注册后可看大图
+ A% P& t1 j: r6 j: ?0 [# M0 R; H
) [: ^! l7 k6 |8 R; T
                               
登录/注册后可看大图
* L/ ]% k+ Z& w5 @3 j% d

- Z0 L3 c( C; {2 ^6 O' j  y1 W                               
登录/注册后可看大图

: E# q2 I+ L( @: \
: E7 j$ H7 U+ ?3 c5 r
                               
登录/注册后可看大图

% z% S5 M$ X5 p; i; s$ O

3 s" `$ V/ n8 l: g- X9 ?                               
登录/注册后可看大图
) ~2 ^7 b- m# H% a( M" G! c

$ r* C8 z4 }' B& K6 a, A, p  u/ ^                               
登录/注册后可看大图
+ Q1 A8 h( N( e
! ]; R8 o  }# g0 M1 H- R
                               
登录/注册后可看大图
; [6 e# J& }7 u; b6 a2 D2 f( R% O
游客,如果您要查看本帖隐藏内容请回复  捐助论坛可免回复查看隐藏内容 详情请点击

$ w" K, e$ S  _- X字幕; ?' |6 i" ~4 ~
游客,如果您要查看本帖隐藏内容请回复  捐助论坛可免回复查看隐藏内容 详情请点击
最近访问 头像模式 列表模式
HD一条街,身边的一条街。
发表于 2016-5-18 18:58:04 | 显示全部楼层
多谢分享这么棒的经典电影。
HD一条街,身边的一条街。
发表于 2016-5-18 23:34:36 | 显示全部楼层
非常经典的电影,收藏了
HD一条街,身边的一条街。
发表于 2016-5-19 21:23:23 | 显示全部楼层
经典不容错过~谢谢分享
HD一条街,身边的一条街。
发表于 2016-5-19 23:41:04 | 显示全部楼层
经典电影,感谢楼主提供
HD一条街,身边的一条街。
发表于 2016-5-26 10:49:32 | 显示全部楼层
老片子啦,谢谢楼主!
HD一条街,身边的一条街。
发表于 2016-5-29 11:08:18 | 显示全部楼层
谢谢分享霸王花~
HD一条街,身边的一条街。
发表于 2016-5-29 18:05:23 来自手机 | 显示全部楼层
惠英红演的很霸气!
HD一条街,身边的一条街。
发表于 2016-6-4 17:54:06 | 显示全部楼层
这剧太好看了,谢谢分享。
HD一条街,身边的一条街。
您需要登录后才可以回帖 登录 | 加入我们

本版积分规则

手机版|小黑屋|有问题发邮件到admin#(换成@)hd1tj.org|微博|免责申明|HD一条街

GMT+8, 2017-2-21 13:15

Powered by Discuz! X3.1

© 2001-2013 Comsenz Inc.

快速回复 返回顶部 返回列表