开启辅助访问 切换到窄版

HD一条街论坛

 找回密码
 加入我们
查看: 425|回复: 17

[720p] 霸王花/霸王花与霸王花 [国粤双语] The.Inspector.Wear.Skirts.1988.BluRay.720p.AC3.2Audio.x264-CHD 4.36G

[复制链接]
发表于 2016-5-18 13:46:57 | 显示全部楼层 |阅读模式
本帖最后由 雷筱轩 于 2016-5-18 13:54 编辑 9 n8 z7 @2 w+ b9 p- j

4 y5 v& Y+ Z: d5 I" S5 o' F# c
6 A/ u3 N, D$ ]9 a4 u
                               
登录/注册后可看大图
  T: H; n' |4 X& Q' s2 R) z: _& p6 w
◎译  名  霸王花/霸王花与霸王花+ Y- L" c2 ]$ W% X+ }! N
◎片  名  The Inspector Wear Skirts
$ K5 f% H- w, {◎年  代  1988
  j7 ~4 j9 i& H# Z# {◎国  家  中国香港! }6 I* j( G& [6 t! `! B
◎类  别  动作
* @  j/ l) [, w+ Y+ M6 b. H◎语  言  粤语/普通话1 O, B  c+ k- B, q: ?( C( l9 s
◎字  幕 简体中文
# J' e* K/ T( u2 {6 I+ @5 J◎IMDB链接   http://www.imdb.com/title/tt0094694( Y. ~3 `" u+ e( Z
◎片  长  91 Min* ]6 G) j" M2 k1 h+ N3 e  I! u
◎导  演  钱升玮
# w2 u6 {  {6 T' J0 @4 y◎主  演  惠英红Kara Hui....May as Ying Hung Wai) B8 i3 N' L3 u9 ^- R3 Q6 W
      胡慧中Sibelle Hu....Madam Hu
& B* R0 ?( V5 J1 q0 @4 O      罗芙洛Cynthia Rothrock....Madam Lo
; M; ~+ O' }6 v. G1 C      柏安妮Ann Bridgewater....Karen
9 Y( \2 W- v" \% L4 ?$ s      简慧珍Regina Kent....Ailene. Q9 j+ [8 Y- `
      火星Mars....Tiger Squad Member
0 v: H1 Y# W' C1 }      杜德伟Alex To
0 J( T6 R) |3 X6 F      董骠Bill Tung....Commissioner Tung6 e$ }5 X" q! n8 S
      Anthony Carpio7 x6 g* F4 M# w
      Vanessa Chan
+ F: `) N7 ]9 `" R2 D      Jeffrey Falcon....Robber
" R" b( Q, x7 R8 ~      Jeff8 J; V' Y% a5 Y6 r5 b4 V5 i
      Candy Lai
3 U5 T' W6 ]& T* l, k* {  i0 `7 F      陈国新Dennis Chan....Club Manager, L1 `# h9 q( Q( A2 B4 U1 ~& I+ `
      陈雅伦Ellen Chan....Jean8 y6 G3 A, Z5 V/ |) l/ H* u' t
      陈佩珊Joanna Chan
; h+ q( T* G7 Z) L9 Y; G$ o: q4 e      周文健Michael Chow Man-Kin....Peter: n% E* k' C( N$ u( S( K# N
      冯淬帆Shui-Fan Fung
* J. T3 V. v( o- K      楼南光Billy Lau....Bespectacled Tiger Squad Member1 b$ g7 L6 e+ H; b- @6 I. E: M5 a
      卢惠光Ken Lo& u) J: q- i% {5 u# q
      吴君如Sandra Ng....Amy; x  `4 ^; P/ M2 E/ O1 G
      成奎安Fui-On Shing....Robber
$ y: E; H6 v$ ]. ]      许冠英Ricky Hui....Cook
- k# D6 ]+ B; ]- I
+ u1 _( Z' D& l3 k+ r6 f1 b; r6 r◎简  介 ) C1 f9 e7 }8 c* Q

8 V0 b7 |& W+ c9 }3 u0 n       剧情主要描述新成立的女飞虎队经过严格的训练后,人个成为英勇善战的女豪杰,并在追捕毒贩的实战中表现优异,成为突出的霸王花队伍。影片在强烈而艰苦的训练中,也安排了女队员与男队员之间的争斗和感情纠结,增添了温馨的气氛。
1 a5 w* G9 r" T" L( e" t, y& W    “霸王花”这一商业概念脱胎于《五福星》电影,最初是胡慧中经典的警女形象而独享的一个称谓。在1988年,《五福星》经典电影拍档相继分崩离析之后,其中的诸多商业卖点都被电影圈一抢而空,不只是王晶接连以《精装追女仔2福星俏佳人》、《最佳损友》、《最佳损友闯情关》连续掠料,而成龙则更是巧取了其中“霸王花”这一卖点大肆炒卖。影片以身手出众的女警官作为主推,胡慧中、惠英红、罗芺洛这样的金牌打女终于有了用武之地,在影片中大展中国功夫。冯淬帆、许冠英、吴君如、成奎安、董骠等人的加入,更为影片提供了连篇累牍的笑料,影片虽说情节较为简单,也没有超级雄厚的资金投入,但以上这些元素已经足以令其在市场上回收成本。本片在1988年获得了一千六百万的票房,算是中上,但以影片主推新人的阵容来看,这一点收益已经是极为难得。
. E- ?! P$ n( Z3 B
General; t0 c3 S8 S( I$ ]8 A& n
Format                         : Matroska
, h$ X$ ?8 W. z+ C  o5 xFormat version                 : Version 2. d$ D7 |% G3 P7 l( k
File size                      : 4.36 GiB2 ?$ I) v" J( W" S# }
Duration                       : 1h 35mn
) l0 Y' q$ h  D+ @2 Y( _+ X# K/ g9 {0 rOverall bit rate               : 6 560 Kbps
9 `) s8 E- @( [$ b$ vMovie name                     : 霸王花.1988
# Z8 V: K/ e0 o( K: x" E6 k2 H' U# y5 T! C* h# e
Video9 n% i  u$ b8 h/ S: S+ \) [
ID                             : 1
- N  F; L" b3 I* e0 CFormat                         : AVC
4 ?- C0 ~+ j4 w7 F" e/ Y9 G; wFormat/Info                    : Advanced Video Codec+ M6 x& r/ u4 ?5 W
Format profile                 : [email protected]) j: D6 o% j! l$ U, r4 V% n
Format settings, CABAC         : Yes7 E* ]+ i1 p6 z) O" @# N
Format settings, ReFrames      : 9 frames
1 B0 X' Z# v$ r  SCodec ID                       : V_MPEG4/ISO/AVC" ?. ?$ D3 V9 u2 |* z1 v1 ]% N& ^  F
Duration                       : 1h 35mn2 w( C- W; X5 q& m) o) y
Bit rate                       : 5 281 Kbps
( H. x7 ?9 d; j; K  `Width                          : 1 280 pixels; J" }3 H4 T  `2 V/ j5 i9 A
Height                         : 676 pixels# i' Z+ s4 ~1 V/ x) i' j# {
Display aspect ratio           : 1.893
0 s( Y2 ]8 c; e/ `2 OFrame rate mode                : Constant
( e' u3 [% |! ?& g) UFrame rate                     : 23.976 fps
/ r& u5 C# Q1 c& bColor space                    : YUV
8 Q$ o8 p  e* J# B& ~, sChroma subsampling             : 4:2:0
. b) {% k" u3 qBit depth                      : 8 bits! @4 K$ @5 e$ e1 w7 d7 x: B( O
Scan type                      : Progressive' M2 k- B( S  \6 e
Bits/(Pixel*Frame)             : 0.255. @$ o' T; f; k; v% H/ q3 U3 u: @
Stream size                    : 3.43 GiB (78%)
- m5 I0 q6 v1 e4 NTitle                          : The.Inspector.Wear.Skirts.1988/ D. f# l8 O) u7 Z/ m0 @  b5 {
Writing library                : x264 core 116 r2037+593 ba36cdb8 n2 Q. B7 l! @+ ]
Language                       : Chinese5 A. e# t8 [$ W( ?0 n
Default                        : Yes
! [* f1 [& P  c6 e6 m8 W6 mForced                         : Yes
" f0 O! S5 _" _2 [; F: S8 c/ N' M! m7 ^
Audio #1
5 _0 b4 D- c) b# x. K: d) \7 JID                             : 28 e4 x# m1 H  a7 y8 c+ l
Format                         : AC-3/ h+ @' Q: n* o! z* R9 k4 U; M
Format/Info                    : Audio Coding 3( t, n, L$ E( I" `* D% ^
Mode extension                 : CM (complete main): b* ?% R, d+ K1 o
Format settings, Endianness    : Big
; \! H- ?0 J, T3 ~' [# s7 Q$ mCodec ID                       : A_AC33 R7 i* v) c8 T. E  T4 b
Duration                       : 1h 35mn
! F  ?3 S+ T. B# W, A0 f' X: a, t% ~Bit rate mode                  : Constant5 ^# n% p! O) |% a! u
Bit rate                       : 640 Kbps% j- ~. h% l+ W, X$ ^4 p0 g
Channel(s)                     : 6 channels& v. B0 r- r4 o+ j; @1 k
Channel positions              : Front: L C R, Side: L R, LFE
7 ~+ c9 h, ?. ]$ V$ u! ~0 uSampling rate                  : 48.0 KHz$ J% u( N% N1 y
Frame rate                     : 31.250 fps (1536 spf)
' n# i/ D& J0 r  k* H1 SCompression mode               : Lossy
6 |, o- ~' W9 bStream size                    : 436 MiB (10%)
5 f6 J7 [1 W$ B: y! a2 a. a4 [Title                          : Cantonese TrueHD core AC3 5.1 640Kbps
- C* r$ Q; n' T+ E2 ?2 qLanguage                       : Chinese. ^* Y8 p2 ^; H1 x$ M+ q
Default                        : Yes
  T" U$ }3 K9 W$ K+ \2 C2 M" mForced                         : Yes
4 w0 M4 h0 j- m  E/ _$ N* h
- B" o/ ^& z; g+ ]- L- N* {9 v; YAudio #2/ X1 H' y8 ]7 u! J: O
ID                             : 39 n# Z6 \" t- k0 {: b9 t
Format                         : AC-3, Q& Q% u& T0 a* ]' Q
Format/Info                    : Audio Coding 3
6 ?' o! |% y  [# t. g4 [Mode extension                 : CM (complete main)
/ H; q) l; l; U: L! j/ YFormat settings, Endianness    : Big; i3 e; ?6 L. {! w
Codec ID                       : A_AC3
4 @. P1 i1 D+ o( ]5 B# \9 ?Duration                       : 1h 35mn
1 Z0 D+ J" q* {) G+ C2 QBit rate mode                  : Constant
7 ^! s' e) l1 s# ?- g9 v2 E. ?Bit rate                       : 640 Kbps
* F- X: x5 P% |2 TChannel(s)                     : 6 channels
& V+ x0 R: v3 n8 }6 N2 \# iChannel positions              : Front: L C R, Side: L R, LFE
2 v& E6 d- H; V8 DSampling rate                  : 48.0 KHz0 _) _3 B9 x6 M2 E9 \/ T. B( I, U- I
Frame rate                     : 31.250 fps (1536 spf)
! F' K2 _5 G: a& SCompression mode               : Lossy
9 m4 `9 z. [% fStream size                    : 436 MiB (10%)
/ i( [5 b3 G# o" wTitle                          : Mandarin AC3 5.1 640Kbps2 S5 Z. d' L- P6 ~8 U7 c
Language                       : Chinese
' p4 k0 v) R+ E' sDefault                        : No
! n; V' r3 ?0 ]0 JForced                         : No
5 x" W2 i. G. h  A. W1 e+ z
, F# L/ P0 |, }4 E/ e7 R( m
                               
登录/注册后可看大图
& z) I& u+ ]) k$ I9 Y" l6 `5 B3 k: h

! W, W; t6 ^# `  F                               
登录/注册后可看大图
% C' W) W5 O) J4 H

: @5 l* B. Y- w. @' q: W7 L                               
登录/注册后可看大图
+ d# E+ B5 R7 L3 x+ F
, I1 @8 h; M9 N% o/ ]5 k
                               
登录/注册后可看大图

4 E! Y1 E" d- q8 q1 p
) M/ j' ^9 ^- W/ y% c4 p
                               
登录/注册后可看大图

1 }8 \' A" B3 N; B( v

0 k: B% h5 z) v# ~                               
登录/注册后可看大图

- D# {9 b- u! }! P+ G, {# @
0 ]8 h8 {0 c. K! @2 A: ~& W+ I* z
                               
登录/注册后可看大图

! p1 I  n* Y& H# X' N4 x* p- f0 _

( ~5 N, X* r7 M                               
登录/注册后可看大图

0 F& P1 S5 A9 X7 i- V7 A! M

6 Q* S% @- U- G( |+ |! q* g1 T) E                               
登录/注册后可看大图
: E7 R& }4 B" e6 K( C

8 C0 p3 r, f8 a7 ]( ~; C6 |' D' K, R8 Y                               
登录/注册后可看大图
1 a# d$ w7 p- \0 Q3 b  M
$ Q( o3 R  O$ e. R
                               
登录/注册后可看大图

1 D9 Z" S; X$ r$ P: g) ^" U
0 |/ P, y4 w6 y3 L7 J& E7 f7 `5 q8 c& o0 N
                               
登录/注册后可看大图
  z3 U9 w; d9 M* [: Q, ~
游客,如果您要查看本帖隐藏内容请回复  捐助论坛可免回复查看隐藏内容 详情请点击

( H! H+ s: f# ~) z6 R字幕
7 u4 o# t# q% I+ ^3 ?0 L1 q
游客,如果您要查看本帖隐藏内容请回复  捐助论坛可免回复查看隐藏内容 详情请点击
最近访问 头像模式 列表模式
HD一条街,身边的一条街。
发表于 2016-5-18 18:58:04 | 显示全部楼层
多谢分享这么棒的经典电影。
HD一条街,身边的一条街。
发表于 2016-5-18 23:34:36 | 显示全部楼层
非常经典的电影,收藏了
HD一条街,身边的一条街。
发表于 2016-5-19 21:23:23 | 显示全部楼层
经典不容错过~谢谢分享
HD一条街,身边的一条街。
发表于 2016-5-19 23:41:04 | 显示全部楼层
经典电影,感谢楼主提供
HD一条街,身边的一条街。
发表于 2016-5-26 10:49:32 | 显示全部楼层
老片子啦,谢谢楼主!
HD一条街,身边的一条街。
发表于 2016-5-29 11:08:18 | 显示全部楼层
谢谢分享霸王花~
HD一条街,身边的一条街。
发表于 2016-5-29 18:05:23 来自手机 | 显示全部楼层
惠英红演的很霸气!
HD一条街,身边的一条街。
发表于 2016-6-4 17:54:06 | 显示全部楼层
这剧太好看了,谢谢分享。
HD一条街,身边的一条街。

手机版|小黑屋|有问题发邮件到admin#(换成@)hd1tj.org|微博|免责申明|HD一条街

GMT+8, 2017-3-25 15:58

Powered by Discuz! X3.1

© 2001-2013 Comsenz Inc.

快速回复 返回顶部 返回列表