开启辅助访问 切换到窄版

HD一条街论坛

 找回密码
 加入我们
查看: 451|回复: 6

[欧美] 纪录片:咖啡师 Barista.2015.DOCU.720p.WEB-DL.DD5.1.H264-FGT 3.16G

[复制链接]
发表于 2016-5-12 18:22:51 | 显示全部楼层 |阅读模式
c6e3cb0d3949cfe853210042ce1f742b39b855f1.jpg
3 P9 G6 o& r% X$ r/ ?( \1 d- v6 h9 _( Q6 d

% W' c$ O' t9 U; V* I◎译  名 咖啡师
; y- f0 }+ c. K5 N. S◎片  名 Barista
" @9 e' c( F, ]6 W$ f2 R◎年  代 2015
" C) ]8 S* q7 x& B& l5 `1 L◎国  家 美国
" [/ I- Q( f. w- I◎类  别 纪录片
- m2 r5 {: q! ?: V◎语  言 英语  H3 o1 W8 P, V" q
◎上映日期 2015-11-06(美国)$ g. L. e1 ~( l0 I0 A
◎IMDb评分  6.4/10 from 133 users& t2 {# x1 v0 t* W) a; q
◎IMDb链接  http://www.imdb.com/title/tt4651932/
3 P0 D/ D! b$ Z◎豆瓣评分 7.2/10 from 13 users
+ u" R& w2 {0 X, ~◎豆瓣链接 https://movie.douban.com/subject/26610203// M" T4 S. `9 q& g% C' R* c, \5 E
◎片  长 103分钟
) d" W8 J3 i- @# b◎导  演 Rock Baijnauth
- h: ]$ Q7 Q+ r+ l& M◎主  演 Eden-Marie Abramowicz4 i+ G0 g4 N, F- ]! H' q; p) s9 a" _
      Charles Babinski
5 H9 @# ]! E& Q0 y& }      Charlie Habegger
, j$ e' f5 }2 q. O, N0 g  K      Truman Severson+ _. O5 I( k( G
      Ryan Redden+ a# A) G2 o! \  ?( ~3 x* N* L! n

9 L5 l" ~; p9 l6 m1 P◎简  介% F# _, ^% Z, G  w& a( q
" }3 Z" H" b, F  E; _0 i
  Five top baristas find themselves pushing the limits of coffee perfection to win the National Barista Championship - a surreal competition where even one mistake is far too many(部分内容由HD一条街www.hd1tj.org编辑整理)8 g: H5 a* j7 E% U* Z7 B
  t0 K5 R. l; c9 N) z/ D0 a- C
  1. Video
    & [- t; Q$ `' M0 w0 l9 ]
  2. ID                                       : 1
    + \' z! l) _; l# g" I
  3. Format                                   : AVC2 P( g6 Z6 S) [
  4. Format/Info                              : Advanced Video Codec
    ! t( {' s0 u) c4 @  b) h
  5. Format profile                           : [email protected]
    , Y  c+ j4 b+ n( l- S8 S
  6. Format settings, CABAC                   : No1 S8 q, k. u, q( B& g; H
  7. Format settings, ReFrames                : 2 frames
    ( Y( _4 i2 t$ V* ^& j% P
  8. Codec ID                                 : V_MPEG4/ISO/AVC
    2 f- @2 G: T2 z3 v
  9. Duration                                 : 1h 42mn
    8 o6 m9 u+ P4 E; w7 T
  10. Bit rate                                 : 3 955 Kbps
    - P  \4 R" m, f7 f0 `0 r' Q
  11. Width                                    : 1 280 pixels! W8 U( m. l( ?) Y
  12. Height                                   : 716 pixels2 ^& f% A1 }6 W' ?$ r& n
  13. Display aspect ratio                     : 16:9& ?4 g" s$ y" |- K4 E* x2 E4 ^& }2 Q
  14. Frame rate mode                          : Constant, `  l, L- U$ x5 {+ U
  15. Frame rate                               : 23.976 (24000/1001) fps* C0 E/ g- }& @4 d7 r- v
  16. Color space                              : YUV, u. e# M$ O9 h
  17. Chroma subsampling                       : 4:2:0
    7 @. {6 k' b" s9 U- X! K
  18. Bit depth                                : 8 bits. y5 S# z6 h. C( m! k+ X; O% M
  19. Scan type                                : Progressive" z* W" o9 L1 B% _0 \
  20. Bits/(Pixel*Frame)                       : 0.180
    ; q- Q/ W) e1 m0 i2 z9 J7 B. X
  21. Stream size                              : 2.82 GiB (89%)
    . z  i3 u* e8 `. {
  22. Title                                    : Barista.2015.DOCU.720p.WEB-DL.DD5.1.H264-FGT- K* i' g- L+ m0 N* \2 I
  23. Language                                 : English
    9 M+ ^' h. H6 Y
  24. Default                                  : Yes
    ) a  K8 L- S" ?* ?% }
  25. Forced                                   : No3 F5 t" b' d2 F9 R
  26. Color range                              : Limited
    4 }1 }& q4 q/ C2 k
  27. Color primaries                          : BT.709: ^, R/ J; S$ ~+ j/ ]
  28. Transfer characteristics                 : BT.709
    : f2 R/ S4 e+ C% E4 s0 t6 A
  29. Matrix coefficients                      : BT.709
    5 r. b1 Q2 @* @

  30. 5 I/ e! p, k0 ]/ q
  31. Audio7 L* ~4 H1 i+ n2 A
  32. ID                                       : 2
    ; S+ g" S6 E, e5 D9 E: ?, m! |
  33. Format                                   : AC-3* |" ~0 j$ _: E
  34. Format/Info                              : Audio Coding 3# ?" t5 y9 J4 A( a  S
  35. Mode extension                           : CM (complete main)" p) g$ E; a% A+ z# R
  36. Format settings, Endianness              : Big# i2 J* A" h% I. B% d
  37. Codec ID                                 : A_AC38 ?( B, r3 v2 b/ `0 N
  38. Duration                                 : 1h 42mn
    9 a( U7 c# v0 `8 I2 G
  39. Bit rate mode                            : Constant; e8 e7 `& w9 y& I2 g+ n3 q: }
  40. Bit rate                                 : 384 Kbps
    ' i/ B5 t5 I$ l$ `4 R3 L
  41. Channel(s)                               : 6 channels
    , d' W) @4 C( D9 Q% z6 s" z
  42. Channel positions                        : Front: L C R, Side: L R, LFE2 v8 R; e2 |4 e8 S. p4 z+ r
  43. Sampling rate                            : 48.0 KHz
    ; }- E' U; {% T
  44. Frame rate                               : 31.250 fps (1536 spf)+ \# h  S9 u1 x( I+ d* C; ^
  45. Compression mode                         : Lossy! F; k) E# T1 ?5 c) s& Y3 t% |9 `
  46. Stream size                              : 281 MiB (9%). J6 d" K0 t3 t8 U. c2 H5 ]
  47. Title                                    : Barista.2015.DOCU.720p.WEB-DL.DD5.1.H264-FGT
    9 G% T' x* c; b+ W" v- S5 Y
  48. Language                                 : English
    4 _# U5 g, W& ^- D9 e
  49. Default                                  : Yes
    * @3 L: [8 `5 }$ j4 b
  50. Forced                                   : No& d& q! z8 G6 M. {+ f5 F
  51. + J) b/ k+ }5 F2 ]4 k
  52. Text( y$ J) k/ z' p& c+ T6 L, S! w
  53. ID                                       : 3& `" f2 S, m: w
  54. Format                                   : UTF-8
    ) m1 U& v4 Y5 d
  55. Codec ID                                 : S_TEXT/UTF8
    ) G4 |6 _, s+ Q7 T5 l- ~& p* d
  56. Codec ID/Info                            : UTF-8 Plain Text
    # \4 N: s( v1 V$ F1 ?! C5 n
  57. Language                                 : English0 s1 Y; \& p# K
  58. Default                                  : Yes8 G3 S1 t3 n2 W/ t  [, G. z
  59. Forced                                   : No
    6 y9 {; _6 T0 O/ ]8 v: v

  60. % n6 N" P; v' S3 g$ L" @
  61. Menu2 i( M0 N0 n2 h
  62. 00:00:00.000                             : en:1
    ) e  H+ ~1 {" r5 k# d, k
  63. 00:10:01.000                             : en:23 S0 o6 S, j8 e  G6 G( F" Z
  64. 00:20:53.000                             : en:3
    . h/ e3 P$ L: ~& I4 v" [
  65. 00:29:14.000                             : en:4" Q& F9 g2 |% K
  66. 00:38:27.000                             : en:5$ Y$ P' J4 h* J* F& Y. ^5 u& t
  67. 00:49:00.000                             : en:6
    6 K4 y8 H- F6 M. }
  68. 00:58:59.000                             : en:7
    , x! J/ I$ s. z
  69. 01:09:43.000                             : en:8. G/ v. N' H/ i2 `! F  y
  70. 01:21:12.000                             : en:99 M# K: t, g4 m6 t8 c6 A' f
  71. 01:28:54.000                             : en:10
    1 g7 {7 `  r# n' w+ ]' i
  72. 01:38:16.000                             : en:11
    4 ~, h3 ?! Y  ^
复制代码

* v/ l6 _0 @. _7 o( p
9 e7 b/ Q" P4 f0 e1 [, B2 p( y# ^- \4 ^2 t6 }; D- r3 O

' a8 Y$ z& L! l  z* ^3 Q/ c+ ~& c, {- \
; T+ p1 o: Q4 T
% X  f. T5 w4 R* c& n/ z, {. m

, O, E: y/ p1 j# K  s, ]
& @& w) H( b% `& w% `: b' ]
游客,如果您要查看本帖隐藏内容请回复  捐助论坛可免回复查看隐藏内容 详情请点击
最近访问 头像模式 列表模式
HD一条街,身边的一条街。
发表于 2016-5-12 19:55:45 | 显示全部楼层
很好的纪录片 就是不知道有中文字幕不
HD一条街,身边的一条街。
发表于 2016-5-12 21:09:18 | 显示全部楼层
感谢楼主分享,下载收藏
HD一条街,身边的一条街。
发表于 2016-5-15 11:12:12 | 显示全部楼层
支持,希望不是网盘。
HD一条街,身边的一条街。
发表于 2016-5-19 18:40:25 | 显示全部楼层
喜欢咖啡,喜欢纪录片,收藏
HD一条街,身边的一条街。
发表于 2016-6-11 14:28:59 | 显示全部楼层
隔着屏幕仿佛闻到咖啡香
HD一条街,身边的一条街。
发表于 2016-11-22 09:17:10 | 显示全部楼层
很好的纪录片,谢谢分享
HD一条街,身边的一条街。
您需要登录后才可以回帖 登录 | 加入我们

本版积分规则

手机版|小黑屋|有问题发邮件到admin#(换成@)hd1tj.org|微博|免责申明|HD一条街

GMT+8, 2017-2-22 16:28

Powered by Discuz! X3.1

© 2001-2013 Comsenz Inc.

快速回复 返回顶部 返回列表