开启辅助访问 切换到窄版

HD一条街论坛

 找回密码
 加入我们
查看: 435|回复: 6

[欧美] 纪录片:咖啡师 Barista.2015.DOCU.720p.WEB-DL.DD5.1.H264-FGT 3.16G

[复制链接]
发表于 2016-5-12 18:22:51 | 显示全部楼层 |阅读模式
c6e3cb0d3949cfe853210042ce1f742b39b855f1.jpg
' |+ X. y3 C( Q. W( t) Z: u" {$ Y$ l! E' \1 p
; `( |( w8 i: g
◎译  名 咖啡师
) d. E8 X' K5 ^5 X% b* p◎片  名 Barista
& Q: `. ^: Y; |! K0 T/ j◎年  代 2015' ?( ~% C. H+ c, z& c. M, n
◎国  家 美国
# `7 |% J% U! @+ N& \◎类  别 纪录片; A  y  R! k9 g* N9 \; x% @
◎语  言 英语
0 r" L- ^% a, x; R3 e+ B◎上映日期 2015-11-06(美国)
3 ~' t$ {$ S# [* y7 S◎IMDb评分  6.4/10 from 133 users
+ f* }1 Y8 e' n◎IMDb链接  http://www.imdb.com/title/tt4651932/
8 B' U& t. _  A; k# s/ Q◎豆瓣评分 7.2/10 from 13 users
. Z. k+ ~1 M" H3 L5 D. ~◎豆瓣链接 https://movie.douban.com/subject/26610203/, j# I- ]! s# Y; A8 v
◎片  长 103分钟. x3 ]9 p: a+ I8 M
◎导  演 Rock Baijnauth
; D9 ?8 N2 I; R6 F2 _1 s% p◎主  演 Eden-Marie Abramowicz; x% y0 v' D; _# h: u
      Charles Babinski
4 k6 N+ J; ~' U! W) u8 ?& |! p      Charlie Habegger
, @$ b$ |% f- r" m      Truman Severson4 O# I* J8 z6 H+ \$ C
      Ryan Redden" Q9 x9 M9 q: P

( c: h- Z, P' l◎简  介3 w2 t. I" A" a3 I
+ X( S2 T2 o* i  J7 {6 X: u
  Five top baristas find themselves pushing the limits of coffee perfection to win the National Barista Championship - a surreal competition where even one mistake is far too many(部分内容由HD一条街www.hd1tj.org编辑整理)6 v" x. P3 y' \: j, t
, h8 q# r/ h: b. N! _0 H, |
  1. Video# H7 S) f8 ?8 C
  2. ID                                       : 1
    * [5 `6 ?0 x( ^) H7 O
  3. Format                                   : AVC5 l5 y. x7 \4 b6 O' V9 ]+ {0 ^1 [
  4. Format/Info                              : Advanced Video Codec- W, O! U, O+ Y! A: N/ x2 t: |6 D
  5. Format profile                           : [email protected]& i  ]( Z2 O6 |( e2 k% J
  6. Format settings, CABAC                   : No
    & E* g* {# j- t1 \/ M
  7. Format settings, ReFrames                : 2 frames
    8 k+ K7 B0 p6 e+ \( v7 y
  8. Codec ID                                 : V_MPEG4/ISO/AVC
    . q7 e9 V' L; r7 `: B4 c
  9. Duration                                 : 1h 42mn3 b- d4 |, B$ O$ p0 \2 }  {) W
  10. Bit rate                                 : 3 955 Kbps
    & @7 A) B4 ]% B6 a
  11. Width                                    : 1 280 pixels! |6 M9 l8 N, V# R. ^6 ?
  12. Height                                   : 716 pixels, ]& U! ~: l( _7 C$ }
  13. Display aspect ratio                     : 16:9
    $ }  k" p' B. ^# b. K
  14. Frame rate mode                          : Constant  u% k3 o+ U: r" p: C, `
  15. Frame rate                               : 23.976 (24000/1001) fps( w5 b# [7 ~7 V! Y- ]$ M
  16. Color space                              : YUV' G. n6 V5 X! i- w5 e. \. |
  17. Chroma subsampling                       : 4:2:0
    3 i) K% K; g  v) F1 p
  18. Bit depth                                : 8 bits+ j) E* O  {; {
  19. Scan type                                : Progressive$ W# g2 B* `) K* t* N  ?* U& Q
  20. Bits/(Pixel*Frame)                       : 0.180  [; I! G% T1 w% e9 j
  21. Stream size                              : 2.82 GiB (89%)/ W8 z' @: R1 Z/ n  _; J4 J
  22. Title                                    : Barista.2015.DOCU.720p.WEB-DL.DD5.1.H264-FGT6 x4 T8 ?! y" \$ s
  23. Language                                 : English/ u8 C9 ~. j5 S* z
  24. Default                                  : Yes
    # q7 v( l& @* f  S6 e& L
  25. Forced                                   : No; k( J# |9 k6 ?# y1 N0 ^3 p
  26. Color range                              : Limited( Q2 l; }/ k# _; D4 D
  27. Color primaries                          : BT.7097 Z; h3 ?, ~( J" \" Y1 m
  28. Transfer characteristics                 : BT.709% V5 w9 W& h: U+ o5 f! w# m4 S) b
  29. Matrix coefficients                      : BT.7095 ^8 @7 X, _3 U9 D

  30. & Z& W/ A2 e2 D
  31. Audio
    ( M, n+ I, O" E5 m1 H5 k
  32. ID                                       : 2
    5 B* |% \5 z: w$ u4 y  f
  33. Format                                   : AC-3
    0 V' }. v* v$ a1 x. O
  34. Format/Info                              : Audio Coding 3! {, H1 |/ W) r
  35. Mode extension                           : CM (complete main)* c; Z# I/ S! Y9 @- T
  36. Format settings, Endianness              : Big
      N) Q& |) c$ K, W5 U
  37. Codec ID                                 : A_AC3
    / f. H6 ?" ]. ^4 f6 J$ D
  38. Duration                                 : 1h 42mn1 ]4 F9 G; k4 x6 [" W
  39. Bit rate mode                            : Constant+ o8 n# b8 c( [9 y# Z: b) ^1 d
  40. Bit rate                                 : 384 Kbps4 a& G( z7 p$ [( c) E  M
  41. Channel(s)                               : 6 channels0 L* \$ \' K3 l% D% P5 P5 j( F' l
  42. Channel positions                        : Front: L C R, Side: L R, LFE4 Q* x1 F& c  P, H! B. ?( p
  43. Sampling rate                            : 48.0 KHz
    % G3 H( U5 _( {% @; O) l
  44. Frame rate                               : 31.250 fps (1536 spf)2 c; b- d( I0 t+ Y$ f
  45. Compression mode                         : Lossy, f& h" {" `" g1 X) d8 H
  46. Stream size                              : 281 MiB (9%)
    6 K$ x) T' `' K0 e; Y
  47. Title                                    : Barista.2015.DOCU.720p.WEB-DL.DD5.1.H264-FGT& ]6 |, F: G2 M4 o6 a* z
  48. Language                                 : English- W( t- u1 `4 d0 t7 a
  49. Default                                  : Yes
    * B8 U) R& o7 S8 _, U8 \
  50. Forced                                   : No
    : B- Z2 s! r: J7 c9 @% E
  51. " `& l% G( c! G# \4 V. C
  52. Text! ~3 C& p3 y/ z& u9 S
  53. ID                                       : 3
    0 q7 y" v( J+ P* j, {# E
  54. Format                                   : UTF-8
    ; ^) Z- g' {5 e3 L  C
  55. Codec ID                                 : S_TEXT/UTF8+ z$ j" d/ X$ C
  56. Codec ID/Info                            : UTF-8 Plain Text% U: n( m: B, Z
  57. Language                                 : English  w1 Y/ N: g, M! }$ @/ g- `
  58. Default                                  : Yes/ W, Y3 K. E+ D5 T5 }# _
  59. Forced                                   : No* Z5 N* I) N& Q

  60. ; J6 n7 a# q5 ~* h
  61. Menu: c0 D2 Z" H' e. b" {' @2 i7 Q
  62. 00:00:00.000                             : en:1# B0 e# |: a( Z- X" z% M
  63. 00:10:01.000                             : en:2
    " f. ~8 u. g) y9 w/ X8 ?
  64. 00:20:53.000                             : en:3
    ) |$ H1 P6 S) \' Q( ^* _
  65. 00:29:14.000                             : en:4" I7 z  q, c: u8 x
  66. 00:38:27.000                             : en:5
    . N# n* x6 }" N/ j# ]9 W% _" S# F' ]
  67. 00:49:00.000                             : en:6; Z  p" O) V* f+ q  C
  68. 00:58:59.000                             : en:7+ e( q& X6 ~6 R$ C
  69. 01:09:43.000                             : en:8
    ! N$ p. g( s% G$ x" l
  70. 01:21:12.000                             : en:9
    ( c' v: s$ v, v0 t, T- y: s4 \* K
  71. 01:28:54.000                             : en:10! i( w, {( L: W5 R& p4 {' m1 M
  72. 01:38:16.000                             : en:11
    ; x+ w! O0 \2 I1 K: v! l  f
复制代码

- M0 T4 D- n0 m3 b0 }6 u6 ^) F7 |
- K! Y5 ?( Y1 G- `, z7 ?+ i! g' o7 G8 H8 Y: |

) J9 K7 a& S  N( j$ }% B* j. `. _% a- z+ @; v
* q3 D4 ~0 `% W7 a# Q2 s4 Y/ g# Y9 k

0 u2 s6 l  C' @7 l6 l8 f
+ K! S! _) \+ J2 ?$ V. B  O! e
. Z" p' ]; T) {' l" t6 \
游客,如果您要查看本帖隐藏内容请回复  捐助论坛可免回复查看隐藏内容 详情请点击
最近访问 头像模式 列表模式
HD一条街,身边的一条街。
发表于 2016-5-12 19:55:45 | 显示全部楼层
很好的纪录片 就是不知道有中文字幕不
HD一条街,身边的一条街。
发表于 2016-5-12 21:09:18 | 显示全部楼层
感谢楼主分享,下载收藏
HD一条街,身边的一条街。
发表于 2016-5-15 11:12:12 | 显示全部楼层
支持,希望不是网盘。
HD一条街,身边的一条街。
发表于 2016-5-19 18:40:25 | 显示全部楼层
喜欢咖啡,喜欢纪录片,收藏
HD一条街,身边的一条街。
发表于 2016-6-11 14:28:59 | 显示全部楼层
隔着屏幕仿佛闻到咖啡香
HD一条街,身边的一条街。
发表于 2016-11-22 09:17:10 | 显示全部楼层
很好的纪录片,谢谢分享
HD一条街,身边的一条街。
您需要登录后才可以回帖 登录 | 加入我们

本版积分规则

手机版|小黑屋|有问题发邮件到admin#(换成@)hd1tj.org|微博|免责申明|HD一条街

GMT+8, 2017-1-22 16:02

Powered by Discuz! X3.1

© 2001-2013 Comsenz Inc.

快速回复 返回顶部 返回列表