开启辅助访问 切换到窄版

HD一条街论坛

 找回密码
 立即注册
查看: 386|回复: 6

[欧美] 纪录片:咖啡师 Barista.2015.DOCU.720p.WEB-DL.DD5.1.H264-FGT 3.16G

[复制链接]
发表于 2016-5-12 18:22:51 | 显示全部楼层 |阅读模式
c6e3cb0d3949cfe853210042ce1f742b39b855f1.jpg 4 I% U1 P  w, a. _5 D, K

7 a( p& x# [+ m4 D" A( }
4 q5 C, M8 v# s0 t+ q◎译  名 咖啡师: P1 l' ~& j4 C5 \+ }/ J$ q
◎片  名 Barista
. ~1 X* }1 x5 h! e* ~: M, P◎年  代 2015
2 P9 j5 E; b6 Z◎国  家 美国# p# R% D$ `$ b+ K' _$ w) J
◎类  别 纪录片, B4 D6 ^$ ?6 d! R' X
◎语  言 英语
1 c$ D& k. d6 D7 k- i, v4 ~◎上映日期 2015-11-06(美国)
4 ~: W. X8 K( h2 y* Z◎IMDb评分  6.4/10 from 133 users6 r9 I$ G& l  M- @- \9 @/ p
◎IMDb链接  http://www.imdb.com/title/tt4651932/1 \/ A! M% W0 X1 Y% E$ u
◎豆瓣评分 7.2/10 from 13 users+ }* Q2 S3 q5 j+ Z5 R
◎豆瓣链接 https://movie.douban.com/subject/26610203/
+ w/ y1 T6 l+ a. O! [8 {; s. r+ Y◎片  长 103分钟( ^2 m4 n0 J" K# R
◎导  演 Rock Baijnauth7 {5 j) u- C1 j0 J- Y6 S) S
◎主  演 Eden-Marie Abramowicz
' H% u" v) q: h6 Z, j. y& C9 Y0 a* ]      Charles Babinski
. R9 ]: Z. P7 ?" C/ x; l6 K- s      Charlie Habegger. y2 A* \% U( }( H! c9 G
      Truman Severson
! l1 b% S( h# r4 X3 l# }      Ryan Redden; S4 T; r. {( I" |
$ j2 h, s$ s9 s1 L- O1 \
◎简  介
( t* s5 \6 Z/ D1 _4 B( V2 I  o, S# R- ]8 B
  Five top baristas find themselves pushing the limits of coffee perfection to win the National Barista Championship - a surreal competition where even one mistake is far too many(部分内容由HD一条街www.hd1tj.org编辑整理)
" J/ \: c. x$ M, D- X- X6 V. B+ Y2 W& T) v
  1. Video
    " o2 Q0 Q) |# D3 l0 K4 v8 k4 X0 D
  2. ID                                       : 13 l0 T8 r6 \( _; a  z& b
  3. Format                                   : AVC5 p! U! K' C; y. p% `* w. A* o' j
  4. Format/Info                              : Advanced Video Codec! L/ @; |+ S$ d- l9 u; _' a6 M
  5. Format profile                           : [email protected]
    : G& ?6 B; B- l
  6. Format settings, CABAC                   : No' t- V3 c2 q2 V' D8 T
  7. Format settings, ReFrames                : 2 frames# f1 X  Q) h4 U
  8. Codec ID                                 : V_MPEG4/ISO/AVC3 J/ Y! ^- B: Q$ \; g
  9. Duration                                 : 1h 42mn) h; |- X, \, o+ u4 p0 a; V# a
  10. Bit rate                                 : 3 955 Kbps
    $ i* q' v- G! ?8 t, I
  11. Width                                    : 1 280 pixels
    ; T' f. t5 Y) E: ~1 A
  12. Height                                   : 716 pixels
    / F7 {& ?3 p9 l8 w2 R! y
  13. Display aspect ratio                     : 16:9
    6 R1 B8 W" n8 T$ o- s
  14. Frame rate mode                          : Constant
    ( R: j/ M7 K* q' S, Q8 t6 P
  15. Frame rate                               : 23.976 (24000/1001) fps
    : O9 b7 W6 k( n1 _
  16. Color space                              : YUV
    ) N8 \% j* S& M8 t( o
  17. Chroma subsampling                       : 4:2:04 ^% }; z7 C2 f7 o) B
  18. Bit depth                                : 8 bits' _$ p" _7 @3 y+ F% F3 d* S9 r( Q
  19. Scan type                                : Progressive! s* t; |& U$ f, e( q
  20. Bits/(Pixel*Frame)                       : 0.180) V* a. d. ^0 @1 b
  21. Stream size                              : 2.82 GiB (89%)3 d/ Y  c7 U9 w" `. k  c1 e1 ^
  22. Title                                    : Barista.2015.DOCU.720p.WEB-DL.DD5.1.H264-FGT
    / H4 c1 {. Y, A& j9 J& y
  23. Language                                 : English
    , ]: X8 J6 f# ^8 W
  24. Default                                  : Yes( @; b( B9 X5 U; I6 ~" w; u
  25. Forced                                   : No
    - K$ S4 f" o7 y" n% L* q3 ^7 t
  26. Color range                              : Limited
    . X* ^+ r0 h6 o5 b5 E% }8 \
  27. Color primaries                          : BT.709
    3 |0 G9 [& ?. F( w3 ]$ X
  28. Transfer characteristics                 : BT.709
    + J7 M& ], d; y  h
  29. Matrix coefficients                      : BT.709: r- |3 r' N7 b0 |% ~0 p
  30. ( q( P  W: r; n: y4 [+ j
  31. Audio
    ; O6 A% {' v% J$ p
  32. ID                                       : 22 R6 E' |  \- m, r: G0 U! a
  33. Format                                   : AC-3
    3 a% X6 c" ]6 E. `
  34. Format/Info                              : Audio Coding 3
    & D7 f1 u0 P! N8 E4 f
  35. Mode extension                           : CM (complete main)
    ' J0 n4 f8 F1 D7 N( g# K
  36. Format settings, Endianness              : Big
    + p9 ?! C) M, I
  37. Codec ID                                 : A_AC3! P4 I: h/ R/ z
  38. Duration                                 : 1h 42mn
    : w' D% H' t; e& {
  39. Bit rate mode                            : Constant4 I. u" ?" W1 H6 j: s
  40. Bit rate                                 : 384 Kbps
    & C1 s8 ]* w5 u
  41. Channel(s)                               : 6 channels
    0 F/ r% y9 R2 a7 g* {+ [
  42. Channel positions                        : Front: L C R, Side: L R, LFE) T. W4 j0 Y7 d! N: L! D
  43. Sampling rate                            : 48.0 KHz: r3 E4 t5 M  H
  44. Frame rate                               : 31.250 fps (1536 spf)9 p* q: }' G; e, s  T4 c; H
  45. Compression mode                         : Lossy
    : y. Y  [5 T8 q& v9 L2 H
  46. Stream size                              : 281 MiB (9%)1 R, {. e! d) V# K2 s
  47. Title                                    : Barista.2015.DOCU.720p.WEB-DL.DD5.1.H264-FGT' |$ H! `/ }" E
  48. Language                                 : English
    # [1 [( Z# x9 f! b- S$ c
  49. Default                                  : Yes
    / G3 ~# J% b; R. P6 [/ W0 J
  50. Forced                                   : No. A/ I2 R5 Z5 Z* Z
  51. & A3 F6 o( o5 P+ f
  52. Text% x7 |, ^. m' }
  53. ID                                       : 3
    2 N' T8 K! I2 {& V/ S3 n) j, g( A2 N* k
  54. Format                                   : UTF-8, N5 J/ Y" A! H# K
  55. Codec ID                                 : S_TEXT/UTF8
    , k) w# D- k7 c$ Y! v
  56. Codec ID/Info                            : UTF-8 Plain Text0 e6 P4 ]' n% R- {# H7 ~; O( t0 ?
  57. Language                                 : English
    6 f' h( ]/ u( `6 f) t
  58. Default                                  : Yes
    # |$ u9 N- x, G8 a7 P/ w
  59. Forced                                   : No
    + l# b; N+ N3 d

  60. $ Z. x( p+ K$ {! y. Q/ o1 }
  61. Menu
    4 C. Y: x/ P2 a8 v2 S$ s2 q
  62. 00:00:00.000                             : en:15 ~' t# C3 v" K3 z' p! A
  63. 00:10:01.000                             : en:25 P! F. ~' ^( D
  64. 00:20:53.000                             : en:3$ C( d7 G. p+ L
  65. 00:29:14.000                             : en:4
    6 b7 d! T( }: j: S
  66. 00:38:27.000                             : en:5
    9 @, K' D: C9 k# W3 m; n# A
  67. 00:49:00.000                             : en:6) e( h; L/ z) I2 a
  68. 00:58:59.000                             : en:7  I; L" p3 o& V. K1 F& _9 v
  69. 01:09:43.000                             : en:8
    0 z3 b* z2 {! w* L
  70. 01:21:12.000                             : en:9' c3 C: K! A. I6 v% Y
  71. 01:28:54.000                             : en:10
    7 l% p* R1 A" H" O* s1 z  M
  72. 01:38:16.000                             : en:11
    ( c7 \( [/ ?; z/ U; P  w' v
复制代码
1 x# ~5 k6 N/ B  Z

& `" I2 ?5 g' \  z2 Q5 Y/ r7 {" I, g
6 m1 X9 U4 i  F7 n4 s; v; B; ^- X! I5 j

& g" G2 k: F: M& z. n
0 ]( k, [0 a. C9 m. M# L' j1 ^; o( S. a; ]4 l5 N* n
; g9 \# B9 ~3 X& e
' o6 H6 Z5 B/ h+ L7 R& G5 M
游客,如果您要查看本帖隐藏内容请回复  捐助论坛可免回复查看隐藏内容详情请点击
最近访问 头像模式 列表模式
HD一条街,身边的一条街。
发表于 2016-5-12 19:55:45 | 显示全部楼层
很好的纪录片 就是不知道有中文字幕不
HD一条街,身边的一条街。
发表于 2016-5-12 21:09:18 | 显示全部楼层
感谢楼主分享,下载收藏
HD一条街,身边的一条街。
发表于 2016-5-15 11:12:12 | 显示全部楼层
支持,希望不是网盘。
HD一条街,身边的一条街。
发表于 2016-5-19 18:40:25 | 显示全部楼层
喜欢咖啡,喜欢纪录片,收藏
HD一条街,身边的一条街。
发表于 2016-6-11 14:28:59 | 显示全部楼层
隔着屏幕仿佛闻到咖啡香
HD一条街,身边的一条街。
发表于 2016-11-22 09:17:10 | 显示全部楼层
很好的纪录片,谢谢分享
HD一条街,身边的一条街。
您需要登录后才可以回帖 登录 | 立即注册

本版积分规则

手机版|小黑屋|有问题发邮件到admin#(换成@)hd1tj.org|微博|免责申明|HD一条街

GMT+8, 2016-12-5 16:30

Powered by Discuz! X3.1

© 2001-2013 Comsenz Inc.

快速回复 返回顶部 返回列表