开启辅助访问 切换到窄版

HD一条街论坛

 找回密码
 加入我们
查看: 452|回复: 6

[欧美] 纪录片:咖啡师 Barista.2015.DOCU.720p.WEB-DL.DD5.1.H264-FGT 3.16G

[复制链接]
发表于 2016-5-12 18:22:51 | 显示全部楼层 |阅读模式
c6e3cb0d3949cfe853210042ce1f742b39b855f1.jpg
6 L$ O0 z8 N0 ?/ z
" `0 a0 o& G5 ]+ ]1 h4 q1 R' y: o& K. M/ W1 l# _
◎译  名 咖啡师& ]" A+ t. `: {
◎片  名 Barista
0 K8 ^- L% _7 _+ x5 z  i◎年  代 20159 f/ r( G$ F9 X  `
◎国  家 美国! S" t& @7 ]* w. I4 r
◎类  别 纪录片2 j0 ], u1 H9 X" c
◎语  言 英语
2 _: ^- j2 `+ Y7 r5 C6 E9 S7 Y$ Q7 |◎上映日期 2015-11-06(美国)
+ o8 }6 X- b/ q- q# B◎IMDb评分  6.4/10 from 133 users5 `% p& r& `3 Y1 `2 z
◎IMDb链接  http://www.imdb.com/title/tt4651932/
& z0 ^8 `4 z1 e6 a◎豆瓣评分 7.2/10 from 13 users
+ x. l1 i: C% r) D1 J6 I◎豆瓣链接 https://movie.douban.com/subject/26610203/
) c6 I2 ]* W" U◎片  长 103分钟
8 z- }! ?- M6 z) U( Z& s4 e, m◎导  演 Rock Baijnauth4 ?, z2 B* @  y0 P  ^$ P% ~
◎主  演 Eden-Marie Abramowicz. b/ k& @' w2 P% a- q
      Charles Babinski6 P/ g4 O2 T9 n" h, L
      Charlie Habegger+ M$ w7 }) ~3 m. D5 z1 O
      Truman Severson0 c  z. M4 c8 {" K" u
      Ryan Redden4 ~  L0 S  M& P5 O# q

* |/ d2 Z9 G/ p◎简  介( y* U# i2 y5 }% E# Z7 K

% G$ J- B* F6 c5 e) [+ d  Five top baristas find themselves pushing the limits of coffee perfection to win the National Barista Championship - a surreal competition where even one mistake is far too many(部分内容由HD一条街www.hd1tj.org编辑整理)+ ]( A5 p1 |3 q& J/ x

6 R" ^% ?  i2 t9 Z2 _6 p4 r
  1. Video* f; y4 }! M" Y0 l* }; h
  2. ID                                       : 1! y4 c, f: w, J' G6 o* k6 R
  3. Format                                   : AVC
    : |8 f- y0 L7 f+ k3 r4 @
  4. Format/Info                              : Advanced Video Codec3 m4 F; r& A4 q
  5. Format profile                           : [email protected]
    ! }+ f  h% q% E( l" D3 J1 n2 M1 w
  6. Format settings, CABAC                   : No, Y/ S% y; Q/ a5 q1 {
  7. Format settings, ReFrames                : 2 frames
    - z$ i( a7 T% M; g2 X% ]9 y
  8. Codec ID                                 : V_MPEG4/ISO/AVC
    7 u1 V& e) I" P8 I5 L! n# J4 \. A4 m
  9. Duration                                 : 1h 42mn! h- B7 U, m  a, W/ I
  10. Bit rate                                 : 3 955 Kbps
    ! U0 D% w7 q, y  I
  11. Width                                    : 1 280 pixels, k& L, \1 u9 \, D
  12. Height                                   : 716 pixels( ?" }  e9 C& w7 T/ |3 Z
  13. Display aspect ratio                     : 16:9" m6 i  x0 c9 R
  14. Frame rate mode                          : Constant
    # J* j' L. @: G% R% n/ l
  15. Frame rate                               : 23.976 (24000/1001) fps
    " @' b2 \  `1 ~3 c2 ]/ R- o5 Q. B
  16. Color space                              : YUV. y1 _$ @# U! L+ O3 {+ s6 w- U
  17. Chroma subsampling                       : 4:2:0
    $ B. m. i& x$ O; ?
  18. Bit depth                                : 8 bits" V4 V* P0 g1 }; y3 A* P
  19. Scan type                                : Progressive
    ) t4 \' z' q( t; P% z
  20. Bits/(Pixel*Frame)                       : 0.1802 _( z6 _; P9 Q$ h4 O$ a
  21. Stream size                              : 2.82 GiB (89%)2 E' m% ~2 i4 \; Z1 _. e$ {$ u
  22. Title                                    : Barista.2015.DOCU.720p.WEB-DL.DD5.1.H264-FGT
    5 O, I2 M: i! L( L
  23. Language                                 : English% P. o( d, x! Z3 ~! {
  24. Default                                  : Yes
    " s9 n& T8 g  Y" x0 @
  25. Forced                                   : No  h) M5 n8 x! N& _0 q4 o
  26. Color range                              : Limited/ N6 r# F3 w* U, j% J% Q
  27. Color primaries                          : BT.709
    3 J+ A; |5 v$ d
  28. Transfer characteristics                 : BT.709
    ' [7 L: |9 y! u1 J
  29. Matrix coefficients                      : BT.709# t: p) t8 s8 J7 C, O5 K2 |
  30. ' ?# J% W3 d# m' t
  31. Audio
    + t  u# a/ o2 [" W! o
  32. ID                                       : 2
    ( E+ E9 A( V+ f+ [
  33. Format                                   : AC-3
    * p, r8 P4 V4 Y" W6 C2 g- G
  34. Format/Info                              : Audio Coding 3. R5 P( z6 H: |/ t
  35. Mode extension                           : CM (complete main)
    % o" T, g2 Y* o, F' F: G" I
  36. Format settings, Endianness              : Big
    ( w6 \9 o: X* M
  37. Codec ID                                 : A_AC33 W& }/ v- H+ ~" {/ g# _
  38. Duration                                 : 1h 42mn1 ?% Z) ?* `3 b% G6 P) \$ c
  39. Bit rate mode                            : Constant
    3 A6 A" D$ U, x/ O. D
  40. Bit rate                                 : 384 Kbps
    8 S, E. f( L" [4 i0 c* t0 S7 ]/ d
  41. Channel(s)                               : 6 channels
    " B' z; A9 g4 R1 E4 \
  42. Channel positions                        : Front: L C R, Side: L R, LFE
    6 e: u" c0 }3 S6 A# X
  43. Sampling rate                            : 48.0 KHz
    # B* K  o6 G9 i# O5 u: Y4 ~
  44. Frame rate                               : 31.250 fps (1536 spf)! T/ W3 M. b( j0 z  d
  45. Compression mode                         : Lossy
    & w/ L6 _% W0 ?
  46. Stream size                              : 281 MiB (9%)+ r# ^" g+ I- L4 I9 e
  47. Title                                    : Barista.2015.DOCU.720p.WEB-DL.DD5.1.H264-FGT
    5 g3 t2 i; ^6 F0 P8 O2 C
  48. Language                                 : English
    6 P( Y1 q/ B& a2 U! c
  49. Default                                  : Yes
    5 d0 y) v( F# ?, m
  50. Forced                                   : No
    1 z& O0 I  }; z- g) _' }; P( q& O: b( t
  51. $ s2 x6 t$ k3 {# |3 p
  52. Text
    0 p- V6 G7 X1 ^! z: J
  53. ID                                       : 33 e& E2 s5 a. {! H
  54. Format                                   : UTF-8
    ! i# ?" }7 p# y6 U7 k7 x
  55. Codec ID                                 : S_TEXT/UTF8
    & }4 h" l% Q* t2 B
  56. Codec ID/Info                            : UTF-8 Plain Text
    : s9 h3 V/ P& u' i/ F% l" N7 v7 l
  57. Language                                 : English: y* q. v3 D9 e& }0 A0 o. j
  58. Default                                  : Yes
    ( R1 C% M, P2 o# r# k
  59. Forced                                   : No
    ; H2 v- v/ X$ I) G. K# T
  60. $ X7 v" R, R2 V3 {: C' D
  61. Menu9 ^0 B8 M. m$ U6 e8 n# P' V
  62. 00:00:00.000                             : en:1
    / n, w' G2 M3 G1 j( Q
  63. 00:10:01.000                             : en:26 o% ^- _7 a9 F. }
  64. 00:20:53.000                             : en:3& {( x$ H& z$ k1 R( |$ ~/ j+ p9 \+ f
  65. 00:29:14.000                             : en:4
    9 d- ?% y) Y- ~& f) p& u& U( g
  66. 00:38:27.000                             : en:5
    ; C. g+ q; x. y
  67. 00:49:00.000                             : en:6
    $ i! @4 j0 E: E( {+ E1 y2 R
  68. 00:58:59.000                             : en:74 F0 m4 E+ h% [. I  V7 p& m
  69. 01:09:43.000                             : en:8
    0 c1 g. Q0 }% B8 B* L9 n
  70. 01:21:12.000                             : en:9- @. m# l$ F5 L3 g
  71. 01:28:54.000                             : en:10
    9 \" v- R' `( Q
  72. 01:38:16.000                             : en:11
    : P0 _$ v/ ]1 i9 y$ L# H+ L. Z' B
复制代码

1 o. k" W3 @5 h% o; z; o
6 F; t7 F( _% j# N, E8 p$ j
: j4 a8 ~: D& G; e( k- m9 u. T  V
" h) l) r2 I' r% F/ [) g4 M( A; R) S. ]

  X) Q2 g- ~6 ]( R  ^, m, h3 o6 O' {" g9 I0 P( ?% p

3 C9 }' }! k9 d. ?# H7 N- q  w; w# K0 o, {( _
游客,如果您要查看本帖隐藏内容请回复  捐助论坛可免回复查看隐藏内容 详情请点击
最近访问 头像模式 列表模式
HD一条街,身边的一条街。
发表于 2016-5-12 19:55:45 | 显示全部楼层
很好的纪录片 就是不知道有中文字幕不
HD一条街,身边的一条街。
发表于 2016-5-12 21:09:18 | 显示全部楼层
感谢楼主分享,下载收藏
HD一条街,身边的一条街。
发表于 2016-5-15 11:12:12 | 显示全部楼层
支持,希望不是网盘。
HD一条街,身边的一条街。
发表于 2016-5-19 18:40:25 | 显示全部楼层
喜欢咖啡,喜欢纪录片,收藏
HD一条街,身边的一条街。
发表于 2016-6-11 14:28:59 | 显示全部楼层
隔着屏幕仿佛闻到咖啡香
HD一条街,身边的一条街。
发表于 2016-11-22 09:17:10 | 显示全部楼层
很好的纪录片,谢谢分享
HD一条街,身边的一条街。

手机版|小黑屋|有问题发邮件到admin#(换成@)hd1tj.org|微博|免责申明|HD一条街

GMT+8, 2017-3-26 23:05

Powered by Discuz! X3.1

© 2001-2013 Comsenz Inc.

快速回复 返回顶部 返回列表