开启辅助访问 切换到窄版

HD一条街论坛

 找回密码
 立即注册
查看: 121|回复: 1

[欧美] 纪录片:你好,邻居/友好的邻居 Salam.Neighbor.2015.DOCU.720p.WEB-DL.DD5.1.H264-FGT 2.24G

[复制链接]
发表于 2016-5-8 11:54:27 | 显示全部楼层 |阅读模式
446157edc71d6274a5556f421983d8615033f0d6.jpg ; }* l% ]9 Z) W- r
0 ]1 T% C6 q8 ]: P
) U1 X. m: a9 x
◎译  名 你好,邻居/友好的邻居6 n3 d# L) f+ L
◎片  名 Salam Neighbor9 t& {- _8 U" q5 }
◎年  代 2015
6 L0 Y0 ~. ^2 ?) _7 F; f" r: C◎国  家 美国/约旦 Jordan
3 [9 Y& g& k. A# l; h( z◎类  别 剧情/冒险/纪录片
; p# L/ w  S/ v9 e8 t7 T0 k% p◎语  言 英语, l  r- W! O! d5 g
◎字  幕   英文
1 M  o, j7 G" U: r& Y7 l◎转  载   HD一条街 www.hd1tj.org
3 S/ _. N" j2 Q  @◎上映日期 2015-07-20(美国)/2015-12-08(波兰)3 E8 z# e( |6 A7 F+ q( d
◎IMDb评分  9.7/10 from 66 users
3 Y6 _/ S1 u! V* L& M◎IMDb链接  http://www.imdb.com/title/tt3828488/5 F( Z& r; U" o* L  W! p9 Y& l
◎豆瓣评分 0/10 from 0 users
- M# Q' |( y5 ~◎豆瓣链接 https://movie.douban.com/subject/26737915/3 W# x/ j! b- u9 g: _5 D
◎片  长 75分钟8 u7 d5 m/ y5 g: {# q0 \" @3 K+ C
◎导  演 Zach Ingrasci / Chris Temple
3 @/ s( M" d1 e◎主  演 Zach Ingrasci  z; b' p% _+ R/ I# g. u
      Chris Temple
( L0 o# q, O* [5 u. A; ^* \/ t
) T7 o& L/ V( e+ T1 H◎简  介
3 C' {, I/ p; m1 N$ d5 _$ |/ U2 e! R& {/ X
  Seven miles from war, 85,000 Syrians struggle to restart their lives inside Jordan’s Za’atari refugee camp. For the first time in history, two filmmakers fully embed themselves in the camp, providing an intimate look at the world’s most dire humanitarian crisis.7 g4 t/ }, H' h# j4 q1 Z4 l
  From meeting Um Ali, a woman struggling to overcome personal loss and cultural barriers, to the street smart, 10-year-old Raouf, whose trauma hides just beneath his ever present smile, Zach and Chris uncover inspiring stories of individuals rallying, against all odds, to rebuild their lives and those of their neighbors.
; a) p+ b, Y- ^" T) f  Two Americans deliberately head to the edge of war, just seven miles from the Syrian border, to live among 80,000 uprooted refugees in Jordan's Za'atari refugee camp. As the first filmmakers allowed by the United Nations to register and set-up a tent inside a refugee camp, Zach and Chris plunge into the heart of the world's most pressing humanitarian crisis. From meeting Um Ali, a woman struggling to overcome personal loss and cultural barriers, to the street smart, 10-year-old Raouf, whose trauma hides just beneath his ever present smile, Zach and Chris uncover inspiring stories of individuals rallying, against all odds, to rebuild their lives and those of their neighbors.
  1. Video
    $ X# e% K. I$ Q; b' m6 r
  2. ID                                       : 1
    $ H6 f4 p/ e9 ~8 c0 y9 m' L
  3. Format                                   : AVC
    6 {2 o9 ^- g  }- m& V  N
  4. Format/Info                              : Advanced Video Codec6 ]  R( I+ U5 ?1 [$ c4 J  ~9 {
  5. Format profile                           : [email protected]! e/ K3 S. ~5 c$ N
  6. Format settings, CABAC                   : Yes) n% H. c" p- U/ C
  7. Format settings, ReFrames                : 2 frames
    + {0 i5 `* G8 N% `. k
  8. Codec ID                                 : V_MPEG4/ISO/AVC
    . C$ Z+ p3 c8 L8 v1 y0 H
  9. Duration                                 : 1h 15mn
    6 n& ?# ~' Z: M# u9 [$ D) [
  10. Bit rate mode                            : Variable
    9 d  ^' F9 e* j0 V
  11. Bit rate                                 : 3 810 Kbps# D6 Q  \* ?0 M% n1 C% Q, J
  12. Maximum bit rate                         : 768 Kbps9 a* b9 k7 h. t# W
  13. Width                                    : 1 280 pixels
      R0 K+ W# X5 C4 X9 p! F- Q: o
  14. Height                                   : 718 pixels  Y- I" C5 U9 t, h- Z4 d
  15. Display aspect ratio                     : 16:9( B& ~* X  G) A# M
  16. Frame rate mode                          : Constant
    ; M) ?7 X) ~' i* J0 T( a0 }$ q
  17. Frame rate                               : 23.976 (24000/1001) fps. ]' V1 E) @- K
  18. Original frame rate                      : 25.000 fps! d3 W( @, v. w" g( l$ ~
  19. Color space                              : YUV" x1 H+ j* ^' L# i: a7 \: ^, w( z
  20. Chroma subsampling                       : 4:2:0- {( H( f# C* E2 @0 b
  21. Bit depth                                : 8 bits
    % l$ [% a6 r# ^5 s
  22. Scan type                                : Progressive
    ) ]4 Q  ~, c( F  E+ C7 w* X6 u
  23. Bits/(Pixel*Frame)                       : 0.173: q2 c" S( D  O$ l+ c
  24. Stream size                              : 2.00 GiB (89%)4 R! d2 U5 g1 X
  25. Title                                    : Salam.Neighbor.2015.DOCU.720p.WEB-DL.DD5.1.H264-FGT
    0 E' l/ b% e% `2 J" T- S- O
  26. Language                                 : English1 i" d; ~2 V5 i, e5 ^
  27. Default                                  : Yes
    ' X6 v5 o1 f& N/ s$ V$ t1 v
  28. Forced                                   : No
    + b  H2 ~/ Z4 V

  29. : A! P9 l) S3 u
  30. Audio
    2 Z* t$ P& e3 i, J7 m' d
  31. ID                                       : 2- L2 j0 j' T* n% @$ l' B4 d) d
  32. Format                                   : AC-3
    1 q% J+ L* N  \  B) F1 D
  33. Format/Info                              : Audio Coding 3
    " |/ m3 R6 T  H, b+ w
  34. Mode extension                           : CM (complete main)
    - u0 X1 G" Q  N8 x5 f) O
  35. Format settings, Endianness              : Big
    4 d' d; o' B% e2 z8 H
  36. Codec ID                                 : A_AC3" a- X$ Z( o. G; I$ e
  37. Duration                                 : 1h 15mn/ x7 `: e# k3 u, {* _
  38. Bit rate mode                            : Constant( a7 P5 {2 E1 ^, ]! [* H) d
  39. Bit rate                                 : 384 Kbps, ~) _; i3 w0 `
  40. Channel(s)                               : 6 channels
    1 k* F% [& Q0 R( f
  41. Channel positions                        : Front: L C R, Side: L R, LFE
    - N& w( U2 n/ g; y' g
  42. Sampling rate                            : 48.0 KHz
      s4 ]' O; t) v# H
  43. Frame rate                               : 31.250 fps (1536 spf)
    % N* v1 Y8 O4 g% T
  44. Compression mode                         : Lossy
    $ j' M3 b# F7 f9 I( a( N' o
  45. Stream size                              : 206 MiB (9%), @, ]4 |5 B9 T0 j
  46. Title                                    : Salam.Neighbor.2015.DOCU.720p.WEB-DL.DD5.1.H264-FGT8 c" W4 z  L( ?- Y4 q5 i3 b8 M
  47. Language                                 : English
    8 ^0 I/ X/ C1 M2 ^
  48. Default                                  : Yes. `8 C" A" g9 D; r) @# y, ~' j
  49. Forced                                   : No
    3 i# t% m7 b) C4 C5 L) C0 P
  50. % ~* L1 |9 {1 m1 i9 v6 h9 Y+ i
  51. Text
    6 p& I9 a) [; a
  52. ID                                       : 3
    / V0 I# H& M/ t- ^- m# t
  53. Format                                   : UTF-8( r. d& F9 d$ K) e1 m6 T: Y1 F" z3 O, x
  54. Codec ID                                 : S_TEXT/UTF8
      K0 t3 o1 g. V6 ?( y7 N' G
  55. Codec ID/Info                            : UTF-8 Plain Text1 \& M" b1 L  j
  56. Language                                 : English
    3 s) l  n  m5 B) l  U  b. T% g
  57. Default                                  : Yes
    5 m# d' v6 [* F0 c2 B& m
  58. Forced                                   : No
复制代码

! b  V- A' I. Z* F3 _; l9 B, H0 Y# a' k$ M+ g: P! R8 ]/ D1 e

, z1 n5 F2 W+ t! Q0 X; b
5 R9 L+ s5 ?4 ^5 b4 s/ E# ~+ D( w+ [; o5 i6 {* ?/ M

1 p, Z- L) i5 ?6 [' o8 U: x+ [
% L, q5 o2 u7 g7 K& {7 j, A
$ G5 t1 m. v  _) g7 e1 ], x- {. ^% d) u$ Y

2 a4 J, P  h) j' L9 v( d* [3 K) w, Q$ g- Q: B
游客,如果您要查看本帖隐藏内容请回复  捐助论坛可免回复查看隐藏内容详情请点击
最近访问 头像模式 列表模式
HD一条街,身边的一条街。
发表于 2016-11-22 12:17:41 | 显示全部楼层
沙发,谢谢分享!!!
HD一条街,身边的一条街。
您需要登录后才可以回帖 登录 | 立即注册

本版积分规则

手机版|小黑屋|有问题发邮件到admin#(换成@)hd1tj.org|微博|免责申明|HD一条街

GMT+8, 2016-12-10 14:56

Powered by Discuz! X3.1

© 2001-2013 Comsenz Inc.

快速回复 返回顶部 返回列表