开启辅助访问 切换到窄版

HD一条街论坛

 找回密码
 立即注册
查看: 131|回复: 1

[欧美] 美国梦之安魂曲 Requiem.for.the.American.Dream.2015.DOCU.720p.WEB-DL.DD5.1.H264-FGT 2.22G

[复制链接]
发表于 2016-5-4 08:25:06 | 显示全部楼层 |阅读模式
1fde3bf8600acde7c7dc9086fc4211a9c36568cd.jpg - W" h  _1 f9 Z$ i* ~2 ?
! t- G3 P: U& @5 r( `
3 a4 y: J( y% R  k: X
◎译  名 美国梦之安魂曲
/ B1 S1 w6 ^" i% j% g/ K7 U◎片  名 Requiem for the American Dream* J. v* j+ y( H  U/ |
◎年  代 20155 J/ ^7 ], [7 c( \5 Q
◎国  家 美国
, J8 x4 r3 o( [3 y◎类  别 传记/纪录片5 T' v% r3 y& V6 u# ]: O; ?0 K
◎语  言 英语& M% j* l0 i( E+ O2 {( L
◎字  幕   英文4 T. ~' v, f' f$ }+ Z+ p' v
◎转  载   HD一条街 www.hd1tj.org. ~! q& ^  Q0 D1 x* }
◎上映日期 2015.-04-18(翠贝卡电影节)- v" ?& \1 _% C& R$ j# W1 W
◎IMDb评分  8.0/10 from 215 users& X2 [4 _- K6 x, u1 z( G! p
◎IMDb链接  http://www.imdb.com/title/tt3270538/
9 z9 g9 K' d: A8 P6 n: k◎豆瓣评分 0/10 from 3 users/ u8 [6 s; P, d! Z, t5 s3 W
◎豆瓣链接 https://movie.douban.com/subject/26732573/
/ M; ^+ J7 K$ Q4 G+ g& z% Q◎片  长 73min& p; Z- P8 @+ W2 e% x( _* ^# V
◎导  演 Peter D. Hutchison / Kelly Nyks / Jared P. Scott
! t% M: N8 ]  v# `8 e+ x; c◎主  演 Noam Chomsky7 a  w7 z/ z3 V+ @3 k  ~. w# {. Z6 H& h

+ e' x% c8 b' C  m$ m0 G◎简  介
2 t1 J3 x: p, p  R  C# n% }2 ]" C) Z3 K0 u! w7 y
  REQUIEM FOR THE AMERICAN DREAM is the definitive discourse with Noam Chomsky, widely regarded as the most important intellectual alive, on the defining characteristic of our time - the deliberate concentration of wealth and power in the hands of a select few. Through interviews filmed over four years, Chomsky unpacks the principles that have brought us to the crossroads of historically unprecedented inequality - tracing a half- century of policies designed to favor the most wealthy at the expense of the majority - while also looking back on his own life of activism and political participation. Profoundly personal and thought provoking, Chomsky provides penetrating insight into what may well be the lasting legacy of our time - the death of the middle class, and swan song of functioning democracy. A potent reminder that power ultimately rests in the hands of the governed, REQUIEM is required viewing for all who maintain hope in a shared stake in the future.
  1. Video( y$ V# U& |1 M" E5 w2 Q- T; v
  2. ID                                       : 1
    $ K- d) l8 i6 w9 w$ I
  3. Format                                   : AVC& |4 g$ B: K4 j( t
  4. Format/Info                              : Advanced Video Codec
    : x: `  \; O% g' _2 W
  5. Format profile                           : [email protected]" x8 n( n- R4 @) ~% f1 ~) [/ g0 B
  6. Format settings, CABAC                   : Yes" p% G) \4 d% g3 e8 {: j/ L
  7. Format settings, ReFrames                : 2 frames
    6 {2 ]  A. S& L* D' h
  8. Codec ID                                 : V_MPEG4/ISO/AVC
    . d- M( @! |2 J* R* k
  9. Duration                                 : 1h 12mn
    : g& x0 j" T6 _& {  R5 s
  10. Bit rate mode                            : Variable# A( n1 e% `. B7 D
  11. Bit rate                                 : 3 900 Kbps1 \% d8 x$ }6 j. Z
  12. Maximum bit rate                         : 768 Kbps
    5 j! s# c- |) C7 `: U. C( J: U
  13. Width                                    : 1 280 pixels5 C' b2 m5 E$ v$ F& M, O
  14. Height                                   : 714 pixels0 G  |% \& V% b, u8 @
  15. Display aspect ratio                     : 16:93 x- d) {; Y1 t2 N
  16. Frame rate mode                          : Constant
    7 v6 B' m. h! l; M, Y# _3 k/ {
  17. Frame rate                               : 23.976 fps
    : V! |" G& W( q/ {& |. D
  18. Original frame rate                      : 25.000 fps
    ' P8 M( |, M% r- W9 k, N
  19. Color space                              : YUV5 L' k( A  d% c! p
  20. Chroma subsampling                       : 4:2:0$ T+ o$ D- e8 {# r
  21. Bit depth                                : 8 bits
    / @5 |9 f6 {$ _
  22. Scan type                                : Progressive" p3 ^4 W0 z/ @; t$ F
  23. Bits/(Pixel*Frame)                       : 0.178
    * K( g( F( K7 \. u2 R; |
  24. Stream size                              : 1.98 GiB (89%)
    ) l& s/ Q4 ]* H, S& s3 q
  25. Title                                    : Requiem.for.the.American.Dream.2015.DOCU.720p.WEB-DL.DD5.1.H264-FGT
    3 S4 w0 ]6 U9 J; A4 J+ v9 p. _4 u9 S
  26. Language                                 : English
    . a3 |: v2 R: M
  27. Default                                  : Yes
    8 Q' w/ M& _. a' k1 W: t+ R
  28. Forced                                   : No  J. Z2 M3 O3 W  I

  29. ) b# a4 P* n2 }; i+ U: A$ a
  30. Audio
    " Z+ G9 g1 o8 \0 e
  31. ID                                       : 2
      y' c" k+ _7 J6 U
  32. Format                                   : AC-3# F6 m* N5 M( Q: A4 T
  33. Format/Info                              : Audio Coding 38 k# ^  ]  Z& |8 h6 x- Y
  34. Mode extension                           : CM (complete main)
    9 m: @! d5 U0 D. ~( t
  35. Format settings, Endianness              : Big, N) O. X# x* r! r
  36. Codec ID                                 : A_AC3- ^. m9 A) |1 p1 P6 z/ g
  37. Duration                                 : 1h 12mn
      ?8 ~0 }% {5 |$ \
  38. Bit rate mode                            : Constant% Y/ P$ |2 s+ ]2 G3 a5 Z0 `6 r
  39. Bit rate                                 : 384 Kbps
    $ k+ t! {0 z, P3 i7 ^% f8 J5 e& h
  40. Channel(s)                               : 6 channels
    7 }: s5 ~* A+ W4 K6 G
  41. Channel positions                        : Front: L C R, Side: L R, LFE$ G. _" B9 S; g! o$ R
  42. Sampling rate                            : 48.0 KHz( [6 k: W6 W+ ^" r% J' t$ t
  43. Frame rate                               : 31.250 fps (1536 spf), c4 L9 c5 z, {- r" b% ?2 `, @7 ?
  44. Compression mode                         : Lossy
    4 b, N+ Q8 M$ U2 V  i4 T
  45. Stream size                              : 200 MiB (9%)6 G& Y' V) j) \2 T
  46. Language                                 : English! l& L" @7 t- Z# G. J- Q
  47. Default                                  : Yes
    % Y# x3 Z& O7 l# ]
  48. Forced                                   : No; `7 @1 P- B1 ]  {$ Q2 n

  49.   p1 W, b+ A2 U) K; p
  50. Text
    ( }0 B% f5 c' V8 i, ?; U
  51. ID                                       : 3( i  P7 e1 u9 C" k3 H
  52. Format                                   : UTF-86 u  ^- T3 K% |/ C
  53. Codec ID                                 : S_TEXT/UTF8" I& @0 {1 Q% Y' G: U  X1 T1 G0 L3 @/ K/ }
  54. Codec ID/Info                            : UTF-8 Plain Text4 V; X0 g: N2 F0 k: K0 H
  55. Language                                 : English2 f4 b+ {, y1 y
  56. Default                                  : Yes
    ' B4 `! R: R4 E
  57. Forced                                   : No
复制代码
" p; H% G7 g8 Z

" n# x; e3 w9 C$ C! ^) F  U+ e9 J! V/ Y( o- o* |! k, ?

# F  t2 W) B3 W1 s1 X3 \9 H+ ]; Z5 P0 C& r  d

7 y6 d5 u( l/ p" F
. S$ d" j5 Q% @( Z' x! r
/ I; z1 G5 x: e# }, J3 s/ u( F; V; f* Z& f

9 \8 V: y$ u$ _
7 }0 o9 P  O) g. U4 A; m
游客,如果您要查看本帖隐藏内容请回复  捐助论坛可免回复查看隐藏内容详情请点击
最近访问 头像模式 列表模式
HD一条街,身边的一条街。
发表于 2016-5-5 23:00:15 | 显示全部楼层
楼主发贴辛苦了,谢谢楼主分享!
HD一条街,身边的一条街。
您需要登录后才可以回帖 登录 | 立即注册

本版积分规则

手机版|小黑屋|有问题发邮件到admin#(换成@)hd1tj.org|微博|免责申明|HD一条街

GMT+8, 2016-12-11 08:16

Powered by Discuz! X3.1

© 2001-2013 Comsenz Inc.

快速回复 返回顶部 返回列表