开启辅助访问 切换到窄版

HD一条街论坛

 找回密码
 加入我们
查看: 286|回复: 9

[1080p] 皇家师姐2/皇家战士 Royal.Warriors.1986.CHINESE.1080p.BluRay.x264.DD5.1-FGT 8.99G

[复制链接]
发表于 2016-4-18 11:31:01 | 显示全部楼层 |阅读模式
9c112107248d6e2b665a435eaa652a7bb92b2a89.jpg
# s. m3 D7 ]7 i$ [! V
) Q9 F& `* ^/ O; |; a6 x5 j; \2 c4 d, h9 [9 L6 y8 U
◎译  名 皇家师姐2/小虾米对大鲸鱼' t! ?" z$ R6 b
◎片  名 皇家战士
. r: H+ W9 k$ x4 m* ?+ i, L" a◎年  代 1986
- b' o+ |4 _; T2 s& ~; t; a, a& a◎国  家 香港+ _7 Q) l8 L7 I1 u6 A
◎类  别 动作2 \- J, P3 j+ _' U! y! C9 X
◎语  言 粤语
4 y" f2 w4 A& a! m: {; K◎字  幕   英文/ Y4 x" f! w, J, A  ^
◎转  载   HD一条街 www.hd1tj.org
+ a, f' k1 Z/ y; f◎上映日期 1986-06-26
3 W" d% y5 q  Q3 G0 R! k$ u◎IMDb评分  6.8/10 from 709 users
# D7 |5 T* R& p- ]◎IMDb链接  http://www.imdb.com/title/tt0091229/
7 h3 W/ h8 V$ R2 ]6 i7 r  w# Z◎豆瓣评分 6.6/10 from 365 users
2 l* j2 _+ T/ Z6 x! |$ ?◎豆瓣链接 https://movie.douban.com/subject/1308199/
. k, n, p$ p, m◎片  长 96 分钟+ K7 o* }0 A/ [" n) G+ ^
◎导  演 钟志文 (David Chung (I))/ \: A+ b1 q9 ?
◎主  演 杨紫琼
* k) `) D  `# H2 L5 w/ W9 Z5 Z      王敏德0 X7 i$ ~# t- R4 W
      真田广之0 l- o- g( y- u( B7 f

) v/ J7 S* B$ l◎简  介
( p1 b: h0 L$ M. N# T1 o
) X4 d: r, u% U9 ~% R! E, G  日本警探山本(真田广之)来香港途中,遇上押解犯人李仲青回港的香港女警Michelle(杨紫琼).李的同伙欲救李,结果,两人都被山本杀死,而匪徒一共有四人,剩下的2个匪徒报复,杀害了山本的妻女,山本亦杀死其中一名匪徒,他们追踪最后一人到了矿厂,展开了一场恶战…………
5 v0 N0 S' }4 F: @! q9 L5 F: w, V7 @' p1 ^
◎获奖情况0 k0 Z* f* C; a6 Y6 C8 r
# n8 k& c4 d% Y  {
  第6届香港电影金像奖  (1987)- X' `* r6 {0 f, s! n
  最佳动作设计(提名) 孟海
  1. Video
    : V& K' D, g1 \3 B. V3 I) j7 X* Y" K
  2. ID                                       : 11 g4 S. j0 B4 A0 L5 I, L
  3. Format                                   : AVC- o1 c. m8 W4 T4 ?5 X
  4. Format/Info                              : Advanced Video Codec
    ; }! n! g, x1 \9 o, j) G
  5. Format profile                           : [email protected]
    4 u5 i$ X! p% x: i$ Z; q
  6. Format settings, CABAC                   : Yes( K8 s# C6 _3 r4 C$ |( U
  7. Format settings, ReFrames                : 3 frames
    9 w& m% X+ O4 O9 g7 ?5 {
  8. Codec ID                                 : V_MPEG4/ISO/AVC
    ' b! P) m, |, i0 t2 ^) D
  9. Duration                                 : 1h 36mn% K0 {6 X" X) O) R7 L: c
  10. Bit rate mode                            : Variable
    3 N2 p3 Z9 f8 p+ d1 w
  11. Bit rate                                 : 12.8 Mbps
    + W' \) f6 }2 a+ Z& w' P$ ]
  12. Maximum bit rate                         : 40.0 Mbps2 n+ s; h1 Y6 w. l9 \
  13. Width                                    : 1 920 pixels1 o( M; ^3 M' S4 L* D: M
  14. Height                                   : 1 080 pixels
    $ f8 u; X0 ^; V9 b' f8 Y6 u% _
  15. Display aspect ratio                     : 16:9- x7 ]) b" ~- v/ d1 q, A
  16. Frame rate mode                          : Constant+ M5 ^2 j3 B; ]) x, ^
  17. Frame rate                               : 23.976 (24000/1001) fps! `) k. F- w# C& E  `+ d) p* C( q
  18. Color space                              : YUV- Q- H8 h( t+ a1 X  [3 J2 w: g
  19. Chroma subsampling                       : 4:2:0  R; Y) w8 b7 \
  20. Bit depth                                : 8 bits
    1 i; f9 d7 z$ V; P! ?$ M; v1 [
  21. Scan type                                : Progressive$ r+ t' S2 Y( D
  22. Bits/(Pixel*Frame)                       : 0.257
    7 E/ `+ y5 v, Y4 `5 r
  23. Stream size                              : 8.38 GiB (93%)7 o6 ~) J3 \9 S  q
  24. Writing library                          : x264 core 116 r2074 2641b9e
    - @$ ]+ o0 b- b$ w
  25. Encoding settings                        : cabac=1 / ref=4 / deblock=1:-1:-1 / analyse=0x3:0x113 / me=umh / subme=7 / psy=1 / psy_rd=1.20:0.00 / mixed_ref=1 / me_range=24 / chroma_me=1 / trellis=1 / 8x8dct=1 / cqm=0 / deadzone=21,11 / fast_pskip=1 / chroma_qp_offset=-2 / threads=12 / sliced_threads=0 / slices=4 / nr=0 / decimate=1 / interlaced=0 / bluray_compat=1 / constrained_intra=0 / bframes=3 / b_pyramid=1 / b_adapt=1 / b_bias=0 / direct=1 / weightb=1 / open_gop=1 / weightp=1 / keyint=24 / keyint_min=2 / scenecut=40 / intra_refresh=0 / rc_lookahead=24 / rc=2pass / mbtree=1 / bitrate=12760 / ratetol=1.0 / qcomp=0.60 / qpmin=17 / qpmax=69 / qpstep=4 / cplxblur=20.0 / qblur=0.5 / vbv_maxrate=40000 / vbv_bufsize=30000 / nal_hrd=vbr / ip_ratio=1.40 / aq=1:1.00
    - T! Y" Y9 X# i
  26. Language                                 : Chinese( x5 Q6 ^* `& T9 X/ ^1 ~) z: g) R. d
  27. Default                                  : Yes
    6 e9 I2 I. e! O% J! M- _! y- p  n8 c
  28. Forced                                   : Yes' c( Q" e" Z- [* s  Z/ W9 L1 s6 u

  29. ! x6 A# o8 k2 }% b1 ~
  30. Audio
    : Z: E% b) E' A
  31. ID                                       : 2& Y) z% F, x. _: }
  32. Format                                   : AC-3. K1 ?. \% B0 |/ ?8 ?
  33. Format/Info                              : Audio Coding 3
    9 m9 b' k" z  v
  34. Mode extension                           : CM (complete main)
    ) E! q' {! `7 C; R8 O, K
  35. Format settings, Endianness              : Big
    ) d( y2 v; p3 h- C" B( f0 c% {; h/ @
  36. Codec ID                                 : A_AC3
    # `* V6 U+ I* g6 _( A6 f7 v: W
  37. Duration                                 : 1h 36mn
    . }: Y3 ]  Y- d4 g/ n- U$ w3 d
  38. Bit rate mode                            : Constant
    , v9 {7 r& @! }8 ]6 U
  39. Bit rate                                 : 640 Kbps
    ! p: e( d" W1 k  ^' M, e
  40. Channel(s)                               : 6 channels1 [+ e* W8 X' `
  41. Channel positions                        : Front: L C R, Side: L R, LFE
    ' _  A, G/ B: y2 R& t( r
  42. Sampling rate                            : 48.0 KHz/ P% z& {1 d" t' [! Y  N
  43. Frame rate                               : 31.250 fps (1536 spf)' [: v1 O( z8 T; M5 x; n/ s
  44. Compression mode                         : Lossy
    6 F9 Y5 ~6 c% _' c& q5 v) v( v
  45. Stream size                              : 440 MiB (5%)
    & R, n' b5 U2 Q
  46. Language                                 : Chinese
    " l  e; H' `- k8 B- T, R
  47. Default                                  : Yes; C$ r6 o& q, _* s3 v3 c
  48. Forced                                   : No
    + L  f2 x" B' ]6 h4 L
  49. 9 G+ n( r" H: Z% G. G
  50. Text1 C1 V1 h" v! G% l, C- S0 n
  51. ID                                       : 3$ T) a! q; W' Y  D4 ~! }
  52. Format                                   : VobSub5 e$ a# @/ ^! _
  53. Muxing mode                              : zlib
    % a0 F# ^' k4 W
  54. Codec ID                                 : S_VOBSUB9 w8 \! w# B; ?: f/ }: R' m* }9 [
  55. Codec ID/Info                            : Picture based subtitle format used on DVDs
    2 d6 a" l9 O& q) D: G) \* L
  56. Language                                 : English! T* O6 m' s" r: f+ j0 Y
  57. Default                                  : Yes9 Y+ y. A9 {1 b1 @8 _& I% y0 h
  58. Forced                                   : Yes3 N) r0 J) z* a
复制代码

/ X4 K( V5 G7 u3 M9 Y
9 c: u! W# w7 F8 s
. ]% @- k3 \) {
  E" p- J4 ^" t7 ?+ y6 w3 `3 Z$ O6 k4 }! J$ j+ l* y. L9 \8 `( [& n+ i0 w

+ z: W; P8 N5 q, [) Q
8 \) B( H) L) r8 h0 m1 z: p8 J6 o5 E, D+ T" Z6 D

7 i; h; s$ e' `! i$ N' M' @, Z
游客,如果您要查看本帖隐藏内容请回复  捐助论坛可免回复查看隐藏内容 详情请点击
最近访问 头像模式 列表模式
HD一条街,身边的一条街。
发表于 2016-4-18 13:26:46 | 显示全部楼层
多謝HD一条街
HD一条街,身边的一条街。
发表于 2016-4-18 16:32:12 | 显示全部楼层
经典电影,一定支持
HD一条街,身边的一条街。
发表于 2016-4-18 17:05:02 | 显示全部楼层
經典好片.感謝分享.
HD一条街,身边的一条街。
发表于 2016-4-19 17:28:47 来自手机 | 显示全部楼层
如果七部都有那么高清就好咯!
HD一条街,身边的一条街。
发表于 2016-5-7 00:52:50 | 显示全部楼层
精彩不容错过~谢谢分享
HD一条街,身边的一条街。
发表于 2016-5-26 09:05:22 | 显示全部楼层
我要这部片子了,谢谢楼主的分享!
HD一条街,身边的一条街。
发表于 2016-6-7 18:40:24 | 显示全部楼层
很经典的一部杨紫琼的电影!
HD一条街,身边的一条街。
发表于 2016-6-17 11:40:06 | 显示全部楼层
谢谢楼主分享,杨紫琼好年轻哦
HD一条街,身边的一条街。
您需要登录后才可以回帖 登录 | 加入我们

本版积分规则

手机版|小黑屋|有问题发邮件到admin#(换成@)hd1tj.org|微博|免责申明|HD一条街

GMT+8, 2017-2-28 20:18

Powered by Discuz! X3.1

© 2001-2013 Comsenz Inc.

快速回复 返回顶部 返回列表