开启辅助访问 切换到窄版

HD一条街论坛

 找回密码
 加入我们
查看: 271|回复: 9

[1080p] 皇家师姐2/皇家战士 Royal.Warriors.1986.CHINESE.1080p.BluRay.x264.DD5.1-FGT 8.99G

[复制链接]
发表于 2016-4-18 11:31:01 | 显示全部楼层 |阅读模式
9c112107248d6e2b665a435eaa652a7bb92b2a89.jpg
0 B7 ~8 Y; F+ N/ V" U/ P3 X( ]$ }9 _* d# @8 n

5 }8 ?9 j2 J$ B4 }5 `) u* C◎译  名 皇家师姐2/小虾米对大鲸鱼' c  \5 k: i9 Q0 S$ M
◎片  名 皇家战士
8 m+ U; S& v; Q  y, A4 p  w* D◎年  代 1986
( e  i3 W8 W! v6 |1 p( v7 c◎国  家 香港" [4 |2 y: R5 p% I: ~
◎类  别 动作7 I* C; f. `1 j- k$ D
◎语  言 粤语
) h: v1 q7 `6 ~◎字  幕   英文
1 H3 x0 L5 Z! n: t◎转  载   HD一条街 www.hd1tj.org. C! `* ?0 V  b6 u( z' J
◎上映日期 1986-06-26
; R( p$ y* T& m, Q0 ^◎IMDb评分  6.8/10 from 709 users1 ]" ~' N5 T# M9 ?6 M
◎IMDb链接  http://www.imdb.com/title/tt0091229/
' V5 r% R2 r3 a$ q◎豆瓣评分 6.6/10 from 365 users. |: V- c) Z8 o5 T; ^9 h8 V$ m
◎豆瓣链接 https://movie.douban.com/subject/1308199/
/ d, _  e$ ^$ }9 {◎片  长 96 分钟- c+ o- v3 l- v& s1 }6 o0 p4 Y
◎导  演 钟志文 (David Chung (I))
% p2 _; d: M! G# ~$ h◎主  演 杨紫琼
3 G  W% O/ m/ r/ N0 n- {. s2 d  t      王敏德
2 {) N" J1 u% L; J      真田广之" w1 z4 y+ ^( r0 ~( ~

. t8 S9 s% F- T$ p◎简  介+ E! X/ Y8 c& q0 l3 w

6 _3 z; c- M9 E1 q4 V4 X2 U  日本警探山本(真田广之)来香港途中,遇上押解犯人李仲青回港的香港女警Michelle(杨紫琼).李的同伙欲救李,结果,两人都被山本杀死,而匪徒一共有四人,剩下的2个匪徒报复,杀害了山本的妻女,山本亦杀死其中一名匪徒,他们追踪最后一人到了矿厂,展开了一场恶战…………1 [9 A% U) A: J9 K8 W
- z' Y  Q- v' Q$ J. |; L
◎获奖情况
: Z: z* U( V! E/ P6 k* T
2 J" e: t) q7 J) X: t  第6届香港电影金像奖  (1987)
8 U5 ]9 Q% `8 ]% M; j  最佳动作设计(提名) 孟海
  1. Video5 p4 j6 b& q5 ^9 N
  2. ID                                       : 1$ ]* Q0 n1 S+ r9 Y  B  N
  3. Format                                   : AVC
    . P' S5 r& t: Z: ^  Q" l& I
  4. Format/Info                              : Advanced Video Codec' a$ k7 H- x1 c0 _! L$ J9 o
  5. Format profile                           : [email protected]8 o6 d/ l7 E1 Y4 Q$ a9 u6 H
  6. Format settings, CABAC                   : Yes
    & W3 O' D2 q3 ~) q8 I7 j$ E
  7. Format settings, ReFrames                : 3 frames
    : Q- H+ Q& L0 E3 I4 J' J
  8. Codec ID                                 : V_MPEG4/ISO/AVC1 O$ S/ T, P! n
  9. Duration                                 : 1h 36mn3 e8 Y1 }! L: r( L( e  K: C
  10. Bit rate mode                            : Variable% {. }: B2 c7 m1 K9 C
  11. Bit rate                                 : 12.8 Mbps# [/ z, ^9 o+ ?7 E* z
  12. Maximum bit rate                         : 40.0 Mbps
    ; }: ^2 G5 J; n; l0 a8 O
  13. Width                                    : 1 920 pixels# \5 }. f- E- c0 F/ z
  14. Height                                   : 1 080 pixels
    $ ~' o: w2 d# j! K4 [) J- L5 M
  15. Display aspect ratio                     : 16:9
    ! z7 v7 x- E4 i& l( q- c1 b1 E
  16. Frame rate mode                          : Constant4 c+ V( \) V6 P" Y5 h; }; \9 B" d
  17. Frame rate                               : 23.976 (24000/1001) fps
    0 u+ M& Q! f, H+ t% G  ]
  18. Color space                              : YUV
    ! Q+ P# P; t. j, n! x& f
  19. Chroma subsampling                       : 4:2:0
    ' h* K) `: H+ n: X6 i. J2 g% G! |
  20. Bit depth                                : 8 bits
    0 R# e( P+ j2 l% l
  21. Scan type                                : Progressive% {/ V, L- o9 T) j
  22. Bits/(Pixel*Frame)                       : 0.257
    . b2 Z1 C( L8 p$ Y. `0 G# q" P
  23. Stream size                              : 8.38 GiB (93%)! P3 H+ _8 c  ^
  24. Writing library                          : x264 core 116 r2074 2641b9e
    $ s; n0 z' R0 {6 F+ c; ^
  25. Encoding settings                        : cabac=1 / ref=4 / deblock=1:-1:-1 / analyse=0x3:0x113 / me=umh / subme=7 / psy=1 / psy_rd=1.20:0.00 / mixed_ref=1 / me_range=24 / chroma_me=1 / trellis=1 / 8x8dct=1 / cqm=0 / deadzone=21,11 / fast_pskip=1 / chroma_qp_offset=-2 / threads=12 / sliced_threads=0 / slices=4 / nr=0 / decimate=1 / interlaced=0 / bluray_compat=1 / constrained_intra=0 / bframes=3 / b_pyramid=1 / b_adapt=1 / b_bias=0 / direct=1 / weightb=1 / open_gop=1 / weightp=1 / keyint=24 / keyint_min=2 / scenecut=40 / intra_refresh=0 / rc_lookahead=24 / rc=2pass / mbtree=1 / bitrate=12760 / ratetol=1.0 / qcomp=0.60 / qpmin=17 / qpmax=69 / qpstep=4 / cplxblur=20.0 / qblur=0.5 / vbv_maxrate=40000 / vbv_bufsize=30000 / nal_hrd=vbr / ip_ratio=1.40 / aq=1:1.003 O2 [% a; J  [& h, f. b8 H
  26. Language                                 : Chinese% R( m) l9 A+ H8 u
  27. Default                                  : Yes1 ?2 ]8 T! S2 _7 y5 b! Q. ~9 r
  28. Forced                                   : Yes
    9 R* u: y6 Z) n: l% D9 o

  29. 3 W' y9 x8 m& I0 _, Q1 K
  30. Audio
      f8 ^$ }' F4 ~# }: L% Q9 b* D
  31. ID                                       : 2" K/ a3 J" g/ U6 ]- S
  32. Format                                   : AC-3, D8 m- |9 l6 q# y2 T
  33. Format/Info                              : Audio Coding 3( G4 H5 r  L+ n) \7 ?
  34. Mode extension                           : CM (complete main)2 ^1 P2 \) b1 w' i* a& p
  35. Format settings, Endianness              : Big
    3 \  f. W3 ~+ n
  36. Codec ID                                 : A_AC3$ c. s$ A% y& \# c2 ~
  37. Duration                                 : 1h 36mn* J& H1 F$ o, A. K
  38. Bit rate mode                            : Constant
    1 _, H8 ^% G  s& I" n, t
  39. Bit rate                                 : 640 Kbps$ b2 q$ W2 g+ k' f, B# ?
  40. Channel(s)                               : 6 channels
    8 E6 q  y# Q5 Q# w5 ^9 o2 e" [
  41. Channel positions                        : Front: L C R, Side: L R, LFE
    + M- B, _  B, ~* a0 o$ M" J7 m$ h8 u9 m; w
  42. Sampling rate                            : 48.0 KHz
    - ?& s$ Z9 ^+ ~  p3 b. A4 T; Z
  43. Frame rate                               : 31.250 fps (1536 spf)
    + _; U% r# }/ |5 [1 a1 V. I
  44. Compression mode                         : Lossy0 P# B3 ?7 p' D3 v
  45. Stream size                              : 440 MiB (5%)
    2 Y, B- r2 f) K8 S. L3 I1 O# y2 @
  46. Language                                 : Chinese
    $ _$ x' o  G: ]3 S. z
  47. Default                                  : Yes
    4 m5 m5 C- x: l. N2 m; }# N
  48. Forced                                   : No( {! e; p- ]' N

  49. 8 F0 G! n* v' w, F' C' e
  50. Text
    & Q) `+ i  V7 n8 R' j( m
  51. ID                                       : 3
      E7 K& G. d: |
  52. Format                                   : VobSub/ Q) N" f) I/ L, n. k) m
  53. Muxing mode                              : zlib/ t& Z" N7 Y- t$ j0 k0 y4 k
  54. Codec ID                                 : S_VOBSUB& a: J4 }& p' k; k, e
  55. Codec ID/Info                            : Picture based subtitle format used on DVDs3 m! e- e1 P3 q4 g6 ~4 l
  56. Language                                 : English
    " E- h, n& N9 Q9 b8 @! w! n
  57. Default                                  : Yes0 V0 A% N! i" v6 J( Z, k
  58. Forced                                   : Yes; y, s  m% G) D# i$ a8 W6 T
复制代码
+ Z2 N, |! Y* p3 U5 e# _4 d% e+ j' p

, v  a" @6 q3 K9 p& q' J$ q# S  s- T/ k+ w! A. g
/ {8 N" L4 M0 Y' O& z' p5 E
, o9 C5 f1 l8 _) T5 |

& `4 o7 O" T, F* S2 J
; d' u! r: [( c( ]* G; q' b6 K6 m5 t5 Q+ {
0 @' h. S2 ?: w4 T+ D7 |
游客,如果您要查看本帖隐藏内容请回复  捐助论坛可免回复查看隐藏内容 详情请点击
最近访问 头像模式 列表模式
HD一条街,身边的一条街。
发表于 2016-4-18 13:26:46 | 显示全部楼层
多謝HD一条街
HD一条街,身边的一条街。
发表于 2016-4-18 16:32:12 | 显示全部楼层
经典电影,一定支持
HD一条街,身边的一条街。
发表于 2016-4-18 17:05:02 | 显示全部楼层
經典好片.感謝分享.
HD一条街,身边的一条街。
发表于 2016-4-19 17:28:47 来自手机 | 显示全部楼层
如果七部都有那么高清就好咯!
HD一条街,身边的一条街。
发表于 2016-5-7 00:52:50 | 显示全部楼层
精彩不容错过~谢谢分享
HD一条街,身边的一条街。
发表于 2016-5-26 09:05:22 | 显示全部楼层
我要这部片子了,谢谢楼主的分享!
HD一条街,身边的一条街。
发表于 2016-6-7 18:40:24 | 显示全部楼层
很经典的一部杨紫琼的电影!
HD一条街,身边的一条街。
发表于 2016-6-17 11:40:06 | 显示全部楼层
谢谢楼主分享,杨紫琼好年轻哦
HD一条街,身边的一条街。
您需要登录后才可以回帖 登录 | 加入我们

本版积分规则

手机版|小黑屋|有问题发邮件到admin#(换成@)hd1tj.org|微博|免责申明|HD一条街

GMT+8, 2017-1-21 04:10

Powered by Discuz! X3.1

© 2001-2013 Comsenz Inc.

快速回复 返回顶部 返回列表