开启辅助访问 切换到窄版

HD一条街论坛

 找回密码
 立即注册
查看: 256|回复: 9

[1080p] 皇家师姐2/皇家战士 Royal.Warriors.1986.CHINESE.1080p.BluRay.x264.DD5.1-FGT 8.99G

[复制链接]
发表于 2016-4-18 11:31:01 | 显示全部楼层 |阅读模式
9c112107248d6e2b665a435eaa652a7bb92b2a89.jpg 2 p+ b# b) v* P$ w3 k  u8 @0 G

* v+ e' ^: b3 i; w) s6 x9 i. S# j3 x- p- p  ?# |* g
◎译  名 皇家师姐2/小虾米对大鲸鱼$ x  W4 I3 @9 h5 b
◎片  名 皇家战士
' F/ _2 X; k% Y% ~. @! D1 L. A◎年  代 1986+ G3 }! _' s$ _* q
◎国  家 香港  a+ Z, J, X, Q9 K8 o. q
◎类  别 动作& |" X+ p) B/ x/ _) e% X% L. e5 J5 Z
◎语  言 粤语
' U. }0 f- V5 }8 n" z◎字  幕   英文* u# S' X5 `/ o& W; w
◎转  载   HD一条街 www.hd1tj.org: O; i/ U/ R0 e3 C. i5 z; N
◎上映日期 1986-06-26
: p  Z9 T. w  |◎IMDb评分  6.8/10 from 709 users
; X) v* g+ V! z7 l. t1 K! G6 L◎IMDb链接  http://www.imdb.com/title/tt0091229/
4 b# E* e! q& N: \3 [, N, h' u◎豆瓣评分 6.6/10 from 365 users. g7 Y" M' K5 c! _# d) Y: ^( B
◎豆瓣链接 https://movie.douban.com/subject/1308199/
6 o3 K: x0 I% i& j2 Q) f( o, X◎片  长 96 分钟
! s0 j' ]/ @# d, D9 L◎导  演 钟志文 (David Chung (I))& e% f; h. b' ?1 f! \1 q: J& D
◎主  演 杨紫琼
$ u" n+ S7 Y& {, G9 R      王敏德
! z% e$ p4 a4 q  G$ G      真田广之
1 {( ?+ c4 ~. Z; `* F8 r# R
$ N+ A" P7 ]) f6 j◎简  介5 D! ^1 s4 Q% g7 V

2 M& I  L6 p! E  日本警探山本(真田广之)来香港途中,遇上押解犯人李仲青回港的香港女警Michelle(杨紫琼).李的同伙欲救李,结果,两人都被山本杀死,而匪徒一共有四人,剩下的2个匪徒报复,杀害了山本的妻女,山本亦杀死其中一名匪徒,他们追踪最后一人到了矿厂,展开了一场恶战…………
( M9 ?3 j3 F2 {6 ?$ Y6 @' c, G3 f# M8 L) Z  w) z
◎获奖情况! y" \/ h& D4 Z% Y* x

& o$ n0 u( V: @( H) b  第6届香港电影金像奖  (1987)$ I. {" p; G, {+ _6 B& V; @
  最佳动作设计(提名) 孟海
  1. Video; i6 t  C- f. x0 e0 d. X
  2. ID                                       : 18 Y! w/ k. O' u# @5 l0 A
  3. Format                                   : AVC
    ) ?9 h, C) C+ m1 ^) Y
  4. Format/Info                              : Advanced Video Codec
    % V$ v9 K# N0 X* S
  5. Format profile                           : [email protected]" u* f' R, T9 i  g* f8 Z
  6. Format settings, CABAC                   : Yes
    6 }+ i& h8 d# q' ?5 m
  7. Format settings, ReFrames                : 3 frames% o; i; o. l( L) s; q, `
  8. Codec ID                                 : V_MPEG4/ISO/AVC; D% {' K' {; n+ Y2 H, k. u
  9. Duration                                 : 1h 36mn
    7 M: k$ u, Y; G2 F4 L
  10. Bit rate mode                            : Variable% F1 N7 D0 Q5 E1 n
  11. Bit rate                                 : 12.8 Mbps" s8 e4 T3 v* u# Z
  12. Maximum bit rate                         : 40.0 Mbps1 v, Y" x3 B  M$ a
  13. Width                                    : 1 920 pixels  [* A1 _$ ?9 c/ a& o' G/ N- P. n% A7 L
  14. Height                                   : 1 080 pixels  c/ Y9 X, c, m' |
  15. Display aspect ratio                     : 16:9
    $ s! t* a# G% }
  16. Frame rate mode                          : Constant7 o5 A2 V% p- g2 Z: B2 O) p
  17. Frame rate                               : 23.976 (24000/1001) fps
    2 n& T4 g/ `! R+ ]& q4 U9 J2 d
  18. Color space                              : YUV
    ( Y. M* J* r; ?* s% I
  19. Chroma subsampling                       : 4:2:0! e% T) y% i; w% {
  20. Bit depth                                : 8 bits, \% ?3 u  ~5 h
  21. Scan type                                : Progressive+ N9 w& Y( C9 e7 g1 C" r5 q
  22. Bits/(Pixel*Frame)                       : 0.2574 V6 n% z# e0 [6 a8 I
  23. Stream size                              : 8.38 GiB (93%)
    ' M0 Z, q$ `& L8 A
  24. Writing library                          : x264 core 116 r2074 2641b9e  l( F; p* x0 M# r
  25. Encoding settings                        : cabac=1 / ref=4 / deblock=1:-1:-1 / analyse=0x3:0x113 / me=umh / subme=7 / psy=1 / psy_rd=1.20:0.00 / mixed_ref=1 / me_range=24 / chroma_me=1 / trellis=1 / 8x8dct=1 / cqm=0 / deadzone=21,11 / fast_pskip=1 / chroma_qp_offset=-2 / threads=12 / sliced_threads=0 / slices=4 / nr=0 / decimate=1 / interlaced=0 / bluray_compat=1 / constrained_intra=0 / bframes=3 / b_pyramid=1 / b_adapt=1 / b_bias=0 / direct=1 / weightb=1 / open_gop=1 / weightp=1 / keyint=24 / keyint_min=2 / scenecut=40 / intra_refresh=0 / rc_lookahead=24 / rc=2pass / mbtree=1 / bitrate=12760 / ratetol=1.0 / qcomp=0.60 / qpmin=17 / qpmax=69 / qpstep=4 / cplxblur=20.0 / qblur=0.5 / vbv_maxrate=40000 / vbv_bufsize=30000 / nal_hrd=vbr / ip_ratio=1.40 / aq=1:1.00
    # K1 [4 J& R: V% r! T
  26. Language                                 : Chinese
    # h1 }. B3 V5 M, L
  27. Default                                  : Yes1 F+ C; A6 a+ x
  28. Forced                                   : Yes5 Z. }8 w+ D9 C  u5 ]

  29. 4 c: p/ ~6 F! m: @8 ~6 a8 X
  30. Audio, ]/ q! H8 r  w& d) M( A( w
  31. ID                                       : 2* m4 T  ~( w+ ^) q! [
  32. Format                                   : AC-3
    % i& j( \8 d' K; R' R0 E2 V* q7 r" y6 J
  33. Format/Info                              : Audio Coding 3& D0 h" N5 n2 t
  34. Mode extension                           : CM (complete main)
    " @# }. O! [6 {: d3 V1 Q& x$ l. d
  35. Format settings, Endianness              : Big
    8 D! i5 f) b( _3 w3 h! p2 k
  36. Codec ID                                 : A_AC3
    2 A0 b, J+ b0 G: |
  37. Duration                                 : 1h 36mn
    0 C* y1 F1 E2 T1 D  R$ c6 M  ^
  38. Bit rate mode                            : Constant4 q. _# N; ^! U7 @
  39. Bit rate                                 : 640 Kbps2 r! Z8 u5 _7 A/ `
  40. Channel(s)                               : 6 channels
    $ v" @- `9 |* V& G6 S3 m/ W) b9 ]
  41. Channel positions                        : Front: L C R, Side: L R, LFE' y" q# ]! B4 Z+ R& H5 ]
  42. Sampling rate                            : 48.0 KHz1 W: U/ r2 K( F2 K. k9 F/ Z% Y/ P
  43. Frame rate                               : 31.250 fps (1536 spf)
    + Y$ D/ D( K( B* @
  44. Compression mode                         : Lossy
      f9 J) V. Y* P7 D& y
  45. Stream size                              : 440 MiB (5%)4 `5 {4 @; S4 W1 h+ k) U7 y
  46. Language                                 : Chinese5 o, O3 G2 G6 O5 w
  47. Default                                  : Yes
    4 H1 Z4 B/ @( w7 w9 s
  48. Forced                                   : No
    7 x, P  Y5 A4 O
  49. 2 R( U! H# p9 E
  50. Text# B, v9 k8 K' {/ [
  51. ID                                       : 3
    3 y( K% `+ J; M' k0 z% }
  52. Format                                   : VobSub& m& M2 o8 V. k! X& W
  53. Muxing mode                              : zlib5 q$ Y* \0 o4 M, H" v1 |( q
  54. Codec ID                                 : S_VOBSUB
    5 ~4 E: w" G  Q  e2 o
  55. Codec ID/Info                            : Picture based subtitle format used on DVDs
    , s9 v: J7 {$ f6 M
  56. Language                                 : English
    . E" h4 Y# q3 c- L. a2 X
  57. Default                                  : Yes
    , r7 m, b0 N% ~8 Q
  58. Forced                                   : Yes! n! s3 n' W1 c& {. i" B
复制代码

/ Z+ v) ]# n4 k* t) _& Z4 C* X3 q3 b8 `8 W3 E8 K" d& U( l1 x

( a/ g/ V3 t; w# V+ c
% ?- e; r0 S% ?0 l8 _! O* B& s+ M; i/ l1 Y; k2 B
: E  c6 k# h. D

0 y+ ?: _) t, x3 G3 Q) M
  o3 ~$ N* f6 c* Z! e3 k
9 E0 Y7 P  O5 w3 m3 z# E
游客,如果您要查看本帖隐藏内容请回复  捐助论坛可免回复查看隐藏内容详情请点击
最近访问 头像模式 列表模式
HD一条街,身边的一条街。
发表于 2016-4-18 13:26:46 | 显示全部楼层
多謝HD一条街
HD一条街,身边的一条街。
发表于 2016-4-18 16:32:12 | 显示全部楼层
经典电影,一定支持
HD一条街,身边的一条街。
发表于 2016-4-18 17:05:02 | 显示全部楼层
經典好片.感謝分享.
HD一条街,身边的一条街。
发表于 2016-4-19 17:28:47 来自手机 | 显示全部楼层
如果七部都有那么高清就好咯!
HD一条街,身边的一条街。
发表于 2016-5-7 00:52:50 | 显示全部楼层
精彩不容错过~谢谢分享
HD一条街,身边的一条街。
发表于 2016-5-26 09:05:22 | 显示全部楼层
我要这部片子了,谢谢楼主的分享!
HD一条街,身边的一条街。
发表于 2016-6-7 18:40:24 | 显示全部楼层
很经典的一部杨紫琼的电影!
HD一条街,身边的一条街。
发表于 2016-6-17 11:40:06 | 显示全部楼层
谢谢楼主分享,杨紫琼好年轻哦
HD一条街,身边的一条街。
您需要登录后才可以回帖 登录 | 立即注册

本版积分规则

手机版|小黑屋|有问题发邮件到admin#(换成@)hd1tj.org|微博|免责申明|HD一条街

GMT+8, 2016-12-6 16:14

Powered by Discuz! X3.1

© 2001-2013 Comsenz Inc.

快速回复 返回顶部 返回列表