开启辅助访问 切换到窄版

HD一条街论坛

 找回密码
 加入我们
查看: 304|回复: 9

[1080p] 皇家师姐2/皇家战士 Royal.Warriors.1986.CHINESE.1080p.BluRay.x264.DD5.1-FGT 8.99G

[复制链接]
发表于 2016-4-18 11:31:01 | 显示全部楼层 |阅读模式
9c112107248d6e2b665a435eaa652a7bb92b2a89.jpg $ f: E; D  T5 u! v

: ~* S; Z. G" s! e( L. N
( q4 J0 ^. L2 T  z7 s◎译  名 皇家师姐2/小虾米对大鲸鱼
0 n% g+ k( B: [8 @0 b& c◎片  名 皇家战士% ?  b' w4 v( k6 N$ O$ ]
◎年  代 19868 g5 o9 \" n2 [$ v& d& F; T6 ?
◎国  家 香港
: z# y& {" d. m# O# [2 k; ]◎类  别 动作
: t+ `+ U- w% K$ V2 e% x8 z& Y◎语  言 粤语7 h% u' T4 H5 R2 k% P2 |) e* D
◎字  幕   英文
( q5 E( ?( D2 J/ ?5 c2 f/ ~" }◎转  载   HD一条街 www.hd1tj.org7 m- A% k# v! T7 x  ]/ }  _: |
◎上映日期 1986-06-26
+ K5 Z9 e6 }6 @◎IMDb评分  6.8/10 from 709 users
0 K6 p9 D- q1 r, J# b0 l  d7 a+ o◎IMDb链接  http://www.imdb.com/title/tt0091229/
0 `0 f' M! g5 F1 G7 [2 d# G) C/ Q. ?◎豆瓣评分 6.6/10 from 365 users6 I; W7 I: |8 l) |
◎豆瓣链接 https://movie.douban.com/subject/1308199/$ g9 j' I; c2 w2 K1 z, u- u
◎片  长 96 分钟
; P. d" ~# S  T, ]◎导  演 钟志文 (David Chung (I))
  l4 N  C+ M+ f) Q; @◎主  演 杨紫琼( \" |. ]+ n. i% E' V
      王敏德* @" g" x! p! j8 i6 w  z" e
      真田广之
4 ?: T: q& U: D. f
* ~; t. i9 S: f" {' s8 m$ Y◎简  介* I% N9 v- H1 Y- Q' @5 k) V

& D# _. V* I6 S# a0 m' V0 ?5 b  日本警探山本(真田广之)来香港途中,遇上押解犯人李仲青回港的香港女警Michelle(杨紫琼).李的同伙欲救李,结果,两人都被山本杀死,而匪徒一共有四人,剩下的2个匪徒报复,杀害了山本的妻女,山本亦杀死其中一名匪徒,他们追踪最后一人到了矿厂,展开了一场恶战…………
, X0 Z. C" C; ?' F! w) w: u3 L1 w( C
◎获奖情况
! k& v8 c- s" X
- K$ Z, o3 `* {1 V! k' X+ y& \  第6届香港电影金像奖  (1987)  I/ l; `; Q+ M; o& G: O
  最佳动作设计(提名) 孟海
  1. Video3 [* {& r0 a* K5 w* _/ q
  2. ID                                       : 19 W- L3 O7 G; |# R9 c7 |4 Z+ ^
  3. Format                                   : AVC
      C4 e, @7 a3 i+ K) a8 b, X
  4. Format/Info                              : Advanced Video Codec( i1 b% i' R4 i$ Q) M
  5. Format profile                           : [email protected]0 R# V  V% b5 F: r+ ^; _
  6. Format settings, CABAC                   : Yes$ b9 Y: z. X' M8 q9 _
  7. Format settings, ReFrames                : 3 frames6 \$ F) L- ~+ d) |: s" D, @, R3 t
  8. Codec ID                                 : V_MPEG4/ISO/AVC
    6 Q4 R- T: A1 N) q
  9. Duration                                 : 1h 36mn( [# t! p3 F6 b
  10. Bit rate mode                            : Variable$ [7 M& j: G7 [  W  d  e- t
  11. Bit rate                                 : 12.8 Mbps
    , J8 [& W' a5 _
  12. Maximum bit rate                         : 40.0 Mbps/ g7 @* r9 [* \' p
  13. Width                                    : 1 920 pixels0 U  x" Y! w. {  k! o) a. h( Q
  14. Height                                   : 1 080 pixels9 b: |( g- I# @
  15. Display aspect ratio                     : 16:9
    , y$ e3 B, M# g" k3 x+ a& U
  16. Frame rate mode                          : Constant
    : r9 e5 e* B: c% u
  17. Frame rate                               : 23.976 (24000/1001) fps
    # z; v9 Q) K+ E8 r
  18. Color space                              : YUV7 D/ s# t0 G$ b% c
  19. Chroma subsampling                       : 4:2:0" a9 i$ y& L% o1 Z9 D& _
  20. Bit depth                                : 8 bits
    1 ^9 H1 c0 l* r; v! ]5 M
  21. Scan type                                : Progressive
    / e- X  e) r3 t9 w. F  q7 J
  22. Bits/(Pixel*Frame)                       : 0.257$ y4 F" ^* t8 ?' ]0 z; h8 h6 y$ I
  23. Stream size                              : 8.38 GiB (93%)) ]/ `& J, [0 P8 p6 F4 _
  24. Writing library                          : x264 core 116 r2074 2641b9e6 {& W) X: ^4 @! _: d3 o. d
  25. Encoding settings                        : cabac=1 / ref=4 / deblock=1:-1:-1 / analyse=0x3:0x113 / me=umh / subme=7 / psy=1 / psy_rd=1.20:0.00 / mixed_ref=1 / me_range=24 / chroma_me=1 / trellis=1 / 8x8dct=1 / cqm=0 / deadzone=21,11 / fast_pskip=1 / chroma_qp_offset=-2 / threads=12 / sliced_threads=0 / slices=4 / nr=0 / decimate=1 / interlaced=0 / bluray_compat=1 / constrained_intra=0 / bframes=3 / b_pyramid=1 / b_adapt=1 / b_bias=0 / direct=1 / weightb=1 / open_gop=1 / weightp=1 / keyint=24 / keyint_min=2 / scenecut=40 / intra_refresh=0 / rc_lookahead=24 / rc=2pass / mbtree=1 / bitrate=12760 / ratetol=1.0 / qcomp=0.60 / qpmin=17 / qpmax=69 / qpstep=4 / cplxblur=20.0 / qblur=0.5 / vbv_maxrate=40000 / vbv_bufsize=30000 / nal_hrd=vbr / ip_ratio=1.40 / aq=1:1.00
    ) C' ]0 |2 e6 {& p
  26. Language                                 : Chinese
    ( ]" _! w" E+ C8 L( D* d' C
  27. Default                                  : Yes
    8 s, y6 g. g: I  x8 F6 `8 A# y
  28. Forced                                   : Yes$ B4 G. S' L* O& x
  29. $ {( e0 s* s! \- x; D
  30. Audio5 i0 M/ Y% G% `6 [$ O8 I
  31. ID                                       : 2
    4 h6 Y1 c  i+ t, i3 I8 W
  32. Format                                   : AC-3- q( ~6 z+ n) T; m, M% a! Z( h* p" U
  33. Format/Info                              : Audio Coding 3
    , B$ ~- \; x: d' N4 {
  34. Mode extension                           : CM (complete main)- O( L6 o1 _' L- A. V3 j
  35. Format settings, Endianness              : Big+ _" `. I! n9 v8 c6 A* e
  36. Codec ID                                 : A_AC30 k2 _" W% _% o% v/ a  g
  37. Duration                                 : 1h 36mn
    . u! S; z+ e2 `% S0 V8 v
  38. Bit rate mode                            : Constant5 E2 k" E: I' R! }
  39. Bit rate                                 : 640 Kbps2 W& \( E6 X7 ~7 N& K! n) }$ f
  40. Channel(s)                               : 6 channels
    0 x8 ^# P, G- U1 S+ I  m
  41. Channel positions                        : Front: L C R, Side: L R, LFE& g- P2 r2 z! Q7 u0 K
  42. Sampling rate                            : 48.0 KHz$ a! J5 l- Y3 F. ]& b$ X
  43. Frame rate                               : 31.250 fps (1536 spf)
    0 p* H! X$ l: v0 U
  44. Compression mode                         : Lossy
    * ^( J6 f3 a7 q: i0 j) `! t
  45. Stream size                              : 440 MiB (5%); R! ?6 p- Q6 e  n
  46. Language                                 : Chinese& v& y7 \' i* ?) m
  47. Default                                  : Yes
    ( v& e+ m$ Z' ~& ~  X
  48. Forced                                   : No  \: Z/ Y& V! g+ N( C

  49. ! Z  @0 q  n. t, @9 s
  50. Text
    + w. Y! `) J/ W4 s" p( _' H0 P
  51. ID                                       : 33 p- l1 f8 @+ z0 W
  52. Format                                   : VobSub
    , M' I; P$ {: t& F
  53. Muxing mode                              : zlib+ G0 s- z3 [4 A9 j1 o2 u1 b
  54. Codec ID                                 : S_VOBSUB
    ' G4 V' h: O/ L9 j( A- Y8 s( x
  55. Codec ID/Info                            : Picture based subtitle format used on DVDs
    ) M% ]* S/ ~5 u9 H
  56. Language                                 : English1 I- f7 F  I2 [! g7 Q% w
  57. Default                                  : Yes
    * q3 P0 W  ?# h& Y6 n/ v; ?: `
  58. Forced                                   : Yes
    3 _% ~5 _! O& r! w' B, M
复制代码
8 ^9 H' n9 q# b' S8 H

+ e. m& ?# N% r' s. k- y1 y9 O+ Z/ F) {5 }8 [
" r; O+ |) }: U

' f2 g& ]8 D. z9 d( |9 n& `0 s; x( }+ m- J1 }- v

! d; x9 C+ P/ B. Z& T5 L( A7 M. Q& b' X
6 v- E/ k% Y8 |7 L4 r5 H6 A  I
% S" H9 V8 ?/ e7 k# s" |( E, i
游客,如果您要查看本帖隐藏内容请回复  捐助论坛可免回复查看隐藏内容 详情请点击
最近访问 头像模式 列表模式
HD一条街,身边的一条街。
发表于 2016-4-18 13:26:46 | 显示全部楼层
多謝HD一条街
HD一条街,身边的一条街。
发表于 2016-4-18 16:32:12 | 显示全部楼层
经典电影,一定支持
HD一条街,身边的一条街。
发表于 2016-4-18 17:05:02 | 显示全部楼层
經典好片.感謝分享.
HD一条街,身边的一条街。
发表于 2016-4-19 17:28:47 来自手机 | 显示全部楼层
如果七部都有那么高清就好咯!
HD一条街,身边的一条街。
发表于 2016-5-7 00:52:50 | 显示全部楼层
精彩不容错过~谢谢分享
HD一条街,身边的一条街。
发表于 2016-5-26 09:05:22 | 显示全部楼层
我要这部片子了,谢谢楼主的分享!
HD一条街,身边的一条街。
发表于 2016-6-7 18:40:24 | 显示全部楼层
很经典的一部杨紫琼的电影!
HD一条街,身边的一条街。
发表于 2016-6-17 11:40:06 | 显示全部楼层
谢谢楼主分享,杨紫琼好年轻哦
HD一条街,身边的一条街。

手机版|小黑屋|有问题发邮件到admin#(换成@)hd1tj.org|微博|免责申明|HD一条街

GMT+8, 2017-3-24 22:04

Powered by Discuz! X3.1

© 2001-2013 Comsenz Inc.

快速回复 返回顶部 返回列表