开启辅助访问 切换到窄版

HD一条街论坛

 找回密码
 立即注册
搜索
查看: 327|回复: 9

[1080p] 皇家师姐2/皇家战士 Royal.Warriors.1986.CHINESE.1080p.BluRay.x264.DD5.1-FGT 8.99G

[复制链接]
发表于 2016-4-18 11:31:01 | 显示全部楼层 |阅读模式
9c112107248d6e2b665a435eaa652a7bb92b2a89.jpg - o1 `' X/ `$ w. Z- f7 e

$ u7 a, T5 N+ ]6 U" X& u# C3 \5 e* K* p" i
◎译  名 皇家师姐2/小虾米对大鲸鱼
, b0 _+ ~- I# p4 B5 M8 e! W3 ~◎片  名 皇家战士
& j/ O9 W3 E& ^$ @6 r$ q6 V◎年  代 1986, T5 S: f& [6 N# [1 w
◎国  家 香港
4 ?; {8 T" Q6 }7 ]. g" L◎类  别 动作. [( t; Q& ]9 u. S
◎语  言 粤语3 v. w) w3 d( o, k* z6 j
◎字  幕   英文
" c, |) e# x+ q* Q  M◎转  载   HD一条街 www.hd1tj.org
, ]" A1 X, j8 s& m/ [◎上映日期 1986-06-26
9 S, q( e; _  E( P, t◎IMDb评分  6.8/10 from 709 users
! R" i) `8 j$ ^+ x9 \% P# R- o◎IMDb链接  http://www.imdb.com/title/tt0091229/
3 z9 o4 G' A# h◎豆瓣评分 6.6/10 from 365 users
$ u( k& ~6 p# a" Y2 w1 `; r◎豆瓣链接 https://movie.douban.com/subject/1308199/
6 X- J" A: m/ E2 E0 h◎片  长 96 分钟3 @8 U. T1 R; H& w, {
◎导  演 钟志文 (David Chung (I))" H0 m# I9 }2 v$ g* L
◎主  演 杨紫琼& z% \6 a* O8 j+ a" o& J9 v3 `5 d5 l
      王敏德2 m% A, i' F2 N( |
      真田广之
: \- F) K" U) d7 W# ^
: D4 F1 W/ S; I% `( g* ~# H* S7 U◎简  介
% q) V  D/ t% j
; Q! \6 W- D  J8 v: }9 g  日本警探山本(真田广之)来香港途中,遇上押解犯人李仲青回港的香港女警Michelle(杨紫琼).李的同伙欲救李,结果,两人都被山本杀死,而匪徒一共有四人,剩下的2个匪徒报复,杀害了山本的妻女,山本亦杀死其中一名匪徒,他们追踪最后一人到了矿厂,展开了一场恶战…………. |$ D, A: v  K* a  o1 B2 U! c
, O9 ^) R# U# z0 c% n
◎获奖情况
4 f3 Z7 F9 J  O
% m6 F2 _# a/ U  第6届香港电影金像奖  (1987)/ q8 Z  w, I' n. Z
  最佳动作设计(提名) 孟海
  1. Video
    % Y/ ?* t8 s) o4 j5 P' x
  2. ID                                       : 1
      {  {; ~5 [: [. L& s  Z
  3. Format                                   : AVC! d5 `( Q3 i* R! P" p' L
  4. Format/Info                              : Advanced Video Codec
    # s5 Z2 W2 s9 l0 _
  5. Format profile                           : [email protected]$ M* W/ H, o  M: {' s( j9 V* q
  6. Format settings, CABAC                   : Yes
    + W6 O5 H9 ]+ p- G  r
  7. Format settings, ReFrames                : 3 frames! n  G! z# E" B$ c
  8. Codec ID                                 : V_MPEG4/ISO/AVC( P$ n5 L% I3 \& X+ W
  9. Duration                                 : 1h 36mn
    ) F5 N) p* j# _  c+ a, J
  10. Bit rate mode                            : Variable* L7 _5 o2 C  m8 e; R, `
  11. Bit rate                                 : 12.8 Mbps
    6 R: Q5 `. s$ Z3 v
  12. Maximum bit rate                         : 40.0 Mbps
    5 r+ V% z  _$ ^5 ~
  13. Width                                    : 1 920 pixels' m' @/ a4 [/ U3 |
  14. Height                                   : 1 080 pixels5 I- J5 G: }; Q* O2 |- q) ?
  15. Display aspect ratio                     : 16:9% H% x; @3 i5 w  a  Z
  16. Frame rate mode                          : Constant
    6 L9 \9 }- c; R
  17. Frame rate                               : 23.976 (24000/1001) fps: h0 J4 x! {3 P+ H2 a) M& C
  18. Color space                              : YUV4 k9 G3 K3 V9 h: b. d5 e: @8 U# S
  19. Chroma subsampling                       : 4:2:0* R. i" l: L# M  X0 }
  20. Bit depth                                : 8 bits
    + n$ y+ Q/ t7 z  I) }) k
  21. Scan type                                : Progressive
    : z% {% e. ~( H6 ^" }
  22. Bits/(Pixel*Frame)                       : 0.257; E8 T9 ~6 H; F
  23. Stream size                              : 8.38 GiB (93%), a6 M$ h8 p4 v& h* d# F, V3 i* X
  24. Writing library                          : x264 core 116 r2074 2641b9e
    & R/ G+ n$ M3 Y) L; J1 }( H, W4 {
  25. Encoding settings                        : cabac=1 / ref=4 / deblock=1:-1:-1 / analyse=0x3:0x113 / me=umh / subme=7 / psy=1 / psy_rd=1.20:0.00 / mixed_ref=1 / me_range=24 / chroma_me=1 / trellis=1 / 8x8dct=1 / cqm=0 / deadzone=21,11 / fast_pskip=1 / chroma_qp_offset=-2 / threads=12 / sliced_threads=0 / slices=4 / nr=0 / decimate=1 / interlaced=0 / bluray_compat=1 / constrained_intra=0 / bframes=3 / b_pyramid=1 / b_adapt=1 / b_bias=0 / direct=1 / weightb=1 / open_gop=1 / weightp=1 / keyint=24 / keyint_min=2 / scenecut=40 / intra_refresh=0 / rc_lookahead=24 / rc=2pass / mbtree=1 / bitrate=12760 / ratetol=1.0 / qcomp=0.60 / qpmin=17 / qpmax=69 / qpstep=4 / cplxblur=20.0 / qblur=0.5 / vbv_maxrate=40000 / vbv_bufsize=30000 / nal_hrd=vbr / ip_ratio=1.40 / aq=1:1.00
    ) R; l$ x( I* c7 l5 o' j, x) E
  26. Language                                 : Chinese4 }. x! H, O: g8 w  x/ v4 }$ Y
  27. Default                                  : Yes
    7 p2 z. S6 m5 {  W9 O
  28. Forced                                   : Yes, u; t8 e5 V. r8 E6 Q* ?, [
  29. 8 h! a5 `! }' c7 p- X1 W
  30. Audio6 N# q& w% l; S' m
  31. ID                                       : 26 y( J0 I2 k1 _. [
  32. Format                                   : AC-3  x# S6 X1 f( K* f0 p
  33. Format/Info                              : Audio Coding 33 ]9 r$ m3 B/ ^- M
  34. Mode extension                           : CM (complete main)
    - \- x. \" |! W6 e% C0 B, J
  35. Format settings, Endianness              : Big
    ) N. R2 E% t# M, w) i
  36. Codec ID                                 : A_AC34 A* q: o7 P: y5 g$ `
  37. Duration                                 : 1h 36mn! l- L% m* [4 a5 Z" r% M) K3 [8 g
  38. Bit rate mode                            : Constant
    & i) {$ }' f8 a' t. S/ A2 X
  39. Bit rate                                 : 640 Kbps
    6 m; v. _: Z, O/ S6 q
  40. Channel(s)                               : 6 channels
    / ^# u/ x0 |4 [  I1 q0 R
  41. Channel positions                        : Front: L C R, Side: L R, LFE
    $ p# K+ [) V% o& w0 p9 X
  42. Sampling rate                            : 48.0 KHz5 D: l" I) U: }  ^7 p* a5 ~; f
  43. Frame rate                               : 31.250 fps (1536 spf)
      T7 @  F8 ]8 h) `8 v5 Q$ {! r2 U
  44. Compression mode                         : Lossy
    % d7 e0 y: ]* d
  45. Stream size                              : 440 MiB (5%)1 v, ]% ?3 P  s2 k1 W& S
  46. Language                                 : Chinese& C" `. s; G; X1 q
  47. Default                                  : Yes
    ( Z- g: B' i5 e; o/ h
  48. Forced                                   : No
    ' E( k' K6 b: J- u5 \$ ^: {" E

  49. # @4 ~6 Y( H) I* L/ \6 ]
  50. Text4 E3 {. {! U1 q& h* `7 z( E
  51. ID                                       : 30 g+ I/ I6 Y3 x" a9 C
  52. Format                                   : VobSub0 y7 l5 I* c9 W- r2 E! `, A- G
  53. Muxing mode                              : zlib. j  W" r! D- b. e  T# h4 P
  54. Codec ID                                 : S_VOBSUB( \7 N$ Z1 `; u7 p% k% Z
  55. Codec ID/Info                            : Picture based subtitle format used on DVDs
    5 [! r4 O! U' w: i. b
  56. Language                                 : English, F( t" E- T" c* h; x  `* ?
  57. Default                                  : Yes
    ( F% a1 Z  _* j' U$ a; B2 ~# I0 V
  58. Forced                                   : Yes! j: K1 c9 x& g- s" X
复制代码

9 S( h( p9 j# e" X  g
( R* t1 ^9 g8 j4 c, K- a, b! c& d! i" M, g2 \2 s

9 K# D2 E$ o+ L7 s* o3 w  h3 M; }
4 o6 h/ O7 l) s+ M6 L" v
  G1 q8 N; Y6 A- U+ ^' Y
2 v3 P) j& o7 X5 |; w1 Y0 r9 v- x0 r+ l

6 k# |( G0 u/ j
游客,如果您要查看本帖隐藏内容请回复  捐助论坛可免回复查看隐藏内容 详情请点击
最近访问 头像模式 列表模式
HD一条街,身边的一条街。
发表于 2016-4-18 13:26:46 | 显示全部楼层
多謝HD一条街
HD一条街,身边的一条街。
发表于 2016-4-18 16:32:12 | 显示全部楼层
经典电影,一定支持
HD一条街,身边的一条街。
发表于 2016-4-18 17:05:02 | 显示全部楼层
經典好片.感謝分享.
HD一条街,身边的一条街。
发表于 2016-4-19 17:28:47 来自手机 | 显示全部楼层
如果七部都有那么高清就好咯!
HD一条街,身边的一条街。
发表于 2016-5-7 00:52:50 | 显示全部楼层
精彩不容错过~谢谢分享
HD一条街,身边的一条街。
发表于 2016-5-26 09:05:22 | 显示全部楼层
我要这部片子了,谢谢楼主的分享!
HD一条街,身边的一条街。
发表于 2016-6-7 18:40:24 | 显示全部楼层
很经典的一部杨紫琼的电影!
HD一条街,身边的一条街。
发表于 2016-6-17 11:40:06 | 显示全部楼层
谢谢楼主分享,杨紫琼好年轻哦
HD一条街,身边的一条街。

手机版|小黑屋|有问题发邮件到admin#(换成@)hd1tj.org|微博|免责申明|HD一条街

GMT+8, 2017-4-29 07:46

Powered by Discuz! X3.1

© 2001-2013 Comsenz Inc.

快速回复 返回顶部 返回列表