开启辅助访问 切换到窄版

HD一条街论坛

 找回密码
 立即注册
查看: 249|回复: 11

[欧美] 纪录片:葡萄酒进瓶的那些事 Somm.Into.The.Bottle.2015.DOCU.1080p.WEB-DL.DD5.1.H264-FGT 3.22G

[复制链接]
发表于 2016-2-24 21:50:58 | 显示全部楼层 |阅读模式
62a3ab186bcb72c33b661081dbaa35bc80923942.jpg
2 z+ H1 W; D* j' w; j) l! U$ Q
! X' [- B6 @2 ^! `4 M◎译  名 葡萄酒进瓶的那些事
; `5 n% F' t7 k. L◎片  名 SOMM: Into the Bottle
5 Y9 v3 u% A# b2 r+ O◎年  代 20150 z4 B( m8 r. ^5 Q2 O- S
◎国  家 美国
7 ]9 K; n  t  R/ m◎类  别 纪录片% X0 L' {4 w5 }+ Q& T4 Z
◎语  言 英语
- ]; [- t3 Q3 o9 f◎上映日期 2015-11-11
" |$ w+ L8 J% B: F: a- [5 [- ~◎IMDb评分  8.4/10 from 37 users
, P# R3 E2 j- z5 R- y. l0 T◎IMDb链接  http://www.imdb.com/title/tt5161502/
% H: m4 J; u% m, @◎豆瓣评分 0/10 from 1 users
% U6 ^$ Z2 d$ V9 l- U' m◎豆瓣链接 http://movie.douban.com/subject/26710969/
, E+ u* |/ M7 T  z& V) Y◎片  长 90分钟
/ ]8 x* ^8 g! d6 M◎导  演 Jason Wise
" _6 m3 }" {) b2 y0 ~* O◎主  演 Silvia Altare
& {2 V& \: D* k# X3 |  r+ Q      Brian Carmody
9 S3 W  @2 y) `( M  k! p      Ian Cauble
. @' w- \. T( B( S/ X$ B' G$ \- \  t$ G1 {6 ?4 F9 _, q
◎简  介' u# d) H7 q. g% d, u+ A* W5 k
% t" I, z* n  m2 @% G! G
  The history, politics, pleasure, and BS of wine told through opening ten very different bottles.

  1. $ u: ]/ B$ V  F, X# u
  2. Video, f: t/ {8 O0 S$ [2 u: L: }
  3. ID                                       : 1
    # [0 g" C: _3 o  K) G  U! c
  4. Format                                   : AVC0 r3 w, B1 ^; ?- N5 ]
  5. Format/Info                              : Advanced Video Codec! Z, Y: U$ `! k0 F% {( ]3 D( x
  6. Format profile                           : [email protected]
    ( W  h2 C9 h# W, Y1 ^
  7. Format settings, CABAC                   : Yes6 \/ p! B- {- z$ R3 `
  8. Format settings, ReFrames                : 4 frames
    2 k- F, D& ~" U8 Q
  9. Codec ID                                 : V_MPEG4/ISO/AVC" V% `8 Y0 V  M
  10. Duration                                 : 1h 30mn
    ( V0 t) ~8 K$ ?9 S
  11. Bit rate                                 : 4 635 Kbps. n$ U  m! b: {$ U
  12. Width                                    : 1 908 pixels$ Y4 Y! R. @& }, Z- S! w
  13. Height                                   : 1 068 pixels( j4 A0 r3 Q5 U
  14. Display aspect ratio                     : 16:9  W6 `6 ~+ q+ M
  15. Frame rate mode                          : Constant2 S- _( p6 a' |' @  A
  16. Frame rate                               : 23.976 (24000/1001) fps
    $ n+ k. g& ^6 v3 z$ X
  17. Color space                              : YUV; m7 s9 a, ], C/ `
  18. Chroma subsampling                       : 4:2:0
    9 ^) u( I: @- Q
  19. Bit depth                                : 8 bits9 @) Y# Z% ^9 }, T8 J6 F* j
  20. Scan type                                : Progressive1 |( u9 R: ^* S
  21. Bits/(Pixel*Frame)                       : 0.095
    ) u4 Z9 R6 c$ x
  22. Stream size                              : 2.92 GiB (91%)
    $ ~3 d5 A6 h, O
  23. Title                                    : Somm.Into.The.Bottle.2015.DOCU.1080p.WEB-DL.DD5.1.H264-FGT$ D( x- ~& m( \1 B
  24. Language                                 : English
    . r  J1 N$ y, p$ i* P% x2 D: C9 h
  25. Default                                  : Yes
    9 y  C* w+ |# p* j) Z0 h0 k% ~
  26. Forced                                   : No
    1 I8 C3 @5 }  q5 U3 W0 s0 w' c4 f
  27. Color range                              : Limited3 b4 U& m. a7 M4 G+ u# {
  28. Color primaries                          : BT.709
    " R0 {- z6 a  ?
  29. Transfer characteristics                 : BT.709
    3 i' Q+ _6 c, P0 u4 _* o
  30. Matrix coefficients                      : BT.709
    " }2 U; c8 q2 P0 i
  31. * z: ]) i( x7 g. u7 @) g0 B" S% a
  32. Audio& a3 F% P: l" F7 p: d
  33. ID                                       : 2- m: @8 k1 w7 |8 e# ^
  34. Format                                   : AC-3
    ( d9 h" D8 [, R; C. I2 O% t
  35. Format/Info                              : Audio Coding 3
    + L) T0 q2 z) }& s6 g4 p1 [
  36. Mode extension                           : CM (complete main)
    4 N6 j- P' E% l& `3 u
  37. Format settings, Endianness              : Big$ H+ J/ q% K) {" D
  38. Codec ID                                 : A_AC3
    7 H( y, @6 F) W7 g* m7 V
  39. Duration                                 : 1h 30mn' T+ t8 ^2 T, W% ?3 z
  40. Bit rate mode                            : Constant- ?* N9 L1 `' v9 K, k5 z$ }+ W$ w
  41. Bit rate                                 : 384 Kbps* I5 Z/ n; \' u
  42. Channel(s)                               : 6 channels
    ' Z2 g' D# P3 x9 q
  43. Channel positions                        : Front: L C R, Side: L R, LFE  U& o4 n! ^  P% H; I; b
  44. Sampling rate                            : 48.0 KHz
    / C- m- `3 r  X, Q- r
  45. Frame rate                               : 31.250 fps (1536 spf)
    / a. |4 o3 P3 L" c6 S- r
  46. Compression mode                         : Lossy
    6 R0 q- G- ^/ L, A0 k9 @
  47. Stream size                              : 247 MiB (7%)
    / H3 u. X# p3 B( {  {* h
  48. Title                                    : Somm.Into.The.Bottle.2015.DOCU.1080p.WEB-DL.DD5.1.H264-FGT
    ' T  q; h/ T- N, B4 a2 v  T% |$ {
  49. Language                                 : English8 C4 ~- v2 j& K  l. M* U9 D
  50. Default                                  : Yes
    . C7 ?9 Y7 h( X" z
  51. Forced                                   : No
    : m; C; r& c7 [( v  n% v

  52. 1 z# f$ i/ w  L9 H
  53. Menu' _4 T, r& W* _# k( c# H
  54. 00:00:00.000                             : en:14 {. X, U; S$ E$ C( J, F
  55. 00:09:41.000                             : en:2
    9 n. U+ H4 I' J; `$ _
  56. 00:20:22.000                             : en:3
    ! W7 ^2 O" _: q! W0 \1 t4 V1 X
  57. 00:31:52.000                             : en:4# m: |# D( U9 [* _: g* s
  58. 00:41:03.000                             : en:5
    , Z# l- c1 B4 m7 q0 k- q
  59. 00:50:34.000                             : en:67 O4 Q7 n/ l* W$ H: Q8 P. G( W: K
  60. 00:59:27.000                             : en:7* I2 [. S3 {# w& L! L
  61. 01:10:19.000                             : en:8
    0 @* C  p( u6 U# e7 r6 ]! j
  62. 01:21:09.000                             : en:9
    $ E3 G6 G0 j9 F- a7 b2 S" N
  63. 01:28:13.000                             : en:10
复制代码
7 E4 q% f) E% w! U+ Y* q. C  K

) |/ a" j; \! k, P: P/ t1 E) @: B
$ g5 v( Y9 `: t4 y! i5 G2 Z$ G* c# Z  e4 o( q! }
' [4 o1 \) g9 B7 s  {  T

( i+ }" g7 Q& O5 \9 {0 W
$ j2 a  f7 j) l  d$ i* }" p; @( h; ?3 E! K

5 Y7 U" V5 N, \
游客,如果您要查看本帖隐藏内容请回复  捐助论坛可免回复查看隐藏内容详情请点击
最近访问 头像模式 列表模式
HD一条街,身边的一条街。
发表于 2016-2-25 10:06:55 | 显示全部楼层
感谢楼主分享精彩
HD一条街,身边的一条街。
发表于 2016-2-25 10:42:13 | 显示全部楼层
看看咯  提升一下知识
HD一条街,身边的一条街。
发表于 2016-2-25 11:04:19 | 显示全部楼层
葡萄酒的学问还真不少
HD一条街,身边的一条街。
发表于 2016-2-25 22:17:44 | 显示全部楼层
非常的好! 謝謝!!
HD一条街,身边的一条街。
发表于 2016-2-26 02:23:15 | 显示全部楼层
学学红酒知识,品酒,识酒
HD一条街,身边的一条街。
发表于 2016-2-26 08:39:54 | 显示全部楼层
我也想知道這過程是怎樣的,感謝樓主
HD一条街,身边的一条街。
发表于 2016-2-26 17:18:13 | 显示全部楼层
好东西,一定很有趣,多谢分享.
HD一条街,身边的一条街。
发表于 2016-2-27 11:46:57 | 显示全部楼层
学习一下,谢谢分享~
HD一条街,身边的一条街。
您需要登录后才可以回帖 登录 | 立即注册

本版积分规则

手机版|小黑屋|有问题发邮件到admin#(换成@)hd1tj.org|微博|免责申明|HD一条街

GMT+8, 2016-12-6 00:37

Powered by Discuz! X3.1

© 2001-2013 Comsenz Inc.

快速回复 返回顶部 返回列表