开启辅助访问 切换到窄版

HD一条街论坛

 找回密码
 加入我们
查看: 309|回复: 11

[欧美] 纪录片:葡萄酒进瓶的那些事 Somm.Into.The.Bottle.2015.DOCU.1080p.WEB-DL.DD5.1.H264-FGT 3.22G

[复制链接]
发表于 2016-2-24 21:50:58 | 显示全部楼层 |阅读模式
62a3ab186bcb72c33b661081dbaa35bc80923942.jpg $ h2 W& x' I1 V
2 [$ a1 s; D  }6 j# X& F# R
◎译  名 葡萄酒进瓶的那些事6 d0 Y9 v/ \7 n& c+ I% B
◎片  名 SOMM: Into the Bottle
, [/ J. l; a( `0 x◎年  代 2015% r3 ?  \& N% ]% p( v
◎国  家 美国# u! P5 A  H4 b
◎类  别 纪录片6 k& c% e( L# F8 S, V/ t6 G- B
◎语  言 英语$ y* i! P  b/ m% E5 }8 U
◎上映日期 2015-11-11
4 f( V7 j0 l  G  s2 o. u◎IMDb评分  8.4/10 from 37 users
$ _7 o0 K8 Z7 C& t◎IMDb链接  http://www.imdb.com/title/tt5161502/9 p% v2 m6 V$ |' f) o; `& b
◎豆瓣评分 0/10 from 1 users
9 w& x1 {. q( O, k) e◎豆瓣链接 http://movie.douban.com/subject/26710969/8 H) @& W- s7 v/ V' K( y
◎片  长 90分钟" b" j5 P' ?- Q, k8 ?  o* |8 J
◎导  演 Jason Wise! l  B: S  y5 Q  ~# X
◎主  演 Silvia Altare: }: s, T, Q3 I+ K
      Brian Carmody
, {! S5 Z$ k3 F8 ?5 D% v  p      Ian Cauble4 c& n1 [4 o$ g2 H3 N- ~2 O

# A0 ^( a; F+ m+ `% \◎简  介
: t$ e9 w8 K% R( J; M: F! h8 U5 ?8 A: q6 l0 h: n5 e
  The history, politics, pleasure, and BS of wine told through opening ten very different bottles.
  1. ) C( p; P9 c2 @2 D9 T9 s
  2. Video
    8 D: e/ e( q# t8 {: P, u
  3. ID                                       : 19 A$ }1 d/ b8 q! R2 h! M- u
  4. Format                                   : AVC
    4 |1 S( O" x! L5 H, e  P: N  c% l) Y
  5. Format/Info                              : Advanced Video Codec
    3 m; O7 Y. _$ \2 v
  6. Format profile                           : [email protected]
    5 i7 A2 [+ g! g" x) J6 h6 p
  7. Format settings, CABAC                   : Yes
    ) d5 Y/ x1 Z) r1 Y% \
  8. Format settings, ReFrames                : 4 frames1 k  P) j+ T9 L
  9. Codec ID                                 : V_MPEG4/ISO/AVC% q7 Z8 X6 z: s- N! m7 ?
  10. Duration                                 : 1h 30mn% `7 \2 n7 c2 A9 U
  11. Bit rate                                 : 4 635 Kbps
    : q8 m: ?: x6 |
  12. Width                                    : 1 908 pixels
    . Q. Y* j7 `* J4 ~% j) P! t/ j( N
  13. Height                                   : 1 068 pixels9 ^7 e) W1 o1 Z( Z$ i% Q* B
  14. Display aspect ratio                     : 16:9! Y. z8 S& Q2 V$ f- S
  15. Frame rate mode                          : Constant
    ; z- }+ g8 T$ y- ~1 O2 _
  16. Frame rate                               : 23.976 (24000/1001) fps
    1 [, L4 z3 q/ X$ R" q7 f/ S
  17. Color space                              : YUV0 ]9 x' X/ V9 v% N. \
  18. Chroma subsampling                       : 4:2:0& m1 \, R  d* ?+ J4 L3 g* ]+ J6 {& }/ P: ~
  19. Bit depth                                : 8 bits
    # _6 M* q+ s, v; y8 L
  20. Scan type                                : Progressive
    6 C* b; y8 f5 a( _& ?
  21. Bits/(Pixel*Frame)                       : 0.095
    & ?; J9 b6 J: s: S
  22. Stream size                              : 2.92 GiB (91%): F! H! g& _/ N* @& z
  23. Title                                    : Somm.Into.The.Bottle.2015.DOCU.1080p.WEB-DL.DD5.1.H264-FGT% Q; ~. U( |4 Q) G8 f
  24. Language                                 : English, a# y% P8 x: t) _- N0 g
  25. Default                                  : Yes
    8 G  L: \/ C: c# i6 t
  26. Forced                                   : No: Z# w5 b8 n4 q) V
  27. Color range                              : Limited
    % q8 q, u1 E7 }/ y- y& b0 P
  28. Color primaries                          : BT.709
    + f; y! V, h% p- I" U2 c& _" n  ]& `
  29. Transfer characteristics                 : BT.7091 V4 }9 n% |! c5 L1 p
  30. Matrix coefficients                      : BT.709
    ! C8 D: }4 v/ C7 t1 B  K
  31. 4 T* w0 u% \& z5 P
  32. Audio
    2 u% y1 ^& U/ P& Y
  33. ID                                       : 2$ c9 l9 N- Q; \5 d" J' K
  34. Format                                   : AC-3( t* Q4 F/ A  _5 z$ k  B. k, p& u
  35. Format/Info                              : Audio Coding 3$ B- h" |3 E  S
  36. Mode extension                           : CM (complete main)
    * E7 j' H5 |. J# Y( x
  37. Format settings, Endianness              : Big5 L6 ~! B; l# m( o9 y7 H4 j, e
  38. Codec ID                                 : A_AC3
    ! v0 b! L( i" _% ?) A0 ^
  39. Duration                                 : 1h 30mn0 z. O+ K- r0 B+ z7 u9 [
  40. Bit rate mode                            : Constant) |. @6 _/ Y0 d
  41. Bit rate                                 : 384 Kbps
      `- m2 l' b' [, V& {: \2 D
  42. Channel(s)                               : 6 channels
    4 m2 q% d6 D8 ]6 ]3 W1 z
  43. Channel positions                        : Front: L C R, Side: L R, LFE
    # `5 s+ z* w* k6 }% w3 z  W" ^
  44. Sampling rate                            : 48.0 KHz
    # e7 a& ?% V4 `7 a2 ~" D: b
  45. Frame rate                               : 31.250 fps (1536 spf)% s7 N) L1 }. p
  46. Compression mode                         : Lossy
    5 O, a6 O' K+ o8 a( t, c
  47. Stream size                              : 247 MiB (7%)# A( }( b7 }! l! d3 s- ]1 ]
  48. Title                                    : Somm.Into.The.Bottle.2015.DOCU.1080p.WEB-DL.DD5.1.H264-FGT) Q7 `9 N$ Z& K5 b" m* O$ Z/ |
  49. Language                                 : English! _9 K3 i, u3 h$ U5 d
  50. Default                                  : Yes
    . j6 o) G( ?; T) Z7 z
  51. Forced                                   : No
    + T9 d$ b9 S# ^# O7 j8 o$ a
  52. ) _4 y1 `! L- R' F. e
  53. Menu$ g, m" L( p7 d! y: v: m7 ^/ K! I
  54. 00:00:00.000                             : en:1
    2 F" V7 |, I+ G  f+ A" x1 K" \
  55. 00:09:41.000                             : en:2( j6 B  `) z) h9 I: p# ~0 F9 o
  56. 00:20:22.000                             : en:3
    - M, r, z; W* C; c0 o6 h7 j0 q( D
  57. 00:31:52.000                             : en:4) @& F+ e* Q" |% s- x: i
  58. 00:41:03.000                             : en:5
    ( R) N8 a, u1 A# N
  59. 00:50:34.000                             : en:6
    1 h( y5 ?9 V0 f, Y4 y! _
  60. 00:59:27.000                             : en:7) N4 J. C/ ]+ g& b+ ~7 v
  61. 01:10:19.000                             : en:8& c& n! Q3 i" |- i5 z
  62. 01:21:09.000                             : en:98 ^" O9 G9 V5 h- Y" m
  63. 01:28:13.000                             : en:10
复制代码

0 Q: B+ S# l! S3 H! t: o9 ~8 j
: ^4 c* o2 l' ^0 e1 Z& \3 |6 B/ `6 p; }
" E4 ^. H6 `3 {( {+ G: J4 {

0 l) G  n; d7 r+ ]0 E' N* t) a6 t4 ~3 N/ S. j( I
0 C( o$ y& a+ d
7 e# V3 \+ ~/ P$ U8 V, f8 n. \
: J8 R4 \* _6 _! m3 u7 b0 N9 O
游客,如果您要查看本帖隐藏内容请回复  捐助论坛可免回复查看隐藏内容 详情请点击
最近访问 头像模式 列表模式
HD一条街,身边的一条街。
发表于 2016-2-25 10:06:55 | 显示全部楼层
感谢楼主分享精彩
HD一条街,身边的一条街。
发表于 2016-2-25 10:42:13 | 显示全部楼层
看看咯  提升一下知识
HD一条街,身边的一条街。
发表于 2016-2-25 11:04:19 | 显示全部楼层
葡萄酒的学问还真不少
HD一条街,身边的一条街。
发表于 2016-2-25 22:17:44 | 显示全部楼层
非常的好! 謝謝!!
HD一条街,身边的一条街。
发表于 2016-2-26 02:23:15 | 显示全部楼层
学学红酒知识,品酒,识酒
HD一条街,身边的一条街。
发表于 2016-2-26 08:39:54 | 显示全部楼层
我也想知道這過程是怎樣的,感謝樓主
HD一条街,身边的一条街。
发表于 2016-2-26 17:18:13 | 显示全部楼层
好东西,一定很有趣,多谢分享.
HD一条街,身边的一条街。
发表于 2016-2-27 11:46:57 | 显示全部楼层
学习一下,谢谢分享~
HD一条街,身边的一条街。
您需要登录后才可以回帖 登录 | 加入我们

本版积分规则

手机版|小黑屋|有问题发邮件到admin#(换成@)hd1tj.org|微博|免责申明|HD一条街

GMT+8, 2017-1-20 11:51

Powered by Discuz! X3.1

© 2001-2013 Comsenz Inc.

快速回复 返回顶部 返回列表