开启辅助访问 切换到窄版

HD一条街论坛

 找回密码
 立即注册
查看: 145|回复: 1

[欧美] 隐晦的理论:关于住户的电影 Theory.Of.Obscurity.A.Film.About.The.Residents.2015.DOCU.1080p.BluRay.x264-GHOULS 6.56G

[复制链接]
发表于 2016-2-16 20:59:37 | 显示全部楼层 |阅读模式
147460_front.jpg
  N5 X/ c! m7 D( a, l  D) s5 W8 {+ M, Y" x9 F: {
◎译  名 隐晦的理论:关于住户的电影
% W) i4 k3 q' \% O◎片  名 Theory of Obscurity: A Film About the Residents0 q& J7 y, r! r% F  P5 d2 w2 l& e2 \' L
◎年  代 2015: d  e4 y, k2 p+ e5 q9 t7 o
◎国  家 美国
) |9 @/ {2 t" q◎语  言 英语" S, R% Y1 R( _1 \0 w
◎IMDb评分  7.1/10 from 53 users9 R, u9 H; [4 ]/ C6 m
◎IMDb链接  http://www.imdb.com/title/tt2833768/  m* W. ?1 s  l) X% j
◎豆瓣评分 0/10 from 1 users5 X( m( n" P* K, G1 l( u
◎豆瓣链接 http://movie.douban.com/subject/26381821/
3 W: q6 _. s  ~& x  R$ c$ p! X◎片  长 87分钟: R/ Q5 r4 {% l) [& D
◎导  演 Don Hardy Jr.! P) D  M+ a, `4 L* g* N
; k& \; Q$ p8 u0 }- x' b
◎简  介  J2 }3 Y2 M8 D0 Q' |
' C- A2 d: V; g7 Q. q
  Theory of Obscurity tells the story of the renegade sound and video collective known as The Residents. A story that spans 40 years and is clouded in mystery. Many details surrounding the group are secret, including the identities of its members. Our film takes viewers inside this incredibly private group with unprecedented access to their archives and their recent 40th anniversary tour. The Residents have released more than 60 albums, performed all over the world and inspired many people to be weird, take chances and find their own voice. Now, our film will introduce The Residents to a whole new generation.
  1. Video/ |$ b6 F" `# W" v
  2. ID                                       : 1
    " d& P* [" I1 W# k
  3. Format                                   : AVC; T; M; C3 L: r* u/ w
  4. Format/Info                              : Advanced Video Codec
    + `$ a5 I# \9 E, p
  5. Format profile                           : [email protected]& _  V$ h1 ]1 z2 m- _
  6. Format settings, CABAC                   : Yes
    7 r: Y8 x8 I0 F6 N& T3 I) S2 I
  7. Format settings, ReFrames                : 4 frames3 o+ L" H/ E/ U; j
  8. Codec ID                                 : V_MPEG4/ISO/AVC
    7 f7 a% a9 \; @
  9. Duration                                 : 1h 27mn
    7 h+ v* n4 X! @$ D
  10. Bit rate                                 : 9 221 Kbps! U; |& O1 L4 x6 }0 P' N: [
  11. Width                                    : 1 920 pixels; k; ~& j/ f- s6 _( c
  12. Height                                   : 1 080 pixels
    ) {! A( B  a: `, O! w
  13. Display aspect ratio                     : 16:9
    7 [) b3 ]/ m5 V( i/ V2 D" V1 c
  14. Frame rate mode                          : Constant
    , d. D, P* ~$ k% M' D' j
  15. Frame rate                               : 23.976 (24000/1001) fps# H1 ~) U6 A: c8 I- k( L
  16. Color space                              : YUV/ A) c! ]2 R1 F2 c3 a
  17. Chroma subsampling                       : 4:2:0' ^% @) m4 P8 r: p2 k
  18. Bit depth                                : 8 bits
    ' x3 H3 ~& @# W: B
  19. Scan type                                : Progressive* N+ C% @" c  ]  k$ y2 |; N9 _
  20. Bits/(Pixel*Frame)                       : 0.185
    7 S: [) y& z( [" p* g! r6 C/ A
  21. Stream size                              : 5.51 GiB (84%)
    8 s2 w) r# F; _4 D& W
  22. Writing library                          : x264 core 148 r2665 a01e339% i2 P3 D' e2 a8 x+ t
  23. Encoding settings                        : cabac=1 / ref=4 / deblock=1:-1:-1 / analyse=0x3:0x133 / me=umh / subme=7 / psy=1 / psy_rd=1.00:0.00 / mixed_ref=1 / me_range=16 / chroma_me=1 / trellis=1 / 8x8dct=1 / cqm=0 / deadzone=21,11 / fast_pskip=0 / chroma_qp_offset=-2 / threads=30 / lookahead_threads=5 / sliced_threads=0 / nr=0 / decimate=1 / interlaced=0 / bluray_compat=0 / constrained_intra=0 / bframes=3 / b_pyramid=2 / b_adapt=2 / b_bias=0 / direct=3 / weightb=1 / open_gop=0 / weightp=2 / keyint=240 / keyint_min=23 / scenecut=40 / intra_refresh=0 / rc_lookahead=50 / rc=2pass / mbtree=1 / bitrate=9221 / ratetol=1.0 / qcomp=0.60 / qpmin=10 / qpmax=51 / qpstep=4 / cplxblur=20.0 / qblur=0.5 / vbv_maxrate=62500 / vbv_bufsize=78125 / nal_hrd=none / filler=0 / ip_ratio=1.40 / aq=1:1.00
    ( h6 d# G1 d/ ~" m
  24. Default                                  : Yes
    : q% Q, P; }2 l/ Q) Y
  25. Forced                                   : No. h4 T7 P' |$ q: P

  26. 3 }- }3 q  s# _* E, w
  27. Audio
    + F8 e8 o5 I8 a& k  B! n6 ~4 O
  28. ID                                       : 2
    1 t8 w$ n1 f: i/ {: ?. P
  29. Format                                   : DTS
    ; a: ?9 u% a' M9 y, h* H# a' g
  30. Format/Info                              : Digital Theater Systems
    : f, M/ B# M$ Q+ I# J
  31. Mode                                     : 16
    $ s% p$ W  X1 P3 n2 M
  32. Format settings, Endianness              : Big
    ; C* O, E( s0 n9 F
  33. Codec ID                                 : A_DTS
    9 S1 L2 z( i+ g( z. z8 E$ ]
  34. Duration                                 : 1h 27mn! u. A, Y5 ~/ H. F  H* U
  35. Bit rate mode                            : Constant' S# }, q2 T$ o: u( M# ~. v7 G; O9 g
  36. Bit rate                                 : 1 509 Kbps
    1 P: q8 A& G: [
  37. Channel(s)                               : 6 channels
    5 g$ Z* @& l+ K, Z/ P8 k
  38. Channel positions                        : Front: L C R, Side: L R, LFE- b0 W( H0 K" p) G3 l4 a
  39. Sampling rate                            : 48.0 KHz$ E0 T! [3 n- _; `+ k  x  }
  40. Frame rate                               : 93.750 fps (512 spf)
    / u& \) z1 F1 d# Z4 t2 g  n9 r( w
  41. Bit depth                                : 24 bits
    : t0 [, T6 f9 G1 ~# g  V
  42. Compression mode                         : Lossy
    - y# P6 E2 S) Z; @8 D
  43. Stream size                              : 945 MiB (14%)" `: }9 p& b: n7 ?5 q( C& L$ v8 k
  44. Language                                 : English
    1 y  z% M' }9 v6 E! q$ ^
  45. Default                                  : Yes: {# X: s% Y0 V' U1 e
  46. Forced                                   : No' B, C% H- _) u. P/ W2 S2 J0 @
  47. # Q( s! E# X* X0 }6 Y% v
  48. Menu' I1 S, N/ s8 |
  49. 00:00:00.000                             : en:00:00:00.000
    9 t  Y" t. P; c/ ]1 a
  50. 00:06:03.029                             : en:00:06:03.029
    4 n6 Y9 R* c3 Y6 A
  51. 00:14:08.765                             : en:00:14:08.765
    2 r" b+ p, X  Z( _/ m5 D, ^6 y
  52. 00:22:05.950                             : en:00:22:05.950
    " P# Z' Q% w. R0 y5 K# L
  53. 00:26:52.653                             : en:00:26:52.653
    & m' F. \9 x$ E( a5 S6 ]) L7 y
  54. 00:36:57.966                             : en:00:36:57.966
    3 k9 u7 |/ l4 A9 W2 j
  55. 00:43:52.255                             : en:00:43:52.2556 i) }. r7 j8 v( r( e! }) C
  56. 00:49:46.400                             : en:00:49:46.400
    - n: j5 l. u* Z  P5 l, b! @
  57. 00:55:17.022                             : en:00:55:17.022
    1 S8 C8 b5 b8 a0 k. ^! d
  58. 01:07:13.154                             : en:01:07:13.154
    9 s1 {! \: W( ^& x, ]
  59. 01:11:46.093                             : en:01:11:46.093) Q7 I+ k' V4 G; u. R, {
  60. 01:25:28.498                             : en:01:25:28.498
复制代码

: W* U2 y/ O7 I: ?- w' b7 [; q' I( _- |

) s; w: {! [3 L7 e0 P/ u0 e5 }' l; I% G3 _) s
" N' h) x% p4 ]0 x) u
) I5 q" F3 h7 |
! z4 e7 x8 x& |8 H, \5 x2 N
9 z; g6 W4 m4 O2 X1 A
6 F1 b% a9 q  b+ \( ~
游客,如果您要查看本帖隐藏内容请回复  捐助论坛可免回复查看隐藏内容详情请点击
最近访问 头像模式 列表模式
HD一条街,身边的一条街。
发表于 2016-2-16 21:06:46 | 显示全部楼层
谢谢分享,辛苦了,我爱一条街
HD一条街,身边的一条街。
您需要登录后才可以回帖 登录 | 立即注册

本版积分规则

手机版|小黑屋|有问题发邮件到admin#(换成@)hd1tj.org|微博|免责申明|HD一条街

GMT+8, 2016-12-5 02:23

Powered by Discuz! X3.1

© 2001-2013 Comsenz Inc.

快速回复 返回顶部 返回列表