开启辅助访问 切换到窄版

HD一条街论坛

 找回密码
 立即注册
查看: 315|回复: 2

[欧美] 纪录片:安全的杀死他们 Killing.Them.Safely.2015.DOCU.720p.WEB-DL.DD5.1.H264-FGT 2.94G

[复制链接]
发表于 2016-2-13 15:05:28 | 显示全部楼层 |阅读模式
fa6fe3c6d51dd4e2ee074c3d971c1b428e064547.jpg . D& z$ {' i* z. f  b

4 j7 E/ ?+ A$ s6 K  ~* _/ q8 e  @1 s7 D4 O. a. z- y
◎译  名 安全杀了他们/KillingThemSafely( u! i- T2 [! V3 |( ~: \/ m
◎片  名 Tom Swift and His Electric Rifle
6 n- M( F  S2 g◎年  代 2015
: ]$ ^  }; m9 }$ v◎国  家 美国
2 d2 K. l7 C6 Y◎语  言 英语& a# }" V2 X2 j6 j% @! g' h
◎上映日期 2015-11-27) i7 Q+ V& P0 l( r
◎豆瓣评分 0/10 from 0 users
) D/ ]) L  u; {$ H/ I4 |% _* F6 P◎豆瓣链接 http://movie.douban.com/subject/26678778/  t! W+ C  h1 x5 ?* Q" m% \. W* W
◎片  长 1007 B* |% C! W6 E0 A7 b3 M: W0 r
◎导  演 Nick Berardini6 Q) `1 D' V/ ?2 h9 B
* j: b% C" V1 c4 r/ a; Z8 i: u0 @
◎简  介
4 S5 C/ i& ?/ j! E# y% g4 J8 q6 \( V/ N# o; g% O
  Hundreds of deaths. Zero oversight. In the early 2000s, brothers Tom and Rick Smith revolutionized policing by marketing the Taser to law enforcement agencies. This supposedly safe alternative to handguns was supposed to curb the use of deadly force—so why have over 500 people died from Taser-related injuries since? At a time when questions about police methods are at the forefront of the national dialogue, Killing Them Safely brings together startling archival footage and eye-opening interviews with experts on both sides of the debate to shed much-needed light on an urgent issue.
  1. Video
    # I+ W: w# g, t. @5 y6 P) M! m
  2. ID                                       : 11 s% t8 G# p" h7 b+ C2 n; b
  3. Format                                   : AVC
    6 a) n; u  w; s
  4. Format/Info                              : Advanced Video Codec' a# r! s  e$ c
  5. Format profile                           : [email protected]
    7 M0 b: X# o! ^0 l# r5 X- W6 v
  6. Format settings, CABAC                   : Yes
    ' @6 Y7 Q% t7 ?+ Q! Z- f. X/ d
  7. Format settings, ReFrames                : 2 frames
    , C+ I9 |  r$ ?; A) u$ m2 R
  8. Codec ID                                 : V_MPEG4/ISO/AVC2 F9 i) @4 b2 U$ d
  9. Duration                                 : 1h 35mn
    # q7 ], D- ?6 e% i/ \' z1 U  G$ F
  10. Bit rate mode                            : Variable
    4 A( E- o$ D1 n1 L3 e  G+ l% \% _7 Y
  11. Bit rate                                 : 3 964 Kbps
    ) {! U6 ?1 C0 G4 M0 S' ~! F& @, h
  12. Maximum bit rate                         : 768 Kbps% `" P1 N" |  e0 }5 E) ^
  13. Width                                    : 1 280 pixels1 ^* N& h* `9 }) u/ n6 e
  14. Height                                   : 720 pixels
    : n" A6 b# }. \
  15. Display aspect ratio                     : 16:90 C1 o3 s2 m. H' C% R& O2 S
  16. Frame rate mode                          : Constant; U3 q7 F1 k& z  w/ P* R- U4 z
  17. Frame rate                               : 23.976 (24000/1001) fps
    ) j) e! }7 J: L* u
  18. Original frame rate                      : 25.000 fps# i' p7 j1 D/ \* `
  19. Color space                              : YUV8 {& u* n% P. |/ m/ z; p4 M
  20. Chroma subsampling                       : 4:2:0
    5 d% `/ h! X- F9 o, L, X$ Q
  21. Bit depth                                : 8 bits
    : k: ~3 R1 j. o0 E( }% }
  22. Scan type                                : Progressive; d! O  `) C+ @5 U
  23. Bits/(Pixel*Frame)                       : 0.179
    & ^/ k# i7 w3 V! @6 x9 H: J
  24. Stream size                              : 2.63 GiB (89%)
    * \- z1 [1 ?9 }$ m: h
  25. Title                                    : Killing.Them.Safely.2015.DOCU.720p.WEB-DL.DD5.1.H264-FGT8 }4 N1 j. R0 [# p! b+ P9 M1 x
  26. Language                                 : English
    ; S- ~! U7 P% h. W- h
  27. Default                                  : Yes
    1 K/ I% G3 `6 j- [  {
  28. Forced                                   : No
    0 m/ d' J. a; g$ s

  29. 8 l2 E% V8 O' e( l" M
  30. Audio
    $ N' _, e' C: O! O  ~+ V$ W
  31. ID                                       : 2  y( y. w9 z4 ~: U& e
  32. Format                                   : AC-3
    ; o8 n1 g3 ^2 F  [- X- |* V
  33. Format/Info                              : Audio Coding 3) y0 ]8 B7 S2 h
  34. Mode extension                           : CM (complete main)
    0 V4 \% J2 @+ S. p8 f# l- `& R
  35. Format settings, Endianness              : Big
    $ Z. N7 U: ]1 r& f, X  Y, [
  36. Codec ID                                 : A_AC3
    : ^  t: N9 @# L! ~% G- b
  37. Duration                                 : 1h 35mn0 j. g0 V/ P+ ^
  38. Bit rate mode                            : Constant
    7 B9 d; B& X/ {7 V) W) \) N
  39. Bit rate                                 : 384 Kbps
    9 `1 M( e6 d- m5 U5 Z
  40. Channel(s)                               : 6 channels1 ~/ [5 l+ R* z
  41. Channel positions                        : Front: L C R, Side: L R, LFE
    # R" Z4 I# [5 o
  42. Sampling rate                            : 48.0 KHz* T8 V4 Z' a( e; g( I9 b! l; d
  43. Frame rate                               : 31.250 fps (1536 spf)
    9 y( F  s! R0 o; h4 T( C
  44. Compression mode                         : Lossy. |( e% V; N& M5 K+ [$ g
  45. Stream size                              : 261 MiB (9%)
    9 u3 I* @" y2 {. Z$ f! Z& l; L$ C
  46. Title                                    : Killing.Them.Safely.2015.DOCU.720p.WEB-DL.DD5.1.H264-FGT
    ) Y- h: J5 z$ |  p8 n: M
  47. Language                                 : English* V* @: V' M/ c
  48. Default                                  : Yes  V. m" _( w/ S& R. |
  49. Forced                                   : No
    9 M4 ?. b$ g, G9 H* \
  50. 4 q1 K" {5 k) p2 b1 G3 w
  51. Text
    , n9 K! L* T% l/ T
  52. ID                                       : 32 z; u% t& z, i2 w/ U2 ~
  53. Format                                   : UTF-8
    - _$ @2 e( D( d7 r% f
  54. Codec ID                                 : S_TEXT/UTF8
    / z" D% X) w7 h/ }
  55. Codec ID/Info                            : UTF-8 Plain Text
    0 Z* d- K3 k9 |, l2 }
  56. Language                                 : English
    / L: g: s/ ?: @; D7 y5 E- N
  57. Default                                  : No
    9 F2 R$ C* l2 V
  58. Forced                                   : No/ n1 R% e9 I0 }6 z

  59. & P; ]: S% z9 R" X3 C
  60. Menu
    ' q. g: o4 ~% N* E* u
  61. 00:00:00.000                             : en:1) ?/ _0 `& q1 v
  62. 00:10:05.000                             : en:23 x/ _5 t; e* H5 {7 E+ r! f
  63. 00:23:16.000                             : en:3
    : u0 O, J* p1 n" s4 Q- `6 b
  64. 00:33:38.000                             : en:4. {) E1 ]4 m# Z/ m8 K3 G' b
  65. 00:43:55.000                             : en:55 |, h& H5 ~) {9 l5 t) C) ?0 Z% D
  66. 00:50:58.000                             : en:6
    / v- R4 y9 |. C8 S5 x- G
  67. 01:02:09.000                             : en:75 e! I: P& O8 `0 D2 s' A' I% ?' A
  68. 01:12:52.000                             : en:8
    # t; [5 s( r; b
  69. 01:22:45.000                             : en:9
    & v" e" O# z6 L& ]' _+ M
  70. 01:31:31.000                             : en:10
复制代码
& ^: k- ?$ t# k% ^; X$ `

* V+ a$ d# v8 V* Z, T" W# S1 @9 W* q! M/ P6 @
4 p; {5 U, w7 I$ M" q8 z2 U

1 V, \. `' Q: X" E: ?; r8 L+ b" I% K$ I4 I' c* h# \* |
7 `6 v% C4 I6 `; H; O& G) K
' [; z+ g- C- s8 W( _

) R+ k. q0 j  B2 e0 n# L: Y9 u$ a
游客,如果您要查看本帖隐藏内容请回复  捐助论坛可免回复查看隐藏内容详情请点击
最近访问 头像模式 列表模式
HD一条街,身边的一条街。
发表于 2016-2-14 15:15:54 | 显示全部楼层
多谢版主!支持hd1tj!
HD一条街,身边的一条街。
您需要登录后才可以回帖 登录 | 立即注册

本版积分规则

手机版|小黑屋|有问题发邮件到admin#(换成@)hd1tj.org|微博|免责申明|HD一条街

GMT+8, 2016-12-8 08:10

Powered by Discuz! X3.1

© 2001-2013 Comsenz Inc.

快速回复 返回顶部 返回列表