开启辅助访问 切换到窄版

HD一条街论坛

 找回密码
 立即注册
查看: 368|回复: 35

[国产] 舌尖上的新年/舌尖上的中国大电影 [普通话/内嵌简体中文字幕] A.Bite.of.China:Celebrating.the.Chinese.New.Year. 2015.WEB-DL.1080p.x264.AAC-HQC 0.92 GiB

[复制链接]
发表于 2016-1-17 19:00:09 | 显示全部楼层 |阅读模式

2 }8 K/ Y# e) T. g8 H, p& D                               
登录/注册后可看大图

  \5 u" ?& i0 h8 B6 K( {& _2 j+ R! H# X1 l" w  C% u# k
◎译  名 舌尖上的新年/舌尖上的中国大电影
: v' D+ q) k& H) _◎片  名 A Bite of China: Celebrating the Chinese New Year% e6 I$ A5 o( t; m
◎年  代 2015
/ A3 e! ]& H4 r; Q5 T0 S* }* u3 y◎国  家 中国1 E' j- z* ^8 t" E
◎类  别 纪录
* I# t$ l0 ]$ x# m- H◎语  言 普通话- \4 r" U* |% C, d; N2 J" T
◎字  幕 简体中文
# u# A' s' x8 \5 \# y2 r3 c% V( m◎IMDb评分 N/A9 I4 ^( l# Q1 e% R  I4 B
◎IMDB链接 N/A( B' |  G# s" M5 L5 B
◎文件格式 x264 + AAC
  S  \3 Y# N" y% E& Q1 X0 F◎视频尺寸 1920 x 824
& S5 b* o. E; x: h' D◎文件大小 1CD 0.92 GiB6 n) G8 y( p9 @9 m1 |, I
◎片  长 1h 28mn
( S8 P! K% _; E& b) H0 L( ?◎导  演 陈磊 Chen Lei: y9 g# T& f( |. R1 [8 r' E, q# h
      邓洁 Jie Deng( O* \% u" A3 C7 O% h2 d9 s, q
      李勇 Yong Li
0 S- {: p+ Z2 j9 E6 @◎主  演 李立宏 Lihong Li
! X, P% a, r( \) f- I. _0 O  D* G: E0 p. E, I

, f  G4 q, n/ e5 z" _0 f+ K6 ?3 G0 \6 W# S

; b& ^9 Q3 l) J% [! V" L8 o◎简  介+ Q# E# b4 W/ g8 s# F* O  }% r8 v

$ \9 J! Y* S' A/ E% n0 w/ b: K8 i  这是一部关于“重回时间”、“寻找年味儿”的电影,将透过中国广袤大地上奇绝的年货食物,串接一个个新年故事,展示东方的文化习俗,用鲜活的镜头语言保存一部民族生活史和文化档案,带观众重寻旧日的习俗和年味儿。
  1. General
    8 [6 M1 L8 G# w6 k' n5 j  X2 t4 {
  2. Unique ID                      : 230467754361991175143698875670852748067 (0xAD62799548B8937CB4B599A9DE934323)3 v- ^0 \8 d( _
  3. Complete name                  : E:\迅雷下载\舌尖上的新年.A.Bite.of.China:Celebrating.the.Chinese.New.Year.2015.WEB-DL.1080p.x264.AAC-HQC.mkv.bt.td
    . d. i# n( p, E
  4. Format                         : Matroska
    . t6 a) u6 x; [. y" D  t
  5. Format version                 : Version 4 / Version 2& `3 D6 w+ a0 E8 N4 Y8 h
  6. File size                      : 920 MiB$ M0 G* V& t' k: Y2 N. S
  7. Duration                       : 1h 28mn
    / C7 J8 I8 C0 ?8 B- I9 I6 a% j
  8. Overall bit rate               : 1 452 Kbps
    ' l( b- A( @  M# m4 d
  9. Encoded date                   : UTC 2016-01-16 11:44:10; j; E7 P$ K" f7 u
  10. Writing application            : mkvmerge v8.3.0 ('Over the Horizon') 64bit
    % z7 k. j1 {# x* @" Q; u/ G$ x
  11. Writing library                : libebml v1.3.1 + libmatroska v1.4.2
    0 p2 d) m( [9 [0 E
  12. : J8 e! C5 u( c* y: J  W
  13. Video, Z: q  x5 e: s( g& Q
  14. ID                             : 1
    ) w- Z1 C7 |$ l  w/ h; }: o
  15. Format                         : AVC; `# |/ q6 S3 ]- y; k
  16. Format/Info                    : Advanced Video Codec
    ! e5 p' U" o8 u! X" x
  17. Format profile                 : [email protected]. K* {- j% F; P( i
  18. Format settings, CABAC         : Yes
    ; Z1 Q5 D  K. h1 c# {! G- t# ]  U
  19. Format settings, ReFrames      : 3 frames
    + V* Z. N, K- A5 [& n  v) j
  20. Codec ID                       : V_MPEG4/ISO/AVC# V, t+ X( `$ T6 |
  21. Duration                       : 1h 28mn. A) a( G$ q" o
  22. Bit rate                       : 1 385 Kbps
    $ p, h- m6 R0 P
  23. Width                          : 1 920 pixels) ~( K7 c4 e. U3 }
  24. Height                         : 824 pixels
    * ?$ G7 E0 W+ i5 M3 h
  25. Display aspect ratio           : 2.35:17 O% g$ {- v0 w4 Z3 s) V
  26. Frame rate mode                : Variable
    3 z5 H9 V2 h) {, a
  27. Frame rate                     : 24.000 fps8 S! m0 D+ v. c9 H3 _
  28. Color space                    : YUV) Z+ i! y( U( w; |; G
  29. Chroma subsampling             : 4:2:0
    6 l8 t* e4 \0 X& u
  30. Bit depth                      : 8 bits5 I: S8 S) [, u
  31. Scan type                      : Progressive/ x) R7 o- N1 c
  32. Bits/(Pixel*Frame)             : 0.036
    ! J  H$ b( C0 x" a$ K7 ]. B7 p
  33. Stream size                    : 878 MiB (95%)
      v( H/ j# c; e- j( [+ b: V
  34. Writing library                : qiyi.com vtc-test' }# |1 H( |! r& g) a
  35. Default                        : Yes# _, Y3 [9 p% ]6 a
  36. Forced                         : No
    2 \: `0 d" e' B- g& u& I
  37. Color range                    : Limited: V6 y1 E. ~. M% w9 O
  38. Color primaries                : BT.709" y# h$ \' D$ @1 {. p
  39. Transfer characteristics       : BT.709; n9 Q5 t8 y& o- n+ h/ n
  40. Matrix coefficients            : BT.709+ @9 P  ~. u5 O5 {4 c/ F
  41. ' s0 x! f& w; }( a
  42. Audio
    2 N6 l# N$ L5 a7 \
  43. ID                             : 2
    ! n& _3 V" @4 f9 S3 ?- Q4 o
  44. Format                         : AAC/ @; l+ C* v7 u9 L1 ?8 `  p3 c
  45. Format/Info                    : Advanced Audio Codec
    5 u; t+ q& g7 H+ u( j% g, I, C
  46. Format profile                 : HE-AAC / LC
    9 d; R$ N1 F8 U0 u) q9 Z* ^
  47. Codec ID                       : A_AAC' H( G9 ^3 ^0 X% O2 r% A) k
  48. Duration                       : 1h 28mn0 n, u( W8 _/ ^$ B6 V* Z; }8 o( M3 V
  49. Bit rate                       : 64.0 Kbps2 a4 M4 f5 F' h( f* Z; @: P& m
  50. Channel(s)                     : 2 channels
    + j( n* h: D. Y7 {
  51. Channel positions              : Front: L R
    - U4 k' {/ x8 O; l7 R! h% J' W
  52. Sampling rate                  : 44.1 KHz / 22.05 KHz
    4 H* h2 o* X2 v4 `
  53. Frame rate                     : 21.533 fps (1024 spf)  @" M$ e- ^) g0 h! {* n
  54. Compression mode               : Lossy
    + m* A4 O. F7 C+ C' }
  55. Stream size                    : 40.6 MiB (4%)
    / [, a, {" |% O. Y& W- E  _9 `- U
  56. Default                        : Yes
    * a7 Z! F8 Z* J* C4 t3 J! R! V
  57. Forced                         : No
    : v! Z) l, O' z2 e+ \

  58. 3 n$ d' k! V3 E: K6 b" F
复制代码
3 }9 j6 m5 Z0 u

, f5 R, k7 T6 e( H9 \" T                               
登录/注册后可看大图

, N0 p& |1 o: m3 z

4 V7 G3 M# o+ e2 R7 l                               
登录/注册后可看大图

4 d. q. e. a: j  q
" f3 X; v8 j8 L
( |. w. o& P  N+ ~9 ~
                               
登录/注册后可看大图
) o8 w" d3 u" T$ D8 m8 x1 Y7 f8 k
+ j) R9 x; _9 @4 J0 u' j
/ k$ B, J& M# i2 x8 M& A
                               
登录/注册后可看大图
% w  Y  l6 j. s) x4 a. _) Y
0 R0 d& P0 y0 w# ~9 E, b
游客,如果您要查看本帖隐藏内容请回复  捐助论坛可免回复查看隐藏内容详情请点击
最近访问 头像模式 列表模式
HD一条街,身边的一条街。
往事 该用户已被删除
发表于 2016-1-17 19:03:53 | 显示全部楼层
提示: 作者被禁止或删除 内容自动屏蔽
HD一条街,身边的一条街。
发表于 2016-1-17 19:24:21 | 显示全部楼层
这个先行版和正式应该没多大区别,收下了,感谢分享。
HD一条街,身边的一条街。
发表于 2016-1-17 19:43:53 | 显示全部楼层
感谢楼主分享
HD一条街,身边的一条街。
发表于 2016-1-17 20:21:11 | 显示全部楼层
介紹吃的? 感謝樓主分享
HD一条街,身边的一条街。
发表于 2016-1-17 20:25:17 | 显示全部楼层
这必须要下载的啊
HD一条街,身边的一条街。
发表于 2016-1-17 20:37:31 | 显示全部楼层
这个好呀,我喜欢
HD一条街,身边的一条街。
头像被屏蔽
发表于 2016-1-17 20:51:29 | 显示全部楼层
提示: 作者被禁止或删除 内容自动屏蔽
HD一条街,身边的一条街。
您需要登录后才可以回帖 登录 | 立即注册

本版积分规则

手机版|小黑屋|有问题发邮件到admin#(换成@)hd1tj.org|微博|免责申明|HD一条街

GMT+8, 2016-12-9 11:53

Powered by Discuz! X3.1

© 2001-2013 Comsenz Inc.

快速回复 返回顶部 返回列表