开启辅助访问 切换到窄版

HD一条街论坛

 找回密码
 加入我们
查看: 450|回复: 36

[国产] 舌尖上的新年/舌尖上的中国大电影 [普通话/内嵌简体中文字幕] A.Bite.of.China:Celebrating.the.Chinese.New.Year. 2015.WEB-DL.1080p.x264.AAC-HQC 0.92 GiB

[复制链接]
发表于 2016-1-17 19:00:09 | 显示全部楼层 |阅读模式
& ~3 H/ G) V7 M' O
                               
登录/注册后可看大图

! w* k* e7 P7 G2 ]- E* m
% a% J  U; s. [0 R. k; ]; w◎译  名 舌尖上的新年/舌尖上的中国大电影% W' J! z) V$ g8 |0 C" V
◎片  名 A Bite of China: Celebrating the Chinese New Year
, V3 ^9 f/ m3 \/ [! ]2 A3 j1 h◎年  代 20151 W+ b2 _) S# ~& w' R2 k  B
◎国  家 中国" o9 e# |$ m, H3 S! Y+ r7 q
◎类  别 纪录( g& H8 G3 Q- o" `* r/ E
◎语  言 普通话' H& \) a  K- f) w! s% A
◎字  幕 简体中文* T7 r( c, D, l3 @  E/ N- W
◎IMDb评分 N/A& \$ r( I% L% U3 K9 ~8 i2 k
◎IMDB链接 N/A
" P; M- \* @4 y. u( Y◎文件格式 x264 + AAC
( M2 T' p5 D% L% V0 V◎视频尺寸 1920 x 824
* [3 d$ r. `9 T1 T0 `$ F◎文件大小 1CD 0.92 GiB) `% j; Y  }; f7 K
◎片  长 1h 28mn. ^  y6 K6 x0 v  I
◎导  演 陈磊 Chen Lei: ]& ?. F, v+ T! }4 g
      邓洁 Jie Deng$ t  H1 R+ r' C) e6 f+ H
      李勇 Yong Li
/ [; A: m5 f) _  J9 `◎主  演 李立宏 Lihong Li
0 h, {5 n" p8 j# A
0 U3 S7 D& I3 R/ H' \( M9 ]& \$ G+ {9 R7 L9 m& r
: Z- ~0 p; O+ ~% ]6 ~
0 \9 P- F& Y7 Y/ R& Q4 Q8 R- d& M
◎简  介
! T! b" w3 l8 n. n3 [
0 Q& t- R2 W9 h" q; ~& a, C' i7 R  这是一部关于“重回时间”、“寻找年味儿”的电影,将透过中国广袤大地上奇绝的年货食物,串接一个个新年故事,展示东方的文化习俗,用鲜活的镜头语言保存一部民族生活史和文化档案,带观众重寻旧日的习俗和年味儿。
  1. General" y0 u  L' S# U2 _4 Y0 j
  2. Unique ID                      : 230467754361991175143698875670852748067 (0xAD62799548B8937CB4B599A9DE934323)
    $ V! p( K4 N' Q! y3 c" @
  3. Complete name                  : E:\迅雷下载\舌尖上的新年.A.Bite.of.China:Celebrating.the.Chinese.New.Year.2015.WEB-DL.1080p.x264.AAC-HQC.mkv.bt.td* H$ w( g- ?' I  \2 F
  4. Format                         : Matroska
    ( [; p4 g- @& ~. L
  5. Format version                 : Version 4 / Version 2
    5 d, O6 w3 H% P4 G- n0 T0 x  w! M3 W
  6. File size                      : 920 MiB' o2 Z. h) H5 w( ^& V: s
  7. Duration                       : 1h 28mn! h0 S) `% O: [- M, n  u
  8. Overall bit rate               : 1 452 Kbps9 \  e' e$ H% k. K) G
  9. Encoded date                   : UTC 2016-01-16 11:44:10
    5 ^: ^1 w3 q; }: `4 K
  10. Writing application            : mkvmerge v8.3.0 ('Over the Horizon') 64bit
    % t7 J4 O8 g6 R; r" F
  11. Writing library                : libebml v1.3.1 + libmatroska v1.4.2, {5 Z+ {4 p9 C

  12. ( W7 W$ C8 |$ a, T* m5 l
  13. Video% p" b1 ]3 X2 ~" }1 H$ h: ]2 d& A5 d6 [
  14. ID                             : 1' z. ?3 X, a' G4 h
  15. Format                         : AVC
    $ ^  \- D9 a# t$ w1 T
  16. Format/Info                    : Advanced Video Codec' K8 C- T' Y" V6 J1 u
  17. Format profile                 : High@L4
    # H6 r) e$ h8 h& R8 }- P, f( k
  18. Format settings, CABAC         : Yes
    1 }7 @* J: q5 B7 K7 {* @/ i$ t
  19. Format settings, ReFrames      : 3 frames+ J7 W! [) }+ b# r' E6 m  d
  20. Codec ID                       : V_MPEG4/ISO/AVC
    + J& ~0 c0 l5 B9 c$ W9 i
  21. Duration                       : 1h 28mn1 |9 o  N6 W! \7 N
  22. Bit rate                       : 1 385 Kbps- s, E9 g& g+ }8 y/ m; N4 ?
  23. Width                          : 1 920 pixels" S6 {* k' P9 m5 D
  24. Height                         : 824 pixels  F! c8 J8 a% a9 {" D: u
  25. Display aspect ratio           : 2.35:1
      K" K; M  z- P4 T% Q
  26. Frame rate mode                : Variable
    4 t( U- h7 `% e2 b$ }
  27. Frame rate                     : 24.000 fps
    1 l! S) f) J0 K$ ~7 A/ w( Q0 T
  28. Color space                    : YUV: D. P" t7 t5 a. G. q9 C
  29. Chroma subsampling             : 4:2:0. r* z3 _  x$ ^, r6 n
  30. Bit depth                      : 8 bits4 K$ G5 c* ^4 v& x$ m2 W( |
  31. Scan type                      : Progressive
    5 `; D6 E$ [8 Z$ w% T4 i) @/ _
  32. Bits/(Pixel*Frame)             : 0.036
    + Q; z1 D) d- ]. Z; }
  33. Stream size                    : 878 MiB (95%)
    : ^# G* r! ~* R( b$ H! n0 L* D
  34. Writing library                : qiyi.com vtc-test
    % e, a/ d. `) F* G" _  q2 C
  35. Default                        : Yes) `$ J& K; @& b" k: o
  36. Forced                         : No
    + J' G! p: _7 V/ ~( Z
  37. Color range                    : Limited
    : j9 X$ x6 p8 B3 i
  38. Color primaries                : BT.7096 M. Z; X" u6 u" _2 Q8 X$ K
  39. Transfer characteristics       : BT.7091 e7 v2 H# X7 a1 \
  40. Matrix coefficients            : BT.709
    9 n- u' D8 u, `9 Q
  41. - h- W0 u8 Z7 L, j. S: @
  42. Audio* B! ^( E+ l0 N3 {% f
  43. ID                             : 2
    & w& `. g; m, c  l
  44. Format                         : AAC
    0 u) @- S' M# i; ^. b( e9 _- j
  45. Format/Info                    : Advanced Audio Codec* R4 w7 R7 R* N5 w# e( ]* i
  46. Format profile                 : HE-AAC / LC
    7 F& A9 _/ V' D" [
  47. Codec ID                       : A_AAC+ G# l/ s% a8 n3 ?0 ^4 B7 Z* J# o
  48. Duration                       : 1h 28mn4 S* h9 A2 B/ D4 S$ Q% G
  49. Bit rate                       : 64.0 Kbps
    ' ?* k4 c& y0 n" t' l
  50. Channel(s)                     : 2 channels- |; ~. j0 {% a; J
  51. Channel positions              : Front: L R/ I/ [5 m9 k$ @0 J' F( l
  52. Sampling rate                  : 44.1 KHz / 22.05 KHz/ M- c' @' L! h
  53. Frame rate                     : 21.533 fps (1024 spf)) G( e) V! G8 v$ S5 R% J: O0 A
  54. Compression mode               : Lossy, X5 L0 B; @2 M( ^" K: g
  55. Stream size                    : 40.6 MiB (4%)
    0 m. x9 {" B% a. V5 V
  56. Default                        : Yes
    , s. L! _. p1 J7 L% u. y
  57. Forced                         : No! W- X0 y: s4 L  T% L+ x8 b

  58. 2 n2 E  X+ O: r6 Y9 K1 A
复制代码
$ b+ ]! f3 c# f" Z& r$ b

1 c. u* b* X$ S; Z( d                               
登录/注册后可看大图

0 K; a' ]3 C2 Q7 A
  P5 }/ g6 Y- i
                               
登录/注册后可看大图

2 ?5 K# j8 l# h" J! [! b; G5 n9 T! T( A. `# [1 c" r
# l; R  D' S; H7 w% d$ Q
                               
登录/注册后可看大图

4 X7 R2 Z3 Y, x9 L$ K' G" X" O( _  X1 C+ O8 ]0 M1 Y

+ O4 d* V& R; o                               
登录/注册后可看大图

0 L, B5 h  N2 F* X. G
, w8 [4 C% ?7 f0 B* \% z
游客,如果您要查看本帖隐藏内容请回复  捐助论坛可免回复查看隐藏内容 详情请点击
最近访问 头像模式 列表模式
HD一条街,身边的一条街。
往事 该用户已被删除
发表于 2016-1-17 19:03:53 | 显示全部楼层
提示: 作者被禁止或删除 内容自动屏蔽
HD一条街,身边的一条街。
发表于 2016-1-17 19:24:21 | 显示全部楼层
这个先行版和正式应该没多大区别,收下了,感谢分享。
HD一条街,身边的一条街。
发表于 2016-1-17 19:43:53 | 显示全部楼层
感谢楼主分享
HD一条街,身边的一条街。
发表于 2016-1-17 20:21:11 | 显示全部楼层
介紹吃的? 感謝樓主分享
HD一条街,身边的一条街。
发表于 2016-1-17 20:25:17 | 显示全部楼层
这必须要下载的啊
HD一条街,身边的一条街。
发表于 2016-1-17 20:37:31 | 显示全部楼层
这个好呀,我喜欢
HD一条街,身边的一条街。
头像被屏蔽
发表于 2016-1-17 20:51:29 | 显示全部楼层
提示: 作者被禁止或删除 内容自动屏蔽
HD一条街,身边的一条街。
您需要登录后才可以回帖 登录 | 加入我们

本版积分规则

手机版|小黑屋|有问题发邮件到admin#(换成@)hd1tj.org|微博|免责申明|HD一条街

GMT+8, 2017-2-21 22:16

Powered by Discuz! X3.1

© 2001-2013 Comsenz Inc.

快速回复 返回顶部 返回列表