开启辅助访问 切换到窄版

HD一条街论坛

 找回密码
 加入我们
查看: 455|回复: 36

[国产] 舌尖上的新年/舌尖上的中国大电影 [普通话/内嵌简体中文字幕] A.Bite.of.China:Celebrating.the.Chinese.New.Year. 2015.WEB-DL.1080p.x264.AAC-HQC 0.92 GiB

[复制链接]
发表于 2016-1-17 19:00:09 | 显示全部楼层 |阅读模式
/ T* X' u# k  \) T* f" N! \
                               
登录/注册后可看大图
) Y2 Q$ y: w" d% o2 m- v
6 G% \* z) h2 h
◎译  名 舌尖上的新年/舌尖上的中国大电影7 `; ^8 x: N- q- u% `& I
◎片  名 A Bite of China: Celebrating the Chinese New Year  J' a0 F2 I9 D5 _) {7 \
◎年  代 2015) j: I0 [( t" p
◎国  家 中国
6 W! G' h' G0 B/ H# z8 T◎类  别 纪录0 H6 E3 c( H/ ^* q  x" |1 m
◎语  言 普通话, S# F8 W. G' T1 E' x
◎字  幕 简体中文
! u; R3 k- Q6 L+ ~  g3 }5 c& X◎IMDb评分 N/A
: s, P! B2 T/ \, w◎IMDB链接 N/A5 J9 r6 d" x6 S
◎文件格式 x264 + AAC
' m# b; A& x; N# D% F. g◎视频尺寸 1920 x 824; q9 l& A; n- e
◎文件大小 1CD 0.92 GiB
/ r7 D' N" W; o/ A3 q1 w◎片  长 1h 28mn
  R, Z4 O: H# @1 b◎导  演 陈磊 Chen Lei+ v! E% |6 ^# |
      邓洁 Jie Deng
7 F8 r/ T% ~: k! H      李勇 Yong Li
; }& p& A/ x, `. w1 N◎主  演 李立宏 Lihong Li
$ t6 [2 \" G5 I' [# w1 V1 p* U) f& D# D- z1 B- z# c
5 J6 E: Z) e/ g
1 i0 F; J! {: Q3 _& w- V+ S

$ Z* y* a' O$ J; c+ Q- W◎简  介
. d+ S7 `0 c8 t. n, F; R9 L2 o: L& \2 ?3 D2 w
  这是一部关于“重回时间”、“寻找年味儿”的电影,将透过中国广袤大地上奇绝的年货食物,串接一个个新年故事,展示东方的文化习俗,用鲜活的镜头语言保存一部民族生活史和文化档案,带观众重寻旧日的习俗和年味儿。
  1. General
    , |9 e6 {; t1 n7 V0 T$ V$ k1 x
  2. Unique ID                      : 230467754361991175143698875670852748067 (0xAD62799548B8937CB4B599A9DE934323)- V. _; s  E9 z& |$ v- b. O/ E/ X
  3. Complete name                  : E:\迅雷下载\舌尖上的新年.A.Bite.of.China:Celebrating.the.Chinese.New.Year.2015.WEB-DL.1080p.x264.AAC-HQC.mkv.bt.td
    ; C! b( V9 e$ f! z
  4. Format                         : Matroska+ ^5 I0 M- Z- X- R6 u. _1 |
  5. Format version                 : Version 4 / Version 2
    ! M- @6 O6 E- J2 o6 J
  6. File size                      : 920 MiB
    ; e& E+ ^+ s& K4 u0 f& V% g
  7. Duration                       : 1h 28mn- x; `1 t* l& q; j* u9 X
  8. Overall bit rate               : 1 452 Kbps
    3 G, c  a! U. h% @# ~3 V0 |5 c9 ^9 n
  9. Encoded date                   : UTC 2016-01-16 11:44:10
    # L% B7 Q5 Q# F5 S  {! p
  10. Writing application            : mkvmerge v8.3.0 ('Over the Horizon') 64bit
    2 ?8 \$ w5 ^4 C9 n, q. d0 n# r9 S; Y
  11. Writing library                : libebml v1.3.1 + libmatroska v1.4.2
    7 s- B) d- ?7 u$ d/ C

  12. 2 h3 K, t4 i; _+ F% ]6 e2 O; m
  13. Video' y) l6 T6 G$ \7 N
  14. ID                             : 1
    ! |9 u8 q$ u8 K0 ?0 d3 N% m$ ?! r
  15. Format                         : AVC
    $ R1 {  i1 K  }( b/ h6 h/ r
  16. Format/Info                    : Advanced Video Codec
    ) i& Y% G' ^* {, K) R8 U) X
  17. Format profile                 : [email protected]
    ) |! N4 M; {' `9 [& A! ?8 l: @
  18. Format settings, CABAC         : Yes
      D+ P0 U% e2 [5 ]9 {7 P
  19. Format settings, ReFrames      : 3 frames
    $ f5 d/ R+ l0 d! d6 A
  20. Codec ID                       : V_MPEG4/ISO/AVC4 J% x+ w2 W! m; F+ o! [! K, U
  21. Duration                       : 1h 28mn
    + [  L$ d5 [. Y8 K" c
  22. Bit rate                       : 1 385 Kbps
    & }, Y& e/ k: {9 D9 v) d* K1 I
  23. Width                          : 1 920 pixels
    9 w+ R2 N# @6 G* ^& }+ V
  24. Height                         : 824 pixels
    ; H9 ^2 w. Q% I- B' W
  25. Display aspect ratio           : 2.35:1) b) w, R6 y) A; ^' }4 c6 {
  26. Frame rate mode                : Variable# [  u% J7 [/ Y+ x
  27. Frame rate                     : 24.000 fps/ ?& L( o* _1 H+ B0 @5 C
  28. Color space                    : YUV
    * i; e% M+ N; o( B* M6 ?1 O5 o
  29. Chroma subsampling             : 4:2:0
    0 r# {& B; R+ s4 H
  30. Bit depth                      : 8 bits: J" f# o2 y8 A/ j
  31. Scan type                      : Progressive
    , i1 b# T% X- B! R; D: r
  32. Bits/(Pixel*Frame)             : 0.036
    1 c: Y- q! `, |! y2 O
  33. Stream size                    : 878 MiB (95%); X" B3 R  P% G& C5 i! U; v$ }
  34. Writing library                : qiyi.com vtc-test
    , f" t, A; [: \! ~+ w* [
  35. Default                        : Yes+ @+ ~! g! ]  v4 g+ m! l+ f
  36. Forced                         : No- _# N+ ]/ W7 F) Z
  37. Color range                    : Limited, A  l& Z& s! n) G
  38. Color primaries                : BT.709
    4 O" l& g7 b# ?* X1 @
  39. Transfer characteristics       : BT.709
    " H. D- h! \9 y  W' N( j$ l
  40. Matrix coefficients            : BT.709+ d7 G, G( {* x4 [4 L: R1 ?
  41. ! Z: L+ u3 H* ^, O. [% q+ v7 J+ N
  42. Audio- v: K9 h+ E  r$ H
  43. ID                             : 2; ?( S. z3 Y9 Q8 [
  44. Format                         : AAC# B: n# S6 s( k! t; j3 A
  45. Format/Info                    : Advanced Audio Codec
    9 e* N) K1 }. S4 E
  46. Format profile                 : HE-AAC / LC
    # ?$ M9 m0 \4 U6 V- }
  47. Codec ID                       : A_AAC
    ( U+ |" [9 X) _" L0 j
  48. Duration                       : 1h 28mn- ?  b* G  u' ^
  49. Bit rate                       : 64.0 Kbps
    - I1 l! W; `) F3 J
  50. Channel(s)                     : 2 channels
    ; ?* G7 m1 {0 ~2 r5 g6 @' g
  51. Channel positions              : Front: L R5 H! J7 L5 c- |
  52. Sampling rate                  : 44.1 KHz / 22.05 KHz
    ' ?8 o& @7 O& R' K7 _7 a
  53. Frame rate                     : 21.533 fps (1024 spf)
    # [5 S1 A/ g5 f- Z9 ^- j
  54. Compression mode               : Lossy0 H5 X0 y  T+ o- b; Z
  55. Stream size                    : 40.6 MiB (4%)
    / v' ?2 I# C5 y$ p7 j% T2 b0 ~
  56. Default                        : Yes7 t# u2 A+ A' a5 T; Q! P
  57. Forced                         : No
    ) P& h  Y9 G$ J# _

  58. # t6 ~% R) T: D1 R+ ]  p/ i# z3 L$ {, P. ~
复制代码
* G3 G( M* U' \9 l

: W/ S8 n4 N& x% N& t                               
登录/注册后可看大图
( C/ h; q4 H5 ?  e! k7 N

4 U! f& w* \. F. V# `5 o# C                               
登录/注册后可看大图

. t! B4 h4 K! ]/ ^1 p0 I+ a$ T# {
- `# Q( L( o3 ]0 F# k. Z- A

4 F. x$ K+ p' s  e0 a) x' e. f                               
登录/注册后可看大图

, ?$ ~) N) X6 T, Z+ I" V
- U* [& b. a6 h4 y

# y" N$ i7 \7 x2 J4 j* y2 ~                               
登录/注册后可看大图

9 H, E  @% p7 ]4 P% s8 h8 U9 |) N+ K" K! m' C
游客,如果您要查看本帖隐藏内容请回复  捐助论坛可免回复查看隐藏内容 详情请点击
最近访问 头像模式 列表模式
HD一条街,身边的一条街。
往事 该用户已被删除
发表于 2016-1-17 19:03:53 | 显示全部楼层
提示: 作者被禁止或删除 内容自动屏蔽
HD一条街,身边的一条街。
发表于 2016-1-17 19:24:21 | 显示全部楼层
这个先行版和正式应该没多大区别,收下了,感谢分享。
HD一条街,身边的一条街。
发表于 2016-1-17 19:43:53 | 显示全部楼层
感谢楼主分享
HD一条街,身边的一条街。
发表于 2016-1-17 20:21:11 | 显示全部楼层
介紹吃的? 感謝樓主分享
HD一条街,身边的一条街。
发表于 2016-1-17 20:25:17 | 显示全部楼层
这必须要下载的啊
HD一条街,身边的一条街。
发表于 2016-1-17 20:37:31 | 显示全部楼层
这个好呀,我喜欢
HD一条街,身边的一条街。
头像被屏蔽
发表于 2016-1-17 20:51:29 | 显示全部楼层
提示: 作者被禁止或删除 内容自动屏蔽
HD一条街,身边的一条街。

手机版|小黑屋|有问题发邮件到admin#(换成@)hd1tj.org|微博|免责申明|HD一条街

GMT+8, 2017-3-28 12:33

Powered by Discuz! X3.1

© 2001-2013 Comsenz Inc.

快速回复 返回顶部 返回列表