开启辅助访问 切换到窄版

HD一条街论坛

 找回密码
 加入我们
查看: 419|回复: 35

[国产] 舌尖上的新年/舌尖上的中国大电影 [普通话/内嵌简体中文字幕] A.Bite.of.China:Celebrating.the.Chinese.New.Year. 2015.WEB-DL.1080p.x264.AAC-HQC 0.92 GiB

[复制链接]
发表于 2016-1-17 19:00:09 | 显示全部楼层 |阅读模式
, `! w& q) b+ _7 U! y+ Y+ ^
                               
登录/注册后可看大图

7 {' @& m; n3 r) T* N/ @6 C" r6 H+ C# k+ G/ _. q5 V2 V0 L* ^
◎译  名 舌尖上的新年/舌尖上的中国大电影& G! ^. U3 R/ q+ ]$ q
◎片  名 A Bite of China: Celebrating the Chinese New Year
4 j0 }1 K: l/ j) i◎年  代 20158 Y' v& }! K+ P* _
◎国  家 中国
9 j* w$ U9 e1 v; s+ i◎类  别 纪录
! J! P) h; ^  a5 N  h: o# x  Z◎语  言 普通话
, J4 M, S+ S, z$ \* e$ |◎字  幕 简体中文
4 Y% E; j6 y- c$ \0 p* y0 [◎IMDb评分 N/A, \8 I. a4 ~/ o9 I4 I
◎IMDB链接 N/A6 u+ I1 R( U8 m- r
◎文件格式 x264 + AAC
  V% X2 ~6 h4 {, ]◎视频尺寸 1920 x 824
* r5 \! N* j; n/ q8 ?◎文件大小 1CD 0.92 GiB
# [+ W0 O+ J  ]0 m4 ~% v' L◎片  长 1h 28mn
3 ?! ]/ d3 e* X" E0 v/ |0 k◎导  演 陈磊 Chen Lei3 F9 W# j& x! u! A# u% ?' |
      邓洁 Jie Deng
" o- H2 w0 q( |' h& O      李勇 Yong Li
7 g' I  `1 K( U" [' K# |◎主  演 李立宏 Lihong Li3 p( t& D' H8 A) H: a
2 }! R: A9 r1 K1 K/ }
6 s$ S9 E" w% p$ q# j5 ]! k

9 u  L5 H4 ]1 a% v5 B+ \- x! I* ?( y# r
◎简  介
6 O4 ^+ R* O! [
6 K0 P; z) a. s( h; q5 z3 ]  这是一部关于“重回时间”、“寻找年味儿”的电影,将透过中国广袤大地上奇绝的年货食物,串接一个个新年故事,展示东方的文化习俗,用鲜活的镜头语言保存一部民族生活史和文化档案,带观众重寻旧日的习俗和年味儿。
  1. General" S7 q' e' \; G+ b9 F
  2. Unique ID                      : 230467754361991175143698875670852748067 (0xAD62799548B8937CB4B599A9DE934323)
    0 f  v  c. }& j9 Q3 e) ^
  3. Complete name                  : E:\迅雷下载\舌尖上的新年.A.Bite.of.China:Celebrating.the.Chinese.New.Year.2015.WEB-DL.1080p.x264.AAC-HQC.mkv.bt.td
    . f% L- K! i& W' x4 v, z9 y
  4. Format                         : Matroska
    ( W" w' E6 ]' f$ E+ A
  5. Format version                 : Version 4 / Version 2' K+ K. j3 F) W/ M
  6. File size                      : 920 MiB
    % Y* F' {9 V/ p" L' B* s
  7. Duration                       : 1h 28mn7 j0 r( P1 X( R' e7 H* F( q- \. o
  8. Overall bit rate               : 1 452 Kbps
    : A) |0 l1 m! Y( w( e
  9. Encoded date                   : UTC 2016-01-16 11:44:102 ^9 u) I( X! ^6 r
  10. Writing application            : mkvmerge v8.3.0 ('Over the Horizon') 64bit/ F8 j, D. A2 l: `
  11. Writing library                : libebml v1.3.1 + libmatroska v1.4.2% j. j. r! m: y  |
  12. 8 ?8 L* F3 O' y; w0 \* E
  13. Video
      i# n% `- `; D2 [( m0 W' @
  14. ID                             : 1
    * i+ ^1 q) }) I& R
  15. Format                         : AVC
    / ]. E" ?) `; I
  16. Format/Info                    : Advanced Video Codec
    % y0 c9 Z8 r- R& s1 J3 t- B4 }
  17. Format profile                 : [email protected]' O! B0 j. h* H  g
  18. Format settings, CABAC         : Yes8 k7 V6 Z! O1 e4 V; @
  19. Format settings, ReFrames      : 3 frames9 X# H+ P0 Q$ L; b. m! D- C
  20. Codec ID                       : V_MPEG4/ISO/AVC
    ( Q: d$ u7 f' F. @4 `8 \2 r1 F
  21. Duration                       : 1h 28mn
    5 b! V# e5 O, s2 ]- s) L% z
  22. Bit rate                       : 1 385 Kbps0 X% p0 @  {0 i5 @7 l& d9 ?3 I) U" b
  23. Width                          : 1 920 pixels
    2 y# W; S& f- ^  M$ h; P! Y( q
  24. Height                         : 824 pixels
    4 h; P8 D2 e( I& Q
  25. Display aspect ratio           : 2.35:1
    / G: e& v( R) R5 m0 e
  26. Frame rate mode                : Variable
    ' }3 r# ?; r0 W4 O- z4 Q  T! B
  27. Frame rate                     : 24.000 fps5 j5 n/ r' r: G+ I6 p0 O: W9 G2 e
  28. Color space                    : YUV( n" [! a( H5 P, l' Y
  29. Chroma subsampling             : 4:2:0
    - i  N$ v' i3 M, e3 X2 b( n) K
  30. Bit depth                      : 8 bits6 ?  `; X* r1 ]. t
  31. Scan type                      : Progressive- K2 G% g8 G. `, m7 y
  32. Bits/(Pixel*Frame)             : 0.036
    - p. v) q" w, C* X0 J+ p1 F$ Z, X
  33. Stream size                    : 878 MiB (95%)/ B8 j1 V1 D# W+ h; L
  34. Writing library                : qiyi.com vtc-test1 w5 [5 D4 H- u: f" ^. v5 b
  35. Default                        : Yes" j* U6 E! v0 s  m5 \) K
  36. Forced                         : No
    ! R4 [. H0 k9 J. G: ~0 Y
  37. Color range                    : Limited/ G& T; C) S# n% j0 ]( p. [  a( @
  38. Color primaries                : BT.709- R& e' I- J# U: K' {
  39. Transfer characteristics       : BT.709
    5 \: m6 g. L1 D2 r
  40. Matrix coefficients            : BT.7091 R) g# p$ i7 h' f9 m& N- e
  41. 4 ?& e, o5 |+ U8 G5 d- ^
  42. Audio( v: z1 F9 s: R9 j
  43. ID                             : 2
    ( ^4 t* U; }1 `
  44. Format                         : AAC
    " t8 J3 q9 |" o: |8 g1 d& Y
  45. Format/Info                    : Advanced Audio Codec% w/ {2 b7 L8 r( x: ~
  46. Format profile                 : HE-AAC / LC
    5 H" i8 S4 Y0 c+ \; j4 Q
  47. Codec ID                       : A_AAC) k8 q& T1 A3 w' S- w& j
  48. Duration                       : 1h 28mn
    * y3 {2 F, G4 ~
  49. Bit rate                       : 64.0 Kbps" Z) I2 l! B/ O3 ~
  50. Channel(s)                     : 2 channels
    & v( ~' \! ~& M+ u3 r+ K1 y, i: ]
  51. Channel positions              : Front: L R
    0 j$ ?) \' ?0 u. U
  52. Sampling rate                  : 44.1 KHz / 22.05 KHz9 x' }" h. B# C, ^0 R! y
  53. Frame rate                     : 21.533 fps (1024 spf)
    7 @# s8 v! Z; l- F
  54. Compression mode               : Lossy
    / F. \- X" O1 z. h
  55. Stream size                    : 40.6 MiB (4%)+ F% I5 h0 `3 t; d9 w9 j
  56. Default                        : Yes' s; C" u( }2 w, v
  57. Forced                         : No
    " O4 j2 t. H8 A+ e8 G( p0 Q
  58. * A) ^9 e+ ~; }7 h) E! X
复制代码

( U/ E% D1 v/ k. d7 s1 o$ N: R

9 Q( h$ r/ {1 \0 C0 i                               
登录/注册后可看大图

1 p  Z0 q7 M3 J& k

4 U) }; d% s& U, c                               
登录/注册后可看大图

. R4 K, i( F; a' i- D2 D1 T9 g4 X
) f1 L' v5 N. I0 G' B7 J2 `) U
3 A2 `2 d! s) C% c2 n
                               
登录/注册后可看大图

6 d# |( L& K  f$ C! a7 z0 p$ [# ]1 D9 m; S5 X
' H0 S, X+ q1 a1 }% i& i
                               
登录/注册后可看大图

5 Y% ?, O. L* m( \
, ]; h* r+ A$ O5 N- b
游客,如果您要查看本帖隐藏内容请回复  捐助论坛可免回复查看隐藏内容 详情请点击
最近访问 头像模式 列表模式
HD一条街,身边的一条街。
往事 该用户已被删除
发表于 2016-1-17 19:03:53 | 显示全部楼层
提示: 作者被禁止或删除 内容自动屏蔽
HD一条街,身边的一条街。
发表于 2016-1-17 19:24:21 | 显示全部楼层
这个先行版和正式应该没多大区别,收下了,感谢分享。
HD一条街,身边的一条街。
发表于 2016-1-17 19:43:53 | 显示全部楼层
感谢楼主分享
HD一条街,身边的一条街。
发表于 2016-1-17 20:21:11 | 显示全部楼层
介紹吃的? 感謝樓主分享
HD一条街,身边的一条街。
发表于 2016-1-17 20:25:17 | 显示全部楼层
这必须要下载的啊
HD一条街,身边的一条街。
发表于 2016-1-17 20:37:31 | 显示全部楼层
这个好呀,我喜欢
HD一条街,身边的一条街。
头像被屏蔽
发表于 2016-1-17 20:51:29 | 显示全部楼层
提示: 作者被禁止或删除 内容自动屏蔽
HD一条街,身边的一条街。
您需要登录后才可以回帖 登录 | 加入我们

本版积分规则

手机版|小黑屋|有问题发邮件到admin#(换成@)hd1tj.org|微博|免责申明|HD一条街

GMT+8, 2017-1-20 07:27

Powered by Discuz! X3.1

© 2001-2013 Comsenz Inc.

快速回复 返回顶部 返回列表