开启辅助访问 切换到窄版

HD一条街论坛

 找回密码
 立即注册
查看: 404|回复: 7

[国产] 江苏卫视 历史文献纪录片《外国人眼中的南京大屠杀》全10集 JSTV A Foreign Perspective of Nanjing Massacre Complete HDTV 1080i H264-HDATV 30.71G

[复制链接]
发表于 2016-1-3 14:19:37 | 显示全部楼层 |阅读模式
; v1 H# b! k6 m  ?% n/ H$ I9 ^
                               
登录/注册后可看大图

) K7 a' l) T2 y8 Q" x8 z
3 E+ N  w" W# a" Q/ `$ X3 u$ t2 O5 U' v" |. ^7 e( C' }, r- }$ H
简介( P3 k# _; T, o) W! K( ~/ z
" V/ ?  }& F: x# }. B# Q
该片是第一部以见证、亲历以及探寻南京大屠杀这一历史惨剧的外国人视角来表现的作品,首次以外国人视角还原南京大屠杀。在共500分钟的时间里,讲述了和南京大屠杀息息相关的10位外国人的故事。这也是第一部以见证、亲历以及探寻南京大屠杀这一历史惨剧的外国人视角来表现的作品。其中,德国人约翰·拉贝,美国人约翰·马吉、明妮·魏特琳、乔治·费奇、罗伯特·威尔逊、贝德士,丹麦人辛德贝格等,他们在南京大屠杀期间,冒着生命危险留在了南京,以各种方式保护南京民众免遭屠戮,并记录下日本侵略者的残暴行径。也有勇于向中国人民忏悔的原侵华老兵东史郎、揭露南京大屠杀真相的日本普通民众松冈环和历史学者笠原十九司,他们对日本人对历史认识的错乱感到震惊,努力将历史真相告诉更多的日本人。该片于12月7日开始在央视科教频道22:00和江苏卫视频道17:40播出。$ m4 q/ c$ r& g  f1 H
$ J1 E5 J, A8 I/ I$ a/ R

9 F) C- P6 V3 d% A) ~) ]0 [8 z
  1. General
    - h: D% Z2 y* p' \2 I
  2. ID                             : 0 (0x0)
    8 _: D& J( J- q/ T) k, K1 B
  3. Complete name                  : H:\pt\JSTV A Foreign Perspective of Nanjing Massacre Complete HDTV 1080i H264-HDATV\JSTV.20151207.Ep01.HDTV.1080i.H264-HDATV.ts  c; ^. h. e- f5 i& x9 ^" X
  4. Format                         : BDAV
    : ]- Q( r. r7 q5 c! m
  5. Format/Info                    : Blu-ray Video
    6 i2 U, ~/ {: f7 F
  6. File size                      : 3.18 GiB
    : C4 w) r! b6 K' c2 G, Q
  7. Duration                       : 50mn 48s5 w1 z4 K* e7 e( U. X1 ?
  8. Overall bit rate mode          : Variable
    ; O) g" i# n1 K0 x5 g
  9. Overall bit rate               : 8 961 Kbps$ p9 \& u- |. l, I
  10. Maximum Overall bit rate       : 12.1 Mbps
    % K" t  @: k, h: z1 j

  11. 3 U$ Q# \3 V6 S: ?
  12. Video6 Z$ v3 o0 m4 M5 d9 ^
  13. ID                             : 4113 (0x1011)& j- a) y+ ~3 C+ r3 |( J% l7 D" w: W
  14. Menu ID                        : 1 (0x1)
    : K0 g" o) w9 c; z7 v1 I
  15. Format                         : AVC
    $ q0 V0 n3 W( X9 }
  16. Format/Info                    : Advanced Video Codec! t( B* P' h  q& ], G
  17. Format profile                 : [email protected]+ D" s8 Q2 ?+ K* x5 d/ m$ k
  18. Format settings, CABAC         : Yes) x9 i& G2 N1 w: |
  19. Format settings, ReFrames      : 3 frames
    % \# {& L: s: n/ r) q0 e# G1 q: P" [
  20. Codec ID                       : 27/ X- q" X1 S. d0 \5 M+ M% D, n
  21. Duration                       : 50mn 48s
    6 d' G: W& ?' {9 t7 S* t
  22. Bit rate                       : 8 277 Kbps
    1 ~, l( V# G9 J4 R
  23. Width                          : 1 920 pixels; j; Z5 ~8 k* U
  24. Height                         : 1 080 pixels
    0 u: f3 m: y3 H4 p  O. r/ u
  25. Display aspect ratio           : 16:9
    * l& U! ^' Z8 ]' N/ u
  26. Frame rate mode                : Variable
    / J" p7 q8 X0 L1 x: m
  27. Color space                    : YUV( s  _: P. a0 @. \. M) c' ?- ~
  28. Chroma subsampling             : 4:2:0
    + L: V  P& A) F  I
  29. Bit depth                      : 8 bits
    ! G( `) D* F8 |8 r5 C; B
  30. Scan type                      : Progressive
    1 P& ^6 [3 l  t: l
  31. Stream size                    : 2.94 GiB (92%)+ s5 {# S; c  a9 N

  32. 0 [/ e: z4 I1 B  B6 U! y
  33. Audio
    / w- R' q+ w/ T2 {7 @
  34. ID                             : 4352 (0x1100)
    , Y+ ?% f: |2 Z  I1 F: S+ Z
  35. Menu ID                        : 1 (0x1)
    5 I: s4 z- L% {" o! I. L5 L5 L
  36. Format                         : AC-3
    ) h: T( T$ U! T1 n( _5 z
  37. Format/Info                    : Audio Coding 34 C5 L! B# D& f0 b1 x6 o* X' F7 C
  38. Mode extension                 : CM (complete main)
    2 ]3 j. ?- z5 B" B
  39. Format settings, Endianness    : Big
    ( A; g0 p- y2 Y6 F" A% D, S
  40. Codec ID                       : 1292 `/ q$ e  ?7 P7 K
  41. Duration                       : 50mn 48s  B: K  v. b- t# Q. J
  42. Bit rate mode                  : Constant- h5 A! U3 u4 C
  43. Bit rate                       : 320 Kbps
    6 `# }4 q8 L  d. E9 ]6 m
  44. Channel(s)                     : 2 channels
      A/ R$ {3 _  P: g& o* }8 D9 Q1 G" A
  45. Channel positions              : Front: L R
    # c" B: g) ~6 U' B7 o4 x) G. g5 f3 O
  46. Sampling rate                  : 48.0 KHz
    1 c+ h: {( ?; Z! `+ ]
  47. Frame rate                     : 31.250 fps (1536 spf)
    4 g) f) Q% K# {
  48. Compression mode               : Lossy
    ! H9 F0 i  p1 U2 k; F
  49. Stream size                    : 116 MiB (4%)
复制代码

5 Q5 T& e& b4 u
' @4 F) V  g; S, A3 Z- c
- ]0 D: E( Q0 F" H) U4 Y
郑重声明:: T" i' X0 l8 j0 z1 Y( T
本站提供的所有影视综艺作品均是在网上搜集,任何涉及商业盈利目的均不得使用,否则产生的一切后果将由您自己承担!本站将不对本站的任何内容负任何法律责任!该下载内容仅做宽带测试使用,请在下载后24小时内删除。请购买正版!
/ a$ a& N3 E- m/ w# T

' s! p# _3 W6 P: \! I* I115网盘  受分享限制请自行修改文件扩展名*.ts6 {) D+ w/ t4 h9 m+ z
# s( ?" A$ ~3 n$ Z$ `6 w  v
游客,如果您要查看本帖隐藏内容请回复  捐助论坛可免回复查看隐藏内容详情请点击
最近访问 头像模式 列表模式
HD一条街,身边的一条街。
发表于 2016-1-3 16:19:36 | 显示全部楼层
谢谢分享,在其他网站下了
HD一条街,身边的一条街。
头像被屏蔽
发表于 2016-1-3 19:07:16 | 显示全部楼层
提示: 作者被禁止或删除 内容自动屏蔽
HD一条街,身边的一条街。
发表于 2016-1-4 10:21:11 | 显示全部楼层
历史永远不能忘记,谢谢分享
HD一条街,身边的一条街。
发表于 2016-1-5 00:22:07 | 显示全部楼层
对于国人来说是一段不该忘记的历史,那外国人眼中呢?
HD一条街,身边的一条街。
事務局 该用户已被删除
发表于 2016-1-7 16:09:06 | 显示全部楼层
提示: 作者被禁止或删除 内容自动屏蔽
HD一条街,身边的一条街。
发表于 2016-1-14 20:38:08 | 显示全部楼层
哇,好大的资源
HD一条街,身边的一条街。
发表于 2016-7-9 18:23:20 | 显示全部楼层
可惜115已经没有用了
HD一条街,身边的一条街。
您需要登录后才可以回帖 登录 | 立即注册

本版积分规则

手机版|小黑屋|有问题发邮件到admin#(换成@)hd1tj.org|微博|免责申明|HD一条街

GMT+8, 2016-12-6 00:37

Powered by Discuz! X3.1

© 2001-2013 Comsenz Inc.

快速回复 返回顶部 返回列表