开启辅助访问 切换到窄版

HD一条街论坛

 找回密码
 立即注册
查看: 277|回复: 16

[1080p] 【希区柯克10大经典悬疑】夺魂索.Rope.1948.1080p.BluRay.X264-AMIABLE 6.56G

[复制链接]
发表于 2015-12-1 08:59:54 | 显示全部楼层 |阅读模式
本帖最后由 秦焉 于 2015-12-1 08:59 编辑
: e) e- T% G2 s2 u: F8 S
+ q1 G' q) c: C" {0 a3 z5 g% y p2154845412.jpg 4 f1 B$ p1 H( u2 s* i
◎译  名 Rope- K( z! \$ ~5 M
◎片  名 夺魂索 / 绳索 / Alfred Hitchcock's Rope5 P0 q3 }( V# k2 Q9 W  q% T
◎年  代 1948
6 ?6 |$ X$ B7 U3 e5 J2 e% k& V◎国  家 美国
% z) H6 x1 K+ z& g$ k◎类  别 悬疑 / 惊悚 / 犯罪( E2 o, r* f1 p$ P) A0 q
◎语  言 英语" v- c7 q4 U* w$ y! ?( \' G# V9 p
◎上映日期 1948-08-28( j7 w4 k# m& r( s7 X, U( h
◎IMDb评分  8.0/10 from 90,411 users   4 I7 z7 A- ?1 h7 S! m8 J: L
◎IMDb链接  http://www.imdb.com/title/tt0040746/% y2 G5 d7 a' x; \  i3 L9 U
◎豆瓣评分 8.0/10 from 9,864 users6 e: x( x) _# s: O) N; C
◎豆瓣链接 http://movie.douban.com/subject/1301230// C* ]. B  `1 l. u/ M# D
◎片  长 80 分钟
! h6 H  E3 @  c9 X2 v◎导  演 阿尔弗雷德·希区柯克 Alfred Hitchcock
9 q. ^% ~% ?/ S2 w1 J! D◎主  演 詹姆斯·斯图尔特 James Stewart
- N6 }% a' W4 V0 g                   约翰·道尔 John Dall
9 T* y0 P3 e  Y                   法利·格兰杰 Farley Granger
3 y3 p. m' b7 V6 n                   琼·钱德勒 Joan Chandler
: f- L! N: i3 `& t8 @+ M* |! X7 U                   道格拉斯·迪克 Douglas Dick
1 Y* |  q# |* e8 U6 W2 r  B7 C( ]5 D3 O
◎剧情简介
3 k: x$ R' ~+ [" k# d+ K* L. R$ \       博兰顿(约翰达尔John Dall 饰)和菲利普(法利格兰杰 Farley Granger 饰)都是哈佛的高才生,一天,都是同性恋的两人合谋杀害了同学戴维,并藏尸于一个大箱子中。或许是出于炫耀,他们做出了一个惊人的举动。那就是用装着戴维尸体的箱子当餐桌,邀请了戴维的父母、未婚妻、同学和茹伯特教授(詹姆斯斯图尔特 James Stewart 饰)来赴宴。他们谎称戴维外出了,和客人们在戴维的“棺材”上进行着宴会。胆小的菲利普从宴会开始就开始坐立不安,但是博兰顿却不慌不忙,在客人中滔滔不绝。然而,聪明的茹伯特教授从博兰顿的谈话中渐渐察觉出事有蹊跷……
1 h: S+ S; s1 T+ X1 b
6 O- _) g! \6 ?" h& B+ h8 r
9 W" P7 |  ^  H9 c◎幕后花絮/ A& m5 h' y  U& t! c" M/ a& E

' ]( h5 V& ?7 p* f- }$ H. Y) f4 y       本片根据著名案件改编,是希区柯克的一次大胆实验。希区柯克尤其钟爱长镜头,《夺魂索》中他把长镜头发挥到了极致,全片几乎不用剪辑,完全打破了蒙太奇的规则,没有切换,没有正反打,一个镜头从头到尾。影片的场面调度不容一点差错,好比舞台表演。希区柯克本人对它有特殊的感情。多年后,他要求销毁电影胶片,使观众长达20年无法看到本片。影史罕见的“一部电影只用一个镜头”的大胆实验,同时也是希区柯克的第一部彩色片。导演以流畅的镜头运动和无缝的剪接手法,将几个长达十多分钟的镜头巧妙地连接在一起。多数拍摄的衔接处采用了人物背部的全暗特写,但是仍有几处特意的镜头转换,很有冲击力。整部影片属于话剧加实验电影。该题材来自一个真实事件,1959年拍成《朱门孽种》(Compulsion,又译《凶杀学生》);1991年拍成《情迷意乱》(Swoon)。  G, w8 x1 G* l  S) f

) a1 ~4 ]! D) s, V) a◎制作手法- u" q1 p4 _& Q" f( G0 C
5 j5 \2 ~3 K& v2 X$ v
       电影预告片由于希区考克在本片采用单一镜头的手法拍摄,但是当时一卷35毫米长度的电影底片只能录约10分钟。所以整部影片分成10个部份连续拍摄,每一部份的时间略少于10分钟。摄影时,一旦前一卷胶卷用完,就将摄影机停机,镜头对准某位演员(或者沙发、墙角)的背影,再换上新的胶卷。此时是彩色电影的早期,摄影机非常庞大,为了迁就摄影机的行动,镜头外的道具摆设其实不停的被搬移。9 p) b3 ?# W6 Q
       《夺魂索》的悬疑,不在对事件的存疑,而是对剧中人物心理变化的不确定。所以事件的谜底一开始就让观众知道,让观众可以全心贯注于观察剧中人物,后来希区考克另一部经典《迷魂记》也采取这样的风格。在《夺魂索》中,观众耳里听到的对白,不见得是眼中所看到的人事物。亚弗列德·希区考克用镜头掌控观众的视线──以及心理情绪。此种方式与希区考克另一部经典《后窗》不同,《后窗》大部分是以男主角的主观镜头(SUBJECT)呈现。
# C+ c$ o* U" k# L# n, y% J& h8 ^. r; w9 _0 F7 t' e$ J( h5 W
  1. Video" J/ S3 G) |8 H& K! _) n
  2. ID                                       : 1+ \6 v, Z( g* f0 D: s6 G
  3. Format                                   : AVC" N% i6 j) ~+ \7 B" D0 `
  4. Format/Info                              : Advanced Video Codec& t( G) \. H6 f' f% Q( Z8 u$ C7 M2 S$ y
  5. Format profile                           : [email protected]
    ' k0 P6 l; L) b) {3 v: {; U
  6. Format settings, CABAC                   : Yes
    " x8 }3 [3 g) L2 q* W
  7. Format settings, ReFrames                : 5 frames0 j# \6 O& v" T2 U( J* s
  8. Codec ID                                 : V_MPEG4/ISO/AVC
    7 E* Y! W4 @3 O; ]
  9. Duration                                 : 1h 20mn
    2 Z1 g7 H/ Y/ n# F. F" C( P
  10. Bit rate                                 : 10.1 Mbps
    % n) ~7 `/ d% `1 l5 q
  11. Width                                    : 1 456 pixels
    ; w" D0 l6 t6 J2 @
  12. Height                                   : 1 080 pixels. g+ j1 ]# ]' I7 L. y4 `! K8 Z4 z
  13. Display aspect ratio                     : 4:3! L% M) O3 L; v& k* `3 H, F* F( C
  14. Frame rate mode                          : Constant: }: }3 O" O( d5 D( Z0 B  z% w
  15. Frame rate                               : 23.976 fps" X# b4 ?& p/ L# s$ e
  16. Color space                              : YUV
    5 Z. O  N$ o( k! Q$ q8 M8 I
  17. Chroma subsampling                       : 4:2:0; X0 v/ X8 X( j# i
  18. Bit depth                                : 8 bits
    $ M% M; K. o* X- y' v$ R8 h4 A
  19. Scan type                                : Progressive8 P- c% Q$ s; n. s6 u1 S. w
  20. Bits/(Pixel*Frame)                       : 0.268; f3 E2 S  z( Z( k9 B
  21. Stream size                              : 5.58 GiB (85%)
    ( A! }6 m$ S. T4 j1 J- }: W
  22. Writing library                          : x264 core 128 r2216 198a7ea
    " g3 p* o' n3 }7 }
  23. Encoding settings                        : cabac=1 / ref=5 / deblock=1:0:0 / analyse=0x3:0x113 / me=umh / subme=8 / psy=1 / psy_rd=1.00:0.00 / mixed_ref=1 / me_range=16 / chroma_me=1 / trellis=1 / 8x8dct=1 / cqm=0 / deadzone=21,11 / fast_pskip=1 / chroma_qp_offset=-2 / threads=12 / lookahead_threads=2 / sliced_threads=0 / nr=0 / decimate=1 / interlaced=0 / bluray_compat=0 / constrained_intra=0 / bframes=3 / b_pyramid=2 / b_adapt=2 / b_bias=0 / direct=3 / weightb=1 / open_gop=0 / weightp=2 / keyint=240 / keyint_min=24 / scenecut=40 / intra_refresh=0 / rc_lookahead=50 / rc=2pass / mbtree=1 / bitrate=10109 / ratetol=1.0 / qcomp=0.60 / qpmin=0 / qpmax=69 / qpstep=4 / cplxblur=20.0 / qblur=0.5 / ip_ratio=1.40 / aq=1:1.00
    ) `/ k/ B* k4 n$ `  ?  j
  24. Language                                 : English
    . R2 d9 X' V, f) I) i* T
  25. Default                                  : Yes
    7 @8 L: [8 B9 l
  26. Forced                                   : No) p& z6 Q; B9 b$ V
  27. 2 z+ ^% i5 Q" x  a* }! Y: ]; D& y
  28. Audio# \$ w' u) ]$ q  i
  29. ID                                       : 29 E1 b0 R5 `8 p) z, I$ Q% g6 w/ ]; a
  30. Format                                   : DTS: Y1 f6 C( U1 @$ Q7 B3 x& P
  31. Format/Info                              : Digital Theater Systems
    % p+ _. S# V' j: I
  32. Mode                                     : 16
    % P. A4 a7 Z$ [' I' w4 J3 |
  33. Format settings, Endianness              : Big
    ; B1 o0 P& I4 n: O
  34. Codec ID                                 : A_DTS
    1 D4 y( I$ h* l9 P; y: A( \
  35. Duration                                 : 1h 20mn
    % ]6 E: K4 C) p/ x
  36. Bit rate mode                            : Constant
    : X) h2 k$ Z& Y8 L. O
  37. Bit rate                                 : 1 509 Kbps% \' q0 ?' S- S( I3 [
  38. Channel(s)                               : 6 channels& U) X( }, Y. l+ p+ f& v+ R- k: x
  39. Channel(s)_Original                      : 2 channels( C) O( s/ a6 L) I2 N
  40. Channel positions                        : Front: L R
    2 L/ u) B1 _/ V4 M7 p5 X
  41. Sampling rate                            : 48.0 KHz
    0 J! X1 ?* {: {/ z: n5 a& |
  42. Bit depth                                : 24 bits
    % W2 G% Y- \$ x0 H4 ^
  43. Compression mode                         : Lossy
    % I6 n/ ]2 G' ~' N% `/ V
  44. Stream size                              : 872 MiB (13%)1 `  q# E) y6 B
  45. Language                                 : English
    7 i7 M- m- C" p
  46. Default                                  : Yes1 f# @, U; F4 J
  47. Forced                                   : No: J1 \$ X+ \# l$ W! O; i$ g

  48. $ @5 n4 N& K; C- w/ n$ J
  49. Text
    6 j0 _$ R7 k) U' O2 D. `3 @
  50. ID                                       : 3
    + j5 O) E  M$ B: Z5 m8 ~
  51. Format                                   : UTF-8$ O6 p$ s! r2 c* Q* k0 I5 A$ p
  52. Codec ID                                 : S_TEXT/UTF8& N7 J2 b0 p7 X# U
  53. Codec ID/Info                            : UTF-8 Plain Text
    ! X' M" m3 }" B( r
  54. Language                                 : English
    - A- N7 C8 a* v/ }
  55. Default                                  : No
    # {$ ^2 |! [# n' b6 \
  56. Forced                                   : No
复制代码

3 l# Z. I. g' P; K# w8 {2 | Rope.1948.1080p.BluRay.X264-AMIABLE.mkv.jpg 9 E$ T3 w* T5 C' C# d
游客,如果您要查看本帖隐藏内容请回复  捐助论坛可免回复查看隐藏内容详情请点击
最近访问 头像模式 列表模式
HD一条街,身边的一条街。
发表于 2015-12-1 09:33:23 | 显示全部楼层
看题目像是惊悚片噢,下载看看
HD一条街,身边的一条街。
发表于 2015-12-1 09:34:42 | 显示全部楼层
谢谢分享,题材很好的悬疑片
HD一条街,身边的一条街。
发表于 2015-12-1 10:29:28 | 显示全部楼层
希区柯克的无穷想象力让人佩服
HD一条街,身边的一条街。
发表于 2015-12-1 12:25:37 | 显示全部楼层
多谢楼主分享
HD一条街,身边的一条街。
发表于 2015-12-1 13:37:41 | 显示全部楼层
谢谢分享,看看
HD一条街,身边的一条街。
发表于 2015-12-1 20:16:48 | 显示全部楼层
好老的片子啦,支持一下!!!
HD一条街,身边的一条街。
头像被屏蔽
发表于 2015-12-1 23:26:48 | 显示全部楼层
提示: 作者被禁止或删除 内容自动屏蔽
HD一条街,身边的一条街。
发表于 2015-12-2 00:04:49 | 显示全部楼层
感觉年代好老额,不看了
HD一条街,身边的一条街。
发表于 2015-12-2 08:09:03 来自手机 | 显示全部楼层
希区柯克的长镜头拍摄手法确实令人叫绝。
HD一条街,身边的一条街。
您需要登录后才可以回帖 登录 | 立即注册

本版积分规则

手机版|小黑屋|有问题发邮件到admin#(换成@)hd1tj.org|微博|免责申明|HD一条街

GMT+8, 2016-12-10 16:53

Powered by Discuz! X3.1

© 2001-2013 Comsenz Inc.

快速回复 返回顶部 返回列表