开启辅助访问 切换到窄版

HD一条街论坛

 找回密码
 立即注册
搜索
查看: 387|回复: 16

[1080p] 【希区柯克10大经典悬疑】夺魂索.Rope.1948.1080p.BluRay.X264-AMIABLE 6.56G

[复制链接]
发表于 2015-12-1 08:59:54 | 显示全部楼层 |阅读模式
本帖最后由 秦焉 于 2015-12-1 08:59 编辑 " J$ P3 {: i! K9 w3 I! {% C' ?7 j

& ]4 j$ K4 S; G* C p2154845412.jpg 1 d2 X0 o0 X: |, z, x5 {  [; o
◎译  名 Rope
. s" q( u1 a7 H◎片  名 夺魂索 / 绳索 / Alfred Hitchcock's Rope# {" K! K1 \' }- S3 \
◎年  代 1948
- a0 N  T; b% P$ ^/ {0 {( H1 Z◎国  家 美国
2 _+ r! a3 N' G9 X" o9 m% b◎类  别 悬疑 / 惊悚 / 犯罪2 G2 t; e/ }* B) T
◎语  言 英语
+ N" W: U2 O% ~! c* b7 V◎上映日期 1948-08-28
. S* V. F1 t8 m! I0 H◎IMDb评分  8.0/10 from 90,411 users   
7 e$ P' X9 u! p$ m0 C6 Z◎IMDb链接  http://www.imdb.com/title/tt0040746/
0 y, w& `) h2 N& t: p1 D# P; G◎豆瓣评分 8.0/10 from 9,864 users# c" t# W: J, }
◎豆瓣链接 http://movie.douban.com/subject/1301230/' u) D) F! ^! I+ w+ U
◎片  长 80 分钟: y) B! Y- i5 r4 d% S. M; ?4 q( B# H
◎导  演 阿尔弗雷德·希区柯克 Alfred Hitchcock/ A' ~6 w0 L- c; n  V  _( M! V
◎主  演 詹姆斯·斯图尔特 James Stewart! n" z# R- K" u6 C4 |8 y
                   约翰·道尔 John Dall
4 s% {6 I/ k/ Q9 \7 H8 _" P                   法利·格兰杰 Farley Granger
; R" D; h7 w0 X8 A                   琼·钱德勒 Joan Chandler+ f- s) D* d4 h' ^$ a
                   道格拉斯·迪克 Douglas Dick! r' u2 a8 Q( y/ V, t$ M9 e# w

5 N. Z/ ^! s. [◎剧情简介
# D, j" {4 o- r% q; o: [) J       博兰顿(约翰达尔John Dall 饰)和菲利普(法利格兰杰 Farley Granger 饰)都是哈佛的高才生,一天,都是同性恋的两人合谋杀害了同学戴维,并藏尸于一个大箱子中。或许是出于炫耀,他们做出了一个惊人的举动。那就是用装着戴维尸体的箱子当餐桌,邀请了戴维的父母、未婚妻、同学和茹伯特教授(詹姆斯斯图尔特 James Stewart 饰)来赴宴。他们谎称戴维外出了,和客人们在戴维的“棺材”上进行着宴会。胆小的菲利普从宴会开始就开始坐立不安,但是博兰顿却不慌不忙,在客人中滔滔不绝。然而,聪明的茹伯特教授从博兰顿的谈话中渐渐察觉出事有蹊跷……  X% U. g* o7 m6 o; m
& G  N9 c1 Y$ t8 C* m9 u2 q

6 `: q# ]% ]& M% o# m◎幕后花絮
' k/ }1 e! F" E" C$ B
" E% m: k+ w5 ]: B       本片根据著名案件改编,是希区柯克的一次大胆实验。希区柯克尤其钟爱长镜头,《夺魂索》中他把长镜头发挥到了极致,全片几乎不用剪辑,完全打破了蒙太奇的规则,没有切换,没有正反打,一个镜头从头到尾。影片的场面调度不容一点差错,好比舞台表演。希区柯克本人对它有特殊的感情。多年后,他要求销毁电影胶片,使观众长达20年无法看到本片。影史罕见的“一部电影只用一个镜头”的大胆实验,同时也是希区柯克的第一部彩色片。导演以流畅的镜头运动和无缝的剪接手法,将几个长达十多分钟的镜头巧妙地连接在一起。多数拍摄的衔接处采用了人物背部的全暗特写,但是仍有几处特意的镜头转换,很有冲击力。整部影片属于话剧加实验电影。该题材来自一个真实事件,1959年拍成《朱门孽种》(Compulsion,又译《凶杀学生》);1991年拍成《情迷意乱》(Swoon)。
) K6 k, @& f  i
+ c& O1 G. ?5 c  N◎制作手法8 A) P3 j, N. ^: E4 `0 i( ^

- w5 M, R/ g9 K$ A       电影预告片由于希区考克在本片采用单一镜头的手法拍摄,但是当时一卷35毫米长度的电影底片只能录约10分钟。所以整部影片分成10个部份连续拍摄,每一部份的时间略少于10分钟。摄影时,一旦前一卷胶卷用完,就将摄影机停机,镜头对准某位演员(或者沙发、墙角)的背影,再换上新的胶卷。此时是彩色电影的早期,摄影机非常庞大,为了迁就摄影机的行动,镜头外的道具摆设其实不停的被搬移。
: k# i# _0 _3 S& C3 R+ j( v       《夺魂索》的悬疑,不在对事件的存疑,而是对剧中人物心理变化的不确定。所以事件的谜底一开始就让观众知道,让观众可以全心贯注于观察剧中人物,后来希区考克另一部经典《迷魂记》也采取这样的风格。在《夺魂索》中,观众耳里听到的对白,不见得是眼中所看到的人事物。亚弗列德·希区考克用镜头掌控观众的视线──以及心理情绪。此种方式与希区考克另一部经典《后窗》不同,《后窗》大部分是以男主角的主观镜头(SUBJECT)呈现。
% z- X% E1 a5 D
8 A" t+ k; _7 Z  c
  1. Video
    # I9 ?, O- B2 a9 f8 G
  2. ID                                       : 1
    8 o0 {0 n$ [( ^& `) W
  3. Format                                   : AVC9 b" J/ d( M" A' p4 e
  4. Format/Info                              : Advanced Video Codec
    4 {! }: B  n# N% l9 \
  5. Format profile                           : [email protected]
    ! s, n: c/ L/ D. j8 G) v% p
  6. Format settings, CABAC                   : Yes
    % Y, m& T5 G0 r3 s) ^4 o
  7. Format settings, ReFrames                : 5 frames# A2 I$ ^6 W4 h9 d7 O5 v
  8. Codec ID                                 : V_MPEG4/ISO/AVC/ a8 n% V3 k# D( _
  9. Duration                                 : 1h 20mn" X2 {5 x1 A! @( {- K$ X
  10. Bit rate                                 : 10.1 Mbps0 X: u) I+ e. z' z4 A" A
  11. Width                                    : 1 456 pixels
      O& G/ z% E6 k6 F% i
  12. Height                                   : 1 080 pixels
    - w- j) i, ?. f- r* \6 x% B0 }
  13. Display aspect ratio                     : 4:38 }8 ?% ^9 O9 n/ K" Z% o
  14. Frame rate mode                          : Constant9 ?/ p! @3 a4 q: [% o
  15. Frame rate                               : 23.976 fps
    3 |- B, D& H6 g% G; C7 o5 o$ t
  16. Color space                              : YUV
    5 Q6 U- c8 z! c8 M- ]
  17. Chroma subsampling                       : 4:2:0: A3 h3 {1 D& B& j
  18. Bit depth                                : 8 bits
    $ v3 r3 [9 c! i! t
  19. Scan type                                : Progressive  X6 Q% u( A' t9 r
  20. Bits/(Pixel*Frame)                       : 0.268
    , x8 K0 N& S# N6 M; R2 L0 q+ y
  21. Stream size                              : 5.58 GiB (85%)
    # T+ R. D6 s6 Q( m! f, O2 G) `
  22. Writing library                          : x264 core 128 r2216 198a7ea: }2 B5 S' ], @% U0 I
  23. Encoding settings                        : cabac=1 / ref=5 / deblock=1:0:0 / analyse=0x3:0x113 / me=umh / subme=8 / psy=1 / psy_rd=1.00:0.00 / mixed_ref=1 / me_range=16 / chroma_me=1 / trellis=1 / 8x8dct=1 / cqm=0 / deadzone=21,11 / fast_pskip=1 / chroma_qp_offset=-2 / threads=12 / lookahead_threads=2 / sliced_threads=0 / nr=0 / decimate=1 / interlaced=0 / bluray_compat=0 / constrained_intra=0 / bframes=3 / b_pyramid=2 / b_adapt=2 / b_bias=0 / direct=3 / weightb=1 / open_gop=0 / weightp=2 / keyint=240 / keyint_min=24 / scenecut=40 / intra_refresh=0 / rc_lookahead=50 / rc=2pass / mbtree=1 / bitrate=10109 / ratetol=1.0 / qcomp=0.60 / qpmin=0 / qpmax=69 / qpstep=4 / cplxblur=20.0 / qblur=0.5 / ip_ratio=1.40 / aq=1:1.00
    ( c$ O6 N! u: w: ?' G! r
  24. Language                                 : English0 I" X$ C- K5 r* m
  25. Default                                  : Yes
    6 A: Y3 h1 ?& H4 d
  26. Forced                                   : No
      O9 q; I( O5 ]) f' E
  27. ! o; R3 t# m3 P' m
  28. Audio
    6 b% U* ^" {$ w# P5 v9 e
  29. ID                                       : 2
    3 f% ?6 S2 _* j$ H  V
  30. Format                                   : DTS
    5 u$ H* A2 t9 e' \; Q7 U
  31. Format/Info                              : Digital Theater Systems
    6 u$ B% g7 W# W) o# P" b7 e
  32. Mode                                     : 16/ E8 v1 Z- ?0 L- P8 P
  33. Format settings, Endianness              : Big
    , U2 l! Y8 S8 l9 g3 ]. U7 t
  34. Codec ID                                 : A_DTS
    4 h* b5 c  ?% m6 l* }! m
  35. Duration                                 : 1h 20mn
    4 F' O1 w) h8 P1 [3 P
  36. Bit rate mode                            : Constant
    * a8 \( a' q* j3 w3 t. q5 _7 O3 ?
  37. Bit rate                                 : 1 509 Kbps
    ( o3 H9 p" ?2 h: q3 a& e9 W
  38. Channel(s)                               : 6 channels
    & m/ }& T3 x; m: g+ u
  39. Channel(s)_Original                      : 2 channels* Z% K+ r$ E# a
  40. Channel positions                        : Front: L R+ @; s0 \! m0 q+ W9 u9 e4 K
  41. Sampling rate                            : 48.0 KHz# n. i% t# Y* g3 Y" a, s
  42. Bit depth                                : 24 bits9 R, j' A2 p$ N* @/ f8 \' S
  43. Compression mode                         : Lossy
    2 G/ T) R  R8 k
  44. Stream size                              : 872 MiB (13%)
    3 t3 s3 {7 D* z( ^: e
  45. Language                                 : English
    ! O7 B9 W3 g0 z. n0 S
  46. Default                                  : Yes
    . Z1 K+ G' Q9 b( |3 ]/ a7 p
  47. Forced                                   : No* ~: v7 ~, z! U& r  E2 J8 b

  48. ) y8 ?( p( W& z) h4 M( D7 X
  49. Text
      C1 T5 W5 ~! ]$ b
  50. ID                                       : 3
    - t9 A$ v9 d5 e1 Z$ A6 k
  51. Format                                   : UTF-8# \. y" W# f+ k8 v( b# x7 C
  52. Codec ID                                 : S_TEXT/UTF8
    , B" X& m; @( G
  53. Codec ID/Info                            : UTF-8 Plain Text1 Y3 `9 m; |5 N
  54. Language                                 : English
    % v; a+ ~7 `/ |" L# n
  55. Default                                  : No0 g  l. u1 ?$ q1 x
  56. Forced                                   : No
复制代码

) o( p1 b" A1 |" ~! B$ ?, X Rope.1948.1080p.BluRay.X264-AMIABLE.mkv.jpg
% Z  ^" E% ^7 \0 {
游客,如果您要查看本帖隐藏内容请回复  捐助论坛可免回复查看隐藏内容 详情请点击
最近访问 头像模式 列表模式
HD一条街,身边的一条街。
发表于 2015-12-1 09:33:23 | 显示全部楼层
看题目像是惊悚片噢,下载看看
HD一条街,身边的一条街。
发表于 2015-12-1 09:34:42 | 显示全部楼层
谢谢分享,题材很好的悬疑片
HD一条街,身边的一条街。
发表于 2015-12-1 10:29:28 | 显示全部楼层
希区柯克的无穷想象力让人佩服
HD一条街,身边的一条街。
发表于 2015-12-1 12:25:37 | 显示全部楼层
多谢楼主分享
HD一条街,身边的一条街。
发表于 2015-12-1 13:37:41 | 显示全部楼层
谢谢分享,看看
HD一条街,身边的一条街。
发表于 2015-12-1 20:16:48 | 显示全部楼层
好老的片子啦,支持一下!!!
HD一条街,身边的一条街。
头像被屏蔽
发表于 2015-12-1 23:26:48 | 显示全部楼层
提示: 作者被禁止或删除 内容自动屏蔽
HD一条街,身边的一条街。
发表于 2015-12-2 00:04:49 | 显示全部楼层
感觉年代好老额,不看了
HD一条街,身边的一条街。
发表于 2015-12-2 08:09:03 来自手机 | 显示全部楼层
希区柯克的长镜头拍摄手法确实令人叫绝。
HD一条街,身边的一条街。

手机版|小黑屋|有问题发邮件到admin#(换成@)hd1tj.org|微博|免责申明|HD一条街

GMT+8, 2017-4-26 12:09

Powered by Discuz! X3.1

© 2001-2013 Comsenz Inc.

快速回复 返回顶部 返回列表