开启辅助访问 切换到窄版

HD一条街论坛

 找回密码
 加入我们
查看: 340|回复: 16

[1080p] 【希区柯克10大经典悬疑】夺魂索.Rope.1948.1080p.BluRay.X264-AMIABLE 6.56G

[复制链接]
发表于 2015-12-1 08:59:54 | 显示全部楼层 |阅读模式
本帖最后由 秦焉 于 2015-12-1 08:59 编辑
! A, l2 u% j8 Q/ Q  K$ ^
# ^; S3 V' c/ k4 W1 o p2154845412.jpg
5 {- f" q4 r! q  b) n◎译  名 Rope
/ Y" J* F$ o5 W/ \◎片  名 夺魂索 / 绳索 / Alfred Hitchcock's Rope
1 ?$ d, c7 T4 \3 M* T" F+ Y◎年  代 1948- e) D! k% @! [, u4 B
◎国  家 美国, @9 R2 z) l$ a! [
◎类  别 悬疑 / 惊悚 / 犯罪( l* G5 g  ?+ [. ^+ v& ~
◎语  言 英语
: V% U6 C4 y( Q* W  V& y0 {◎上映日期 1948-08-28, E6 ^7 F! c5 \5 k- j$ [
◎IMDb评分  8.0/10 from 90,411 users   
" Z1 f6 T% d1 W. T◎IMDb链接  http://www.imdb.com/title/tt0040746/# R8 j( |$ u, R7 \" W9 G
◎豆瓣评分 8.0/10 from 9,864 users# w; b6 ~  r3 Y4 ~
◎豆瓣链接 http://movie.douban.com/subject/1301230/: C) w9 e9 Q2 D
◎片  长 80 分钟' E  \6 ~) p! t) `
◎导  演 阿尔弗雷德·希区柯克 Alfred Hitchcock
+ g( ~# O, _; m2 P  ]" y. U◎主  演 詹姆斯·斯图尔特 James Stewart
! }3 ~  _1 E% D! x# K                   约翰·道尔 John Dall 1 i: |3 o  [- Q  H# t- L
                   法利·格兰杰 Farley Granger
+ ?3 O  R% y' ^+ O) R: J6 m% T3 C* A# z                   琼·钱德勒 Joan Chandler
0 @5 L/ G% u- f/ G+ n1 n                   道格拉斯·迪克 Douglas Dick
' J: u) m% E7 |5 ]9 l
6 A2 V* V7 B8 X$ }# v  p) K, j$ @0 G6 I◎剧情简介
1 N" w0 q1 P" o4 I5 R1 Q# R       博兰顿(约翰达尔John Dall 饰)和菲利普(法利格兰杰 Farley Granger 饰)都是哈佛的高才生,一天,都是同性恋的两人合谋杀害了同学戴维,并藏尸于一个大箱子中。或许是出于炫耀,他们做出了一个惊人的举动。那就是用装着戴维尸体的箱子当餐桌,邀请了戴维的父母、未婚妻、同学和茹伯特教授(詹姆斯斯图尔特 James Stewart 饰)来赴宴。他们谎称戴维外出了,和客人们在戴维的“棺材”上进行着宴会。胆小的菲利普从宴会开始就开始坐立不安,但是博兰顿却不慌不忙,在客人中滔滔不绝。然而,聪明的茹伯特教授从博兰顿的谈话中渐渐察觉出事有蹊跷……
. {/ d  B# |; E7 w& r7 B" W4 P" f' m  |' o  o" F$ Q; [& n. ]

# b% c1 p" R1 q2 C◎幕后花絮
, A6 \3 I% A0 |! H. Y  J  s3 F2 G* L+ u
       本片根据著名案件改编,是希区柯克的一次大胆实验。希区柯克尤其钟爱长镜头,《夺魂索》中他把长镜头发挥到了极致,全片几乎不用剪辑,完全打破了蒙太奇的规则,没有切换,没有正反打,一个镜头从头到尾。影片的场面调度不容一点差错,好比舞台表演。希区柯克本人对它有特殊的感情。多年后,他要求销毁电影胶片,使观众长达20年无法看到本片。影史罕见的“一部电影只用一个镜头”的大胆实验,同时也是希区柯克的第一部彩色片。导演以流畅的镜头运动和无缝的剪接手法,将几个长达十多分钟的镜头巧妙地连接在一起。多数拍摄的衔接处采用了人物背部的全暗特写,但是仍有几处特意的镜头转换,很有冲击力。整部影片属于话剧加实验电影。该题材来自一个真实事件,1959年拍成《朱门孽种》(Compulsion,又译《凶杀学生》);1991年拍成《情迷意乱》(Swoon)。# y3 y# J/ {2 k9 P

; l! }$ B% Y& y9 J7 z. M/ N9 L% n◎制作手法* c6 v/ c: X4 {) e% }7 F7 u

9 z% V% o# q( i       电影预告片由于希区考克在本片采用单一镜头的手法拍摄,但是当时一卷35毫米长度的电影底片只能录约10分钟。所以整部影片分成10个部份连续拍摄,每一部份的时间略少于10分钟。摄影时,一旦前一卷胶卷用完,就将摄影机停机,镜头对准某位演员(或者沙发、墙角)的背影,再换上新的胶卷。此时是彩色电影的早期,摄影机非常庞大,为了迁就摄影机的行动,镜头外的道具摆设其实不停的被搬移。- L$ l' o5 `" p: J8 Z
       《夺魂索》的悬疑,不在对事件的存疑,而是对剧中人物心理变化的不确定。所以事件的谜底一开始就让观众知道,让观众可以全心贯注于观察剧中人物,后来希区考克另一部经典《迷魂记》也采取这样的风格。在《夺魂索》中,观众耳里听到的对白,不见得是眼中所看到的人事物。亚弗列德·希区考克用镜头掌控观众的视线──以及心理情绪。此种方式与希区考克另一部经典《后窗》不同,《后窗》大部分是以男主角的主观镜头(SUBJECT)呈现。
1 K1 s  X6 Q3 d# n! W% ^, j
9 u$ K9 n- _8 m
  1. Video3 ^5 y2 n: n2 r4 m& B2 N
  2. ID                                       : 1) U; C+ k3 \  m. n' ~, {$ o+ E
  3. Format                                   : AVC
    * \6 \2 Z% C2 G5 o( X
  4. Format/Info                              : Advanced Video Codec
    3 a' B6 q* r' _: b7 [9 A! ]
  5. Format profile                           : [email protected]
    8 T9 c+ ^& g6 M
  6. Format settings, CABAC                   : Yes; \% Y9 j4 E) f
  7. Format settings, ReFrames                : 5 frames
    2 I' k: `3 J3 F7 t8 Z# l; k) o' l
  8. Codec ID                                 : V_MPEG4/ISO/AVC9 u' w4 E/ o1 Q! g1 j7 [3 X/ F
  9. Duration                                 : 1h 20mn5 L' j5 M5 e5 k+ `' c/ x* U9 X8 J
  10. Bit rate                                 : 10.1 Mbps+ @4 v5 l8 F% `% a& d; B
  11. Width                                    : 1 456 pixels
    . F& J1 C$ V: {& l# C& O
  12. Height                                   : 1 080 pixels
    2 B# P' @! z$ v* h
  13. Display aspect ratio                     : 4:34 D" p. q2 G/ M+ x; u! E; j( ]& P
  14. Frame rate mode                          : Constant8 ]( D1 k! B  a5 v0 h
  15. Frame rate                               : 23.976 fps" [+ O$ F; c3 ?7 `, o* P/ g
  16. Color space                              : YUV
    : Q$ s5 r) x+ Y5 d' N
  17. Chroma subsampling                       : 4:2:0, O3 b; C; M1 g: x! L. _
  18. Bit depth                                : 8 bits( ^' c2 U# I5 l/ J
  19. Scan type                                : Progressive' [3 H6 A0 e; Q: q: B
  20. Bits/(Pixel*Frame)                       : 0.268
    2 p4 E- \& A  t" Y/ i
  21. Stream size                              : 5.58 GiB (85%)
    ) w4 B$ E7 A9 |6 t, ~$ Y+ N$ E
  22. Writing library                          : x264 core 128 r2216 198a7ea0 T9 q4 G8 w! O8 r
  23. Encoding settings                        : cabac=1 / ref=5 / deblock=1:0:0 / analyse=0x3:0x113 / me=umh / subme=8 / psy=1 / psy_rd=1.00:0.00 / mixed_ref=1 / me_range=16 / chroma_me=1 / trellis=1 / 8x8dct=1 / cqm=0 / deadzone=21,11 / fast_pskip=1 / chroma_qp_offset=-2 / threads=12 / lookahead_threads=2 / sliced_threads=0 / nr=0 / decimate=1 / interlaced=0 / bluray_compat=0 / constrained_intra=0 / bframes=3 / b_pyramid=2 / b_adapt=2 / b_bias=0 / direct=3 / weightb=1 / open_gop=0 / weightp=2 / keyint=240 / keyint_min=24 / scenecut=40 / intra_refresh=0 / rc_lookahead=50 / rc=2pass / mbtree=1 / bitrate=10109 / ratetol=1.0 / qcomp=0.60 / qpmin=0 / qpmax=69 / qpstep=4 / cplxblur=20.0 / qblur=0.5 / ip_ratio=1.40 / aq=1:1.00. U0 a0 V) v2 V: S; T/ e+ b( u! q7 n
  24. Language                                 : English
    , g7 j% V8 ]7 B2 z# r
  25. Default                                  : Yes" t7 H- e. `: H( d6 q$ W
  26. Forced                                   : No, K6 C! {. s7 l& a4 B" f1 F
  27. 5 @& ]% ?& b( N: X- f# q( z! {. |
  28. Audio
    * \7 }. g: m/ L; j, C+ F
  29. ID                                       : 2+ i/ o! I& S" z9 ?
  30. Format                                   : DTS
    4 h7 W6 M1 L) X6 h% b4 {% e
  31. Format/Info                              : Digital Theater Systems! h* h; o! ?. q8 t- B
  32. Mode                                     : 16( V2 ^8 \% j  d
  33. Format settings, Endianness              : Big1 o+ C2 K7 ~; k* r  {5 g/ _
  34. Codec ID                                 : A_DTS
    " z$ v. G; g- U& r/ L3 a- m  Z) C
  35. Duration                                 : 1h 20mn8 U4 D- W' L, ^" y
  36. Bit rate mode                            : Constant! X) A- b( r# j  r9 G
  37. Bit rate                                 : 1 509 Kbps
      p1 H) [( {6 |+ `; k  y+ d6 x! X
  38. Channel(s)                               : 6 channels
    % {5 [  P+ T- q0 ~; ~
  39. Channel(s)_Original                      : 2 channels1 ^! D! j( h" r7 a) g! Y
  40. Channel positions                        : Front: L R
    7 y& t- C5 S$ Z+ n$ H& a/ n# r
  41. Sampling rate                            : 48.0 KHz
    4 b3 E7 a- ], j; ^
  42. Bit depth                                : 24 bits0 B9 c8 u7 r& i( i- X( X$ s7 G
  43. Compression mode                         : Lossy
    0 P- k( G/ I5 m& T; k
  44. Stream size                              : 872 MiB (13%)
      g6 M* J. [6 W) ?
  45. Language                                 : English
    - c9 x/ E+ d5 g) o0 u+ g+ [
  46. Default                                  : Yes  G, {7 a6 d8 D  ?
  47. Forced                                   : No
    2 p' E$ f& A! {8 R: [3 X
  48. : x8 J! r) z& A& ?. r" O3 k) ^
  49. Text
    # M! _6 c# O# e7 {: j' T' h# M
  50. ID                                       : 3
    8 u  s/ n( D' o0 A5 G) G1 }3 \5 S  j
  51. Format                                   : UTF-86 {5 _  H, m/ K; {# w1 u
  52. Codec ID                                 : S_TEXT/UTF8! }$ g' i' R- q6 c
  53. Codec ID/Info                            : UTF-8 Plain Text
    2 p9 u6 l! ?; C& v  ~( A
  54. Language                                 : English
    # q) `" ?: V) s' s
  55. Default                                  : No3 h; o5 U/ h) B
  56. Forced                                   : No
复制代码

6 Y3 [$ }% q# _3 m Rope.1948.1080p.BluRay.X264-AMIABLE.mkv.jpg 8 P( K7 H( b' [. J# U, ?1 p
游客,如果您要查看本帖隐藏内容请回复  捐助论坛可免回复查看隐藏内容 详情请点击
最近访问 头像模式 列表模式
HD一条街,身边的一条街。
发表于 2015-12-1 09:33:23 | 显示全部楼层
看题目像是惊悚片噢,下载看看
HD一条街,身边的一条街。
发表于 2015-12-1 09:34:42 | 显示全部楼层
谢谢分享,题材很好的悬疑片
HD一条街,身边的一条街。
发表于 2015-12-1 10:29:28 | 显示全部楼层
希区柯克的无穷想象力让人佩服
HD一条街,身边的一条街。
发表于 2015-12-1 12:25:37 | 显示全部楼层
多谢楼主分享
HD一条街,身边的一条街。
发表于 2015-12-1 13:37:41 | 显示全部楼层
谢谢分享,看看
HD一条街,身边的一条街。
发表于 2015-12-1 20:16:48 | 显示全部楼层
好老的片子啦,支持一下!!!
HD一条街,身边的一条街。
头像被屏蔽
发表于 2015-12-1 23:26:48 | 显示全部楼层
提示: 作者被禁止或删除 内容自动屏蔽
HD一条街,身边的一条街。
发表于 2015-12-2 00:04:49 | 显示全部楼层
感觉年代好老额,不看了
HD一条街,身边的一条街。
发表于 2015-12-2 08:09:03 来自手机 | 显示全部楼层
希区柯克的长镜头拍摄手法确实令人叫绝。
HD一条街,身边的一条街。

手机版|小黑屋|有问题发邮件到admin#(换成@)hd1tj.org|微博|免责申明|HD一条街

GMT+8, 2017-3-26 13:34

Powered by Discuz! X3.1

© 2001-2013 Comsenz Inc.

快速回复 返回顶部 返回列表