开启辅助访问 切换到窄版

HD一条街论坛

 找回密码
 加入我们
查看: 326|回复: 16

[1080p] 【希区柯克10大经典悬疑】夺魂索.Rope.1948.1080p.BluRay.X264-AMIABLE 6.56G

[复制链接]
发表于 2015-12-1 08:59:54 | 显示全部楼层 |阅读模式
本帖最后由 秦焉 于 2015-12-1 08:59 编辑 6 o$ D9 R' I* F4 a! U
8 \0 g( P3 q; P! B+ s4 M
p2154845412.jpg ' W( p+ ^( ?# |) r& m! @9 J$ O
◎译  名 Rope
7 I; l4 n8 `5 k# o0 |! u" y8 ~" G◎片  名 夺魂索 / 绳索 / Alfred Hitchcock's Rope
' x5 H& H; W; @6 y5 o/ k; h6 H◎年  代 19487 A+ i) P( e  h% }
◎国  家 美国
' V* Z/ J" @' u◎类  别 悬疑 / 惊悚 / 犯罪8 d" A. q" d7 H. i
◎语  言 英语& q3 m5 K; N, c) B+ i
◎上映日期 1948-08-28
1 |: b6 s5 m, t& ]2 P- i8 p. E  y◎IMDb评分  8.0/10 from 90,411 users   4 _1 j5 ]! k; f$ e  r0 l, C" J# J
◎IMDb链接  http://www.imdb.com/title/tt0040746/
" K+ c3 ~! N0 x, ^, e1 B◎豆瓣评分 8.0/10 from 9,864 users  H( z/ U! i( F' ^3 _
◎豆瓣链接 http://movie.douban.com/subject/1301230/
$ N8 q$ c& A, `+ N0 u! `" p◎片  长 80 分钟
( q5 h4 {) q+ k( `+ p; S6 |$ H◎导  演 阿尔弗雷德·希区柯克 Alfred Hitchcock
- K3 j! a1 o# U% N- k6 G◎主  演 詹姆斯·斯图尔特 James Stewart" W$ B8 f# U' l( a) N8 D+ x& J
                   约翰·道尔 John Dall ' r) u8 x# G! J$ H" F8 W
                   法利·格兰杰 Farley Granger9 H5 t3 j% V' B, l4 D. p, u6 D
                   琼·钱德勒 Joan Chandler. q1 V; b! ]0 ~7 b8 x
                   道格拉斯·迪克 Douglas Dick& j; A! g7 ?( @. X! W
7 V1 x% D+ |0 p" T2 h4 D
◎剧情简介4 u$ B( B- m. C6 O) f
       博兰顿(约翰达尔John Dall 饰)和菲利普(法利格兰杰 Farley Granger 饰)都是哈佛的高才生,一天,都是同性恋的两人合谋杀害了同学戴维,并藏尸于一个大箱子中。或许是出于炫耀,他们做出了一个惊人的举动。那就是用装着戴维尸体的箱子当餐桌,邀请了戴维的父母、未婚妻、同学和茹伯特教授(詹姆斯斯图尔特 James Stewart 饰)来赴宴。他们谎称戴维外出了,和客人们在戴维的“棺材”上进行着宴会。胆小的菲利普从宴会开始就开始坐立不安,但是博兰顿却不慌不忙,在客人中滔滔不绝。然而,聪明的茹伯特教授从博兰顿的谈话中渐渐察觉出事有蹊跷……
) T# l4 R2 J8 b% F, y  Y& J1 y
4 e7 T3 \! \5 ~9 e- C5 k" b$ C8 L3 V* {
◎幕后花絮9 k, Z0 N, \+ k

. w, s0 t6 U5 i, O" \       本片根据著名案件改编,是希区柯克的一次大胆实验。希区柯克尤其钟爱长镜头,《夺魂索》中他把长镜头发挥到了极致,全片几乎不用剪辑,完全打破了蒙太奇的规则,没有切换,没有正反打,一个镜头从头到尾。影片的场面调度不容一点差错,好比舞台表演。希区柯克本人对它有特殊的感情。多年后,他要求销毁电影胶片,使观众长达20年无法看到本片。影史罕见的“一部电影只用一个镜头”的大胆实验,同时也是希区柯克的第一部彩色片。导演以流畅的镜头运动和无缝的剪接手法,将几个长达十多分钟的镜头巧妙地连接在一起。多数拍摄的衔接处采用了人物背部的全暗特写,但是仍有几处特意的镜头转换,很有冲击力。整部影片属于话剧加实验电影。该题材来自一个真实事件,1959年拍成《朱门孽种》(Compulsion,又译《凶杀学生》);1991年拍成《情迷意乱》(Swoon)。
: l" H- |  ^) B7 {, j( I( u, g" Q* X
◎制作手法
/ Q; R! h) c0 K  G' J$ Z/ C' ?* c4 U$ E# d6 j" S9 F" I! G7 V
       电影预告片由于希区考克在本片采用单一镜头的手法拍摄,但是当时一卷35毫米长度的电影底片只能录约10分钟。所以整部影片分成10个部份连续拍摄,每一部份的时间略少于10分钟。摄影时,一旦前一卷胶卷用完,就将摄影机停机,镜头对准某位演员(或者沙发、墙角)的背影,再换上新的胶卷。此时是彩色电影的早期,摄影机非常庞大,为了迁就摄影机的行动,镜头外的道具摆设其实不停的被搬移。! g0 ^: E9 Q9 W5 q( p7 o  v
       《夺魂索》的悬疑,不在对事件的存疑,而是对剧中人物心理变化的不确定。所以事件的谜底一开始就让观众知道,让观众可以全心贯注于观察剧中人物,后来希区考克另一部经典《迷魂记》也采取这样的风格。在《夺魂索》中,观众耳里听到的对白,不见得是眼中所看到的人事物。亚弗列德·希区考克用镜头掌控观众的视线──以及心理情绪。此种方式与希区考克另一部经典《后窗》不同,《后窗》大部分是以男主角的主观镜头(SUBJECT)呈现。
6 |  P9 U/ @" [8 o2 t0 i3 e% r; Y5 T; J
  1. Video
    + H! z" g. k5 v* V& V+ g
  2. ID                                       : 15 A8 }9 X" q" [0 ^, }
  3. Format                                   : AVC# Q2 ?* w4 Z5 x5 t( ~$ _+ F
  4. Format/Info                              : Advanced Video Codec
    * [2 I. L6 o8 Y9 _% F
  5. Format profile                           : [email protected]/ D- B8 s7 b) i
  6. Format settings, CABAC                   : Yes7 }$ W0 y# ]- v* N! [% M1 ]! M
  7. Format settings, ReFrames                : 5 frames
    ( q' a$ q9 ^9 ?' `
  8. Codec ID                                 : V_MPEG4/ISO/AVC
    / O# ?. W7 w3 M( ?+ Z
  9. Duration                                 : 1h 20mn$ r$ d1 T4 Y# k7 v- C
  10. Bit rate                                 : 10.1 Mbps
    ( ]) o( c, G: X. u3 }5 k5 D
  11. Width                                    : 1 456 pixels/ L1 T% `2 l, {% s
  12. Height                                   : 1 080 pixels
    % x! e% H1 d- g& f, ^$ j2 }
  13. Display aspect ratio                     : 4:3
    $ d3 ?( e/ H3 Z0 w4 J9 ]
  14. Frame rate mode                          : Constant' K5 i! z4 f, W# r7 Z* \+ ~
  15. Frame rate                               : 23.976 fps! V, G' O" ?2 t7 A- ^" A/ Q/ A% t
  16. Color space                              : YUV  O6 t0 J! n' ~7 I( j& G/ |
  17. Chroma subsampling                       : 4:2:0
    6 t  s$ [' f6 |" }1 k" f8 h- u4 w
  18. Bit depth                                : 8 bits
    6 _# }5 ?3 v  O: r
  19. Scan type                                : Progressive, p' H$ @" p  W  ?* o) z6 `
  20. Bits/(Pixel*Frame)                       : 0.268
      D. `$ p7 M* r! }
  21. Stream size                              : 5.58 GiB (85%)
    : n: w3 e4 q$ Q( _: X
  22. Writing library                          : x264 core 128 r2216 198a7ea
    6 f7 J7 Q- k8 ]* C' e/ z7 K3 M
  23. Encoding settings                        : cabac=1 / ref=5 / deblock=1:0:0 / analyse=0x3:0x113 / me=umh / subme=8 / psy=1 / psy_rd=1.00:0.00 / mixed_ref=1 / me_range=16 / chroma_me=1 / trellis=1 / 8x8dct=1 / cqm=0 / deadzone=21,11 / fast_pskip=1 / chroma_qp_offset=-2 / threads=12 / lookahead_threads=2 / sliced_threads=0 / nr=0 / decimate=1 / interlaced=0 / bluray_compat=0 / constrained_intra=0 / bframes=3 / b_pyramid=2 / b_adapt=2 / b_bias=0 / direct=3 / weightb=1 / open_gop=0 / weightp=2 / keyint=240 / keyint_min=24 / scenecut=40 / intra_refresh=0 / rc_lookahead=50 / rc=2pass / mbtree=1 / bitrate=10109 / ratetol=1.0 / qcomp=0.60 / qpmin=0 / qpmax=69 / qpstep=4 / cplxblur=20.0 / qblur=0.5 / ip_ratio=1.40 / aq=1:1.00
    # i1 Q. x4 s" S' D# y9 |, j
  24. Language                                 : English
    / Z+ K+ P$ `9 j; ^, o- R- Z; d
  25. Default                                  : Yes  t2 p( u+ ~1 y3 k  t" r% v! b/ k; n
  26. Forced                                   : No
    , Z8 i+ y5 b7 g  R% k
  27. % v5 i$ D: v# ~1 P, U, P9 Z
  28. Audio7 B9 J3 t. f" n
  29. ID                                       : 28 A$ j- Z* g6 Z: ^
  30. Format                                   : DTS* B0 _& Z. A7 Y3 S" `- D4 A9 Y& H! e
  31. Format/Info                              : Digital Theater Systems
    " v. U4 a) c1 m% W; S% j- {
  32. Mode                                     : 16% t! {& q7 J, S6 E/ y, ~( e( z5 h6 _
  33. Format settings, Endianness              : Big
    : q( A9 r( }: [
  34. Codec ID                                 : A_DTS
    / S" k1 S% A% F# c: K0 D
  35. Duration                                 : 1h 20mn
    ' {% ]4 a9 R3 I% E) W+ S7 x$ p- I
  36. Bit rate mode                            : Constant
    : j! N& L* B3 h3 @- e5 v
  37. Bit rate                                 : 1 509 Kbps/ h- f) w" m! s
  38. Channel(s)                               : 6 channels  H( y7 R2 e9 F: V) \% Q4 e2 w+ p
  39. Channel(s)_Original                      : 2 channels
    % R$ Z( @) A* f# t5 R
  40. Channel positions                        : Front: L R
    : h$ z) V( P% t% W5 _& x
  41. Sampling rate                            : 48.0 KHz. ?' R% C  H! R( C9 k8 Z
  42. Bit depth                                : 24 bits( j' J- n7 }9 A, _. ~4 c
  43. Compression mode                         : Lossy4 N: X' r: O1 j/ ^, e8 R- S
  44. Stream size                              : 872 MiB (13%)
    & _0 X/ c7 p/ |' Q+ `6 R
  45. Language                                 : English
    ) D, K+ P* }6 M  U
  46. Default                                  : Yes
    ; U( Q4 n3 `: d* s# ]) Z# w7 T
  47. Forced                                   : No
    . C" Q/ S7 ]+ @, m7 J5 q8 f1 v

  48. 9 |, X6 l9 E$ v) D
  49. Text
    $ G0 b, ?1 b$ X8 Y1 \
  50. ID                                       : 3
    0 _4 m' r, e; k% a0 t( i+ t
  51. Format                                   : UTF-80 G5 F! `1 \$ z) B$ P$ ~
  52. Codec ID                                 : S_TEXT/UTF8
    9 G& ]% n' r% B% m7 f+ @  j5 ]
  53. Codec ID/Info                            : UTF-8 Plain Text( ]' D0 @4 ~4 i, N4 U; |/ u
  54. Language                                 : English* ^* O8 C' x0 K) o: n- L. a
  55. Default                                  : No8 ^3 o& f4 V: b0 w6 G
  56. Forced                                   : No
复制代码
6 ?4 w6 X! ^9 J2 |4 L* \' D# X
Rope.1948.1080p.BluRay.X264-AMIABLE.mkv.jpg
  _+ Y) F  h- ^/ n. E  U
游客,如果您要查看本帖隐藏内容请回复  捐助论坛可免回复查看隐藏内容 详情请点击
最近访问 头像模式 列表模式
HD一条街,身边的一条街。
发表于 2015-12-1 09:33:23 | 显示全部楼层
看题目像是惊悚片噢,下载看看
HD一条街,身边的一条街。
发表于 2015-12-1 09:34:42 | 显示全部楼层
谢谢分享,题材很好的悬疑片
HD一条街,身边的一条街。
发表于 2015-12-1 10:29:28 | 显示全部楼层
希区柯克的无穷想象力让人佩服
HD一条街,身边的一条街。
发表于 2015-12-1 12:25:37 | 显示全部楼层
多谢楼主分享
HD一条街,身边的一条街。
发表于 2015-12-1 13:37:41 | 显示全部楼层
谢谢分享,看看
HD一条街,身边的一条街。
发表于 2015-12-1 20:16:48 | 显示全部楼层
好老的片子啦,支持一下!!!
HD一条街,身边的一条街。
头像被屏蔽
发表于 2015-12-1 23:26:48 | 显示全部楼层
提示: 作者被禁止或删除 内容自动屏蔽
HD一条街,身边的一条街。
发表于 2015-12-2 00:04:49 | 显示全部楼层
感觉年代好老额,不看了
HD一条街,身边的一条街。
发表于 2015-12-2 08:09:03 来自手机 | 显示全部楼层
希区柯克的长镜头拍摄手法确实令人叫绝。
HD一条街,身边的一条街。
您需要登录后才可以回帖 登录 | 加入我们

本版积分规则

手机版|小黑屋|有问题发邮件到admin#(换成@)hd1tj.org|微博|免责申明|HD一条街

GMT+8, 2017-2-28 11:26

Powered by Discuz! X3.1

© 2001-2013 Comsenz Inc.

快速回复 返回顶部 返回列表