开启辅助访问 切换到窄版

HD一条街论坛

 找回密码
 加入我们
查看: 303|回复: 16

[1080p] 【希区柯克10大经典悬疑】夺魂索.Rope.1948.1080p.BluRay.X264-AMIABLE 6.56G

[复制链接]
发表于 2015-12-1 08:59:54 | 显示全部楼层 |阅读模式
本帖最后由 秦焉 于 2015-12-1 08:59 编辑
; g$ L- Q+ b7 ^" S7 K+ e2 k8 l& J5 P, w0 X5 s$ Z8 }
p2154845412.jpg / X) B/ @/ H2 B" w
◎译  名 Rope6 J/ Y" z; r" c7 N
◎片  名 夺魂索 / 绳索 / Alfred Hitchcock's Rope
  ~1 ]; f' ^, L◎年  代 19483 a5 a' E8 O, v" S/ W
◎国  家 美国
( c8 r2 x* [4 r4 m) F3 y◎类  别 悬疑 / 惊悚 / 犯罪
6 z6 ]4 f2 S% v3 ~2 [- @8 @6 B◎语  言 英语
- q# O  T; [: e% G◎上映日期 1948-08-28( O( i! h" `. {9 [
◎IMDb评分  8.0/10 from 90,411 users   ) O" I( ?' l3 G3 k+ P9 `1 B
◎IMDb链接  http://www.imdb.com/title/tt0040746/3 @) V7 k  N( g5 f3 ^$ `
◎豆瓣评分 8.0/10 from 9,864 users
% O* [( x* a0 O" X9 }3 d- \* w◎豆瓣链接 http://movie.douban.com/subject/1301230/
6 p8 r% `2 @" N6 x" F+ W" B◎片  长 80 分钟4 s  w( n9 H! q: c; U! V2 d* M
◎导  演 阿尔弗雷德·希区柯克 Alfred Hitchcock( U; R2 }! R! z' D. ~4 o
◎主  演 詹姆斯·斯图尔特 James Stewart! e& Z6 }0 e# Q* N
                   约翰·道尔 John Dall ( b" m6 k% _2 t2 p6 ~" D( T# E* `
                   法利·格兰杰 Farley Granger2 _* _5 N4 {2 R
                   琼·钱德勒 Joan Chandler6 |6 u7 K0 ~1 `9 `
                   道格拉斯·迪克 Douglas Dick
! ?. M9 R6 g) t* p3 q& K6 T0 u1 R% M$ w! [
◎剧情简介. J* h  `0 w9 z7 g' J
       博兰顿(约翰达尔John Dall 饰)和菲利普(法利格兰杰 Farley Granger 饰)都是哈佛的高才生,一天,都是同性恋的两人合谋杀害了同学戴维,并藏尸于一个大箱子中。或许是出于炫耀,他们做出了一个惊人的举动。那就是用装着戴维尸体的箱子当餐桌,邀请了戴维的父母、未婚妻、同学和茹伯特教授(詹姆斯斯图尔特 James Stewart 饰)来赴宴。他们谎称戴维外出了,和客人们在戴维的“棺材”上进行着宴会。胆小的菲利普从宴会开始就开始坐立不安,但是博兰顿却不慌不忙,在客人中滔滔不绝。然而,聪明的茹伯特教授从博兰顿的谈话中渐渐察觉出事有蹊跷……
! v/ H: ^/ g7 ~3 t9 ~, t
. U; |3 k! T$ u9 k4 H# u
) ^' R3 M- V& g7 K' o8 D◎幕后花絮
! [  X* F1 V% `7 [5 U( p9 X  r0 H5 w8 n) P; }% v5 \3 t- A$ x- Q
       本片根据著名案件改编,是希区柯克的一次大胆实验。希区柯克尤其钟爱长镜头,《夺魂索》中他把长镜头发挥到了极致,全片几乎不用剪辑,完全打破了蒙太奇的规则,没有切换,没有正反打,一个镜头从头到尾。影片的场面调度不容一点差错,好比舞台表演。希区柯克本人对它有特殊的感情。多年后,他要求销毁电影胶片,使观众长达20年无法看到本片。影史罕见的“一部电影只用一个镜头”的大胆实验,同时也是希区柯克的第一部彩色片。导演以流畅的镜头运动和无缝的剪接手法,将几个长达十多分钟的镜头巧妙地连接在一起。多数拍摄的衔接处采用了人物背部的全暗特写,但是仍有几处特意的镜头转换,很有冲击力。整部影片属于话剧加实验电影。该题材来自一个真实事件,1959年拍成《朱门孽种》(Compulsion,又译《凶杀学生》);1991年拍成《情迷意乱》(Swoon)。! r, l, S: A* @7 Z: ]# y+ Y1 |

9 h* K/ _! V) [! D. B0 S◎制作手法
, w4 k( a) I" O  G7 [' g
1 D% n( D% }0 O" Y/ L       电影预告片由于希区考克在本片采用单一镜头的手法拍摄,但是当时一卷35毫米长度的电影底片只能录约10分钟。所以整部影片分成10个部份连续拍摄,每一部份的时间略少于10分钟。摄影时,一旦前一卷胶卷用完,就将摄影机停机,镜头对准某位演员(或者沙发、墙角)的背影,再换上新的胶卷。此时是彩色电影的早期,摄影机非常庞大,为了迁就摄影机的行动,镜头外的道具摆设其实不停的被搬移。6 N' {4 d4 d8 G" Q
       《夺魂索》的悬疑,不在对事件的存疑,而是对剧中人物心理变化的不确定。所以事件的谜底一开始就让观众知道,让观众可以全心贯注于观察剧中人物,后来希区考克另一部经典《迷魂记》也采取这样的风格。在《夺魂索》中,观众耳里听到的对白,不见得是眼中所看到的人事物。亚弗列德·希区考克用镜头掌控观众的视线──以及心理情绪。此种方式与希区考克另一部经典《后窗》不同,《后窗》大部分是以男主角的主观镜头(SUBJECT)呈现。
9 ?( [. Y, Z( }4 n  j+ K
  p. ]& d; |( W$ x$ z! S# J
  1. Video+ z" k4 y, G  b0 S2 g
  2. ID                                       : 1# l" _0 Y9 B* M& J  K  f" E
  3. Format                                   : AVC9 V" ?3 S! _( T, t
  4. Format/Info                              : Advanced Video Codec2 |) I) ]# m7 |0 s. I. u9 n8 X
  5. Format profile                           : [email protected]
      n8 c$ d$ R" z0 \, z
  6. Format settings, CABAC                   : Yes, Q+ F  |+ ?4 F$ ^5 P0 \
  7. Format settings, ReFrames                : 5 frames  W  ^$ f' ?) C3 K! K/ h
  8. Codec ID                                 : V_MPEG4/ISO/AVC
    8 _2 w; Z4 Z1 p, `$ ~! R8 e
  9. Duration                                 : 1h 20mn$ J9 p+ {( b- N* f% R) H3 s$ _' Q
  10. Bit rate                                 : 10.1 Mbps& D1 Z# v0 F0 a, c  L
  11. Width                                    : 1 456 pixels
    7 u8 z8 F8 A$ t# h
  12. Height                                   : 1 080 pixels
      G4 |* I0 V% ?4 ~* _
  13. Display aspect ratio                     : 4:3
    * G& K) Y4 S) q2 t+ w! C- H
  14. Frame rate mode                          : Constant
    ( M, C6 P9 @  w) \% w
  15. Frame rate                               : 23.976 fps3 a& y1 `) h( S3 [8 y
  16. Color space                              : YUV/ c! q- \' H9 ~  ~, r
  17. Chroma subsampling                       : 4:2:0$ h8 U/ i2 f6 |
  18. Bit depth                                : 8 bits
    , |( v0 {2 g/ \# }- J* d' {
  19. Scan type                                : Progressive
    0 z6 Y) K. F9 y1 w% R- ?
  20. Bits/(Pixel*Frame)                       : 0.268
    ( u* {4 ?8 I$ k/ t1 t
  21. Stream size                              : 5.58 GiB (85%)# I% H9 p' \& v5 |* w" O
  22. Writing library                          : x264 core 128 r2216 198a7ea8 Z- y( v7 l6 H& u: u: T. i
  23. Encoding settings                        : cabac=1 / ref=5 / deblock=1:0:0 / analyse=0x3:0x113 / me=umh / subme=8 / psy=1 / psy_rd=1.00:0.00 / mixed_ref=1 / me_range=16 / chroma_me=1 / trellis=1 / 8x8dct=1 / cqm=0 / deadzone=21,11 / fast_pskip=1 / chroma_qp_offset=-2 / threads=12 / lookahead_threads=2 / sliced_threads=0 / nr=0 / decimate=1 / interlaced=0 / bluray_compat=0 / constrained_intra=0 / bframes=3 / b_pyramid=2 / b_adapt=2 / b_bias=0 / direct=3 / weightb=1 / open_gop=0 / weightp=2 / keyint=240 / keyint_min=24 / scenecut=40 / intra_refresh=0 / rc_lookahead=50 / rc=2pass / mbtree=1 / bitrate=10109 / ratetol=1.0 / qcomp=0.60 / qpmin=0 / qpmax=69 / qpstep=4 / cplxblur=20.0 / qblur=0.5 / ip_ratio=1.40 / aq=1:1.00/ [- @6 L8 G$ H; c0 p+ h
  24. Language                                 : English# ~" i* b1 j: e# ?: H
  25. Default                                  : Yes! z# ~. Q: w" z  \  S) e) F, Q
  26. Forced                                   : No
    5 ?0 Z( ~% _' I0 p4 n% J4 F

  27. ! R. b" [1 B: S/ q0 y
  28. Audio/ E  G/ [# e, A- i: S: Z
  29. ID                                       : 2
    , {% u, n4 C& U3 c. w) W
  30. Format                                   : DTS" S* `5 o( {) r& _9 A
  31. Format/Info                              : Digital Theater Systems
    4 P) Z' Q2 J5 z( J4 M5 w
  32. Mode                                     : 16
    * J5 b0 [8 E) A, a! s
  33. Format settings, Endianness              : Big
    3 @# g) i# J+ W3 g( R, F/ |
  34. Codec ID                                 : A_DTS2 u( u6 s) S# U2 N2 i' I9 m
  35. Duration                                 : 1h 20mn
    & {6 Z' |$ z! d8 t( K
  36. Bit rate mode                            : Constant1 I, o9 o& I3 O
  37. Bit rate                                 : 1 509 Kbps
    2 C# T5 l& e- i3 S; K
  38. Channel(s)                               : 6 channels' h3 `  l/ w+ q& K3 ?+ `
  39. Channel(s)_Original                      : 2 channels
    ( E* Z9 [( o5 {2 s4 e" a7 H( H( {
  40. Channel positions                        : Front: L R
    / m. h( s; C; l# m7 H, ]4 G0 \1 Q
  41. Sampling rate                            : 48.0 KHz) u+ t& h1 ]# z$ p) l1 m0 S) m" t8 g
  42. Bit depth                                : 24 bits8 a' k/ r+ c: O: v7 a" \
  43. Compression mode                         : Lossy
    $ D6 X: {# V6 Z. i
  44. Stream size                              : 872 MiB (13%)
    - m7 L4 F( F" o* o
  45. Language                                 : English9 ?0 S2 h% e7 J5 O% R
  46. Default                                  : Yes/ w2 H+ g# L. X/ {2 i* }% o( ~* j
  47. Forced                                   : No
    ' {" m6 Z$ h! v7 H! K& r8 q

  48. & y, N0 b$ f$ ~5 Q( |4 q4 u
  49. Text
    " U, b) T; J5 Z+ l
  50. ID                                       : 3- X$ e! M. s, Z8 b8 {
  51. Format                                   : UTF-8
    7 E" ?. u. ?% R* S: j
  52. Codec ID                                 : S_TEXT/UTF8
    1 [4 `* f6 a* y$ L
  53. Codec ID/Info                            : UTF-8 Plain Text
    ( H- [0 A# _+ n- t6 Z* b
  54. Language                                 : English
    . M) y5 T; M* k1 L) N2 ^+ A
  55. Default                                  : No- E' M( C. M6 Z# |5 {/ ~
  56. Forced                                   : No
复制代码

+ E1 b4 o6 r# D* J  ]" D+ T$ d Rope.1948.1080p.BluRay.X264-AMIABLE.mkv.jpg
% ?( N! T# Z+ l+ _8 N
游客,如果您要查看本帖隐藏内容请回复  捐助论坛可免回复查看隐藏内容 详情请点击
最近访问 头像模式 列表模式
HD一条街,身边的一条街。
发表于 2015-12-1 09:33:23 | 显示全部楼层
看题目像是惊悚片噢,下载看看
HD一条街,身边的一条街。
发表于 2015-12-1 09:34:42 | 显示全部楼层
谢谢分享,题材很好的悬疑片
HD一条街,身边的一条街。
发表于 2015-12-1 10:29:28 | 显示全部楼层
希区柯克的无穷想象力让人佩服
HD一条街,身边的一条街。
发表于 2015-12-1 12:25:37 | 显示全部楼层
多谢楼主分享
HD一条街,身边的一条街。
发表于 2015-12-1 13:37:41 | 显示全部楼层
谢谢分享,看看
HD一条街,身边的一条街。
发表于 2015-12-1 20:16:48 | 显示全部楼层
好老的片子啦,支持一下!!!
HD一条街,身边的一条街。
头像被屏蔽
发表于 2015-12-1 23:26:48 | 显示全部楼层
提示: 作者被禁止或删除 内容自动屏蔽
HD一条街,身边的一条街。
发表于 2015-12-2 00:04:49 | 显示全部楼层
感觉年代好老额,不看了
HD一条街,身边的一条街。
发表于 2015-12-2 08:09:03 来自手机 | 显示全部楼层
希区柯克的长镜头拍摄手法确实令人叫绝。
HD一条街,身边的一条街。
您需要登录后才可以回帖 登录 | 加入我们

本版积分规则

手机版|小黑屋|有问题发邮件到admin#(换成@)hd1tj.org|微博|免责申明|HD一条街

GMT+8, 2017-1-23 12:34

Powered by Discuz! X3.1

© 2001-2013 Comsenz Inc.

快速回复 返回顶部 返回列表