开启辅助访问 切换到窄版

HD一条街论坛

 找回密码
 立即注册
搜索
查看: 205|回复: 8

[1080p] 【希区柯克10大经典悬疑】迷魂记.Vertigo.1958.1080p.BluRay.X264-AMIABLE 9.84G

[复制链接]
发表于 2015-11-30 11:44:49 | 显示全部楼层 |阅读模式
本帖最后由 秦焉 于 2015-11-30 12:42 编辑
: _" a( C$ R6 Y) K  ]; P4 m" g3 L
' j; ?6 I' X4 G5 N1 _' l6 ` p1275143149.jpg
; Z# I, F, @* V7 p/ Z# g7 F6 e  O# e8 i1 E6 u5 U9 X
◎译  名 Vertigo
. Q) R. _; E- V; w- K! J◎片  名 迷魂记 /  眩晕 / Alfred Hitchcock's Vertigo
) h$ C5 h- P+ d: @◎年  代 1958
% Y) c/ Q8 {3 G0 w. x. `# z◎国  家 美国# T) a0 b; V5 `5 k* y
◎类  别 爱情 / 悬疑 / 惊悚6 ~; m6 N) ^" ]( n5 k4 s' X5 z
◎语  言 英语
+ h8 W# h5 s* c2 U7 Q; S◎上映日期 1958-05-09
3 X. b( |$ e6 f◎IMDb评分  8.4/10 from 228,192 users   
# ]  T2 Y' F: W) F( e' }1 R1 D◎IMDb链接  http://www.imdb.com/title/tt0052357/. `+ C' [2 s$ G% ^& {$ b8 x' W% {3 V
◎豆瓣评分 8.5/10 from 25,977 users
3 J$ i: I7 e1 F◎豆瓣链接 http://movie.douban.com/subject/1297294/
! s1 K$ Z+ K4 L  V◎片  长 128 分钟8 ~# `; S, O# \
◎导  演 阿尔弗雷德·希区柯克 Alfred Hitchcock, x* O) p+ m8 I) S3 o8 K7 v
◎主  演 詹姆斯·斯图尔特 James Stewart5 y3 s. c& i9 E4 P
                   金·诺瓦克 Kim Novak
; [; M% z- y& }7 H                   芭芭拉·贝尔·戈迪斯 Barbara Bel Geddes
" O8 I6 U$ q( ?* h                   汤姆·赫尔莫 Tom Helmore
/ l1 W+ i1 E4 H- @8 ~
4 R3 R/ s: z0 |. }* d: n◎剧情简介  m( D/ C* P$ q9 A4 j4 h; @2 Z
& E  ~9 s1 ^8 }# x! ^9 Z! I
       警官斯考蒂(詹姆斯斯图尔特 James Stewart 饰)在一次行动中从高处失足掉下,虽然最终身体完全复原,但是却患上了恐高症。斯考蒂只好辞职当起了私家侦探。一天,同学加文找到斯考蒂,委托他去跟踪妻子玛伦(金蘒瓦克 Kim Novak 饰),因为玛伦似乎患了精神恐 惧症,而加文却认为她受了她去世的曾祖母的诅咒。尽管斯考蒂认为加文的想法十分天真,但他还是接下了这桩任务。玛伦的举止确实十分奇怪,她试过盯着曾祖母的画像看了几个小时,去过墓地,甚至还试图跳河自杀,幸好被斯考蒂救了。到底玛伦是真的受了诅咒,还是背后隐藏什么阴谋?8 y1 l  B% M4 ^7 c" e

1 P' N# N0 G/ r9 f◎拍摄花絮  ~  j! b; _9 G* x
! Z" v0 a( g) m0 n2 I
       ·影片在美国公映时恶评如潮,但现在却被认为是希区柯克的经典作品。" M2 n5 }, N# _4 X* ~6 k
       ·希区柯克最初想让维拉·迈尔斯来扮演马德琳一角,但因为她怀孕了而只得作罢。
, M6 r; c* g: u0 C+ L0 t       ·服装设计师Edith Head和导演希区柯克力图想使马德琳的服装给人怪诞不安的感觉。之所以选择灰色作为马德琳的标志性颜色,是因为他们认为让一个金发碧眼的女人从头到尾都穿成灰色一定会给人一种怪诞之感。同样的道理,他们让黑色的披巾和白色的外套搭配在一起也是因为这种奇怪的对比。9 L. k  Q; t; o! J# `8 ]9 X
       ·金·诺瓦克憎恨穿着那套重要的灰色服装,因为这让她感到非常拘束。但她逐渐地适应了这套服装,因为她将这套服装看作马德琳性格的一个重要的标志。
9 U+ T& y& H. X2 \       ·据说希区柯克曾花了一星期的时间拍摄马德琳在荣誉军团宫殿内盯着一幅画像看的镜头,期间他仅仅是为了追求将灯光调到合适的位置。
, s) l; x+ E* d       ·希区柯克照常露了一下脸:在影片的11分钟时,希区柯克穿着一身灰色的服装走过Gavin Elste的造船所。* v% U! s2 b; Z, S6 [
       ·在拍摄金·诺瓦克落水那场戏时,希区柯克发现他美丽的女主角一次又一次地跳进水里很好玩,而男主角詹姆斯·斯图尔特则尾随在后,并隔了一段距离观察。实际上这个镜头已经完美无缺了,但希区柯克仅仅为了寻开心才坚持拍了许多次。
% A, ^* L$ H" U0 D       ·影片遭到了商业上的失败,而最初评论的毁誉参半也让希区柯克感觉很不爽,于是他将影片的失败归结为男主角詹姆斯·斯图尔特那看上去“老气横秋”的外貌。) e: J1 {! q1 v7 F
       ·2007年,美国电影协会将此片评为“最伟大电影”(Greatest Movie of All Time)的第9名。: i5 S0 e$ o, ~! h/ q% G
       ·此片的海报被《首映》评为“25部最佳电影海报”(The 25 Best Movie Posters Ever)的第三名。* U) W1 T8 z. o$ o3 T% p
       ·2005年11月,该片被评为100部最伟大电影(Total Film's 100 Greatest Movies Of All Time)的第2名。  m8 m: F' P! c) r
- X$ _  b; x, }1 A& I
◎幕后制作" V# p# k3 b# b$ J9 d( ?

7 k0 f+ p, N8 ], ^) m" g       《迷魂计》是希区柯克作品中关于自我反省和自我揭露的代表作。它之所以成为希区柯克最经典作品之一,是因为其将恐高症、恋物癖、其他种种难以名状的边缘心理疾病和仪式化的行为以及施虐和受虐的倾向完美地整合到故事情节之中。正因为这样,有人认为这部电影也是希区柯克隐晦的一部自传作品,他试图借助幻想来取代现实,借助寻找失去的爱情来宣泄压抑在心中的困惑。0 d3 P' M  w) N/ k4 f
  《迷魂计》是让观众在猜想中眩晕的一次梦幻之旅,也是一场被虚无和情欲折磨的噩梦。希区柯克一反原著小说的布局,在影片的中间就试图给观众解迷,但按观众既定思维认可的结局却被希区柯克在无形中再次推翻,观众们以为已经看穿了故事,但其实只是更深地走进了希区柯克的迷局中,在这个似乎永远没有结尾的旋涡里胜利者是不存在的。在爱情中甜蜜的人其实连自己究竟爱的是谁都不知道,而他想得知真相就势必要永远失去所爱的女人。
7 O  v6 q) O; m4 ^  在这部心理剧里,希区柯克用不无苦涩的情感和扭曲的动机替代了纯粹的悬念;而幽默的缺席使得斯考蒂无情的宿命更加黑暗和痛心。希区柯克将具普遍性的情感,比如恐惧、内疚和情欲置放到普通人的身上,并将他们提炼成胜过语言的经典形象。
4 x! K# z% A) n, t( j, Q4 Y: X  希区柯克的影片,特别是这部《迷魂记》,影响了整整一代的电影制作人,从马丁·斯科塞斯到布莱恩·德·帕尔玛到大卫·林奇。许多评论家认为该片是悬念大师最伟大的成就,从技术的观点来看,《迷魂记》代表了导演在形式方面所达到的颠峰,是影片制作技巧的大突破,包括首次使用矮盘车搬动摄影机和保持物体焦距、迅速调整远近镜头的摄影技术等。6 I3 Z4 n3 g8 ?# \1 U7 N! Z
  斯考蒂的眩晕镜头实际上是希区柯克在影像上的革新:为了表现斯考蒂的眩晕,在将镜头的焦距往前拉的同时摄影机向后移,从而制造出迷失方向的眩晕感。这种描述恐高症心理的手法已成为模仿率颇高的经典镜头,被后来的人反复使用。影片在制造眩晕的效果上致力于缓慢和准确的把握,而不是人们所期望的那样是急速的旋转。Robert Burks的摄影从来都是不慌不忙的,但在此片中,即使是在最普通的影像里都隐藏着怪诞不安。在表现斯考蒂噩梦的处理上,希区柯克再次借鉴了表现主义的方法,光影的浓淡和色彩巧妙的渲染了气氛。随后画中人的假定出现,动画效果的花瓣碎落,惊恐万分的面部特写,这些极具超现实气质的表现手法令人惊愕不已。
) f# R% v- K- `( c$ a. m& Y; w- [, w/ K, k5 l, u* ]4 ^: Y: c

! b) z$ z: p/ q+ J" j$ V5 P
  1. Video
    # ^2 n) Z) \% F, L  h4 @  B
  2. ID                                       : 18 Z. S  |9 e# ?) l
  3. Format                                   : AVC4 V  ^. B( N- `
  4. Format/Info                              : Advanced Video Codec. N0 Z. j& R4 c( y8 @! |8 M
  5. Format profile                           : [email protected]0 M& Q$ f; y1 H& L
  6. Format settings, CABAC                   : Yes' q: ~* m6 N- m  m
  7. Format settings, ReFrames                : 4 frames; p$ `2 ?) \8 P! F6 t' }
  8. Codec ID                                 : V_MPEG4/ISO/AVC# }1 Q6 J  T$ g
  9. Duration                                 : 2h 8mn
    # S8 w8 d8 W* L2 E$ `
  10. Bit rate                                 : 9 455 Kbps
    ! D" {$ @" O/ \
  11. Width                                    : 1 920 pixels* N2 ^/ H" L1 ^. u+ a8 S( d) V9 j
  12. Height                                   : 1 040 pixels1 y2 m: ]+ T; j& f' |7 N
  13. Display aspect ratio                     : 1.85:11 ]; w' m$ c' n3 |0 Y  h2 O4 v
  14. Frame rate mode                          : Constant
    " r" D% f1 J7 u  x/ X: l' l0 o
  15. Frame rate                               : 23.976 fps6 C5 {0 l9 X6 J5 E8 N& J
  16. Color space                              : YUV! S4 B  }* c4 A7 F7 }( ^
  17. Chroma subsampling                       : 4:2:05 M) s* _1 }" Y" \
  18. Bit depth                                : 8 bits3 e0 {( R' j0 }5 {7 ?6 ]" _
  19. Scan type                                : Progressive
    ; n: {5 r' ?9 B
  20. Bits/(Pixel*Frame)                       : 0.197
    8 T4 e, o( v8 |4 m& r
  21. Stream size                              : 8.29 GiB (84%)- u5 C+ F: W; Z7 @; v0 J
  22. Writing library                          : x264 core 128 r2216 198a7ea0 O# Q# L) ]$ r7 M4 o! @' x
  23. Encoding settings                        : cabac=1 / ref=4 / deblock=1:0:0 / analyse=0x3:0x113 / me=umh / subme=8 / psy=1 / psy_rd=1.00:0.00 / mixed_ref=1 / me_range=16 / chroma_me=1 / trellis=1 / 8x8dct=1 / cqm=0 / deadzone=21,11 / fast_pskip=1 / chroma_qp_offset=-2 / threads=12 / lookahead_threads=2 / sliced_threads=0 / nr=0 / decimate=1 / interlaced=0 / bluray_compat=0 / constrained_intra=0 / bframes=3 / b_pyramid=2 / b_adapt=2 / b_bias=0 / direct=3 / weightb=1 / open_gop=0 / weightp=2 / keyint=240 / keyint_min=24 / scenecut=40 / intra_refresh=0 / rc_lookahead=50 / rc=2pass / mbtree=1 / bitrate=9455 / ratetol=1.0 / qcomp=0.60 / qpmin=0 / qpmax=69 / qpstep=4 / cplxblur=20.0 / qblur=0.5 / ip_ratio=1.40 / aq=1:1.00  F4 w  {# f8 |( C6 R2 r
  24. Language                                 : English
    : ^* T9 {) \% K" o: O' Y7 ]: i$ }8 c
  25. Default                                  : Yes, I9 V+ ~# \/ s9 ?5 w1 I) c
  26. Forced                                   : No
    1 t, S  r8 E. O. N. J
  27. 9 H$ p% K5 ?6 y4 H$ u& k: a3 b
  28. Audio- H" _" n, x) j8 h$ j- j3 g' e
  29. ID                                       : 2
    & Q! E/ h% j& c- g6 `7 U
  30. Format                                   : DTS6 T5 _1 N! l4 j; H/ n
  31. Format/Info                              : Digital Theater Systems2 O" h7 |/ ~2 l4 U; d. }3 p6 R
  32. Mode                                     : 162 n! f* l. E( K/ s; i7 Z
  33. Format settings, Endianness              : Big
    ) ^) ^! f/ k! U0 ?8 t
  34. Codec ID                                 : A_DTS4 H6 J' `, I% o" B- D/ I# {
  35. Duration                                 : 2h 8mn" d1 T/ B1 t, m' h. y+ u
  36. Bit rate mode                            : Constant
    6 v% M6 P* w- p. k# d/ a* ^" o( i* _
  37. Bit rate                                 : 1 509 Kbps
    ; C  b. i6 B0 ?8 L8 g
  38. Channel(s)                               : 6 channels
    ( Q, z1 G* h% D  t! l
  39. Channel positions                        : Front: L C R, Side: L R, LFE4 x" r1 |* |+ D0 }$ Z
  40. Sampling rate                            : 48.0 KHz
    ' B7 o5 c1 g5 @9 E# M: S
  41. Bit depth                                : 24 bits! Q4 c6 I, p1 v) p
  42. Compression mode                         : Lossy0 L3 M3 ~8 J' c7 ]
  43. Stream size                              : 1.35 GiB (14%)
    ! V9 h7 Q) P' E$ v! X8 i% U& D! |
  44. Language                                 : English  f. x7 d1 u+ d8 [# x$ n- m
  45. Default                                  : Yes
    $ i) g2 {" N2 |; \! F4 i3 F
  46. Forced                                   : No
    * m! l6 I5 `' s" `5 J' K; ]3 q* E

  47. 2 J8 F0 i$ x; H1 }& ]
  48. Text. n, e& l& j' N
  49. ID                                       : 3
    0 v4 @& P# s' X" \1 T' m' E$ r
  50. Format                                   : UTF-8
    8 w) c0 v& `4 B) i
  51. Codec ID                                 : S_TEXT/UTF8
    1 V: A0 `: ?. ^: D' e6 G- E
  52. Codec ID/Info                            : UTF-8 Plain Text
    , ~; Q& S% ^& q; G  s8 `' ]) k
  53. Language                                 : English. i+ |1 \$ X7 F. V# w5 A
  54. Default                                  : No
    5 X$ a/ F2 S, z- O: b+ [* o% F
  55. Forced                                   : No
复制代码
3 I5 V$ \# f) ]" e3 b
6 Z: K' h* E' u& o( r
Vertigo.1958.1080p.BluRay.X264-AMIABLE.mkv.jpg # H3 i" j4 D) m! g

1 }' d  ?! q+ ^0 n, [* E) F1 ?
游客,如果您要查看本帖隐藏内容请回复  捐助论坛可免回复查看隐藏内容 详情请点击
最近访问 头像模式 列表模式
HD一条街,身边的一条街。
发表于 2015-11-30 12:36:04 | 显示全部楼层
看看,谢谢分享
HD一条街,身边的一条街。
发表于 2015-11-30 12:52:26 | 显示全部楼层
悬疑的看着很累。
HD一条街,身边的一条街。
发表于 2015-11-30 12:54:45 | 显示全部楼层
谢谢分享外国电影
HD一条街,身边的一条街。
发表于 2015-12-2 21:37:05 | 显示全部楼层
十大经典值得一看噢 谢谢楼主分享
HD一条街,身边的一条街。
lxf83th 该用户已被删除
发表于 2015-12-3 17:54:29 | 显示全部楼层
提示: 作者被禁止或删除 内容自动屏蔽
HD一条街,身边的一条街。
发表于 2015-12-23 02:25:12 | 显示全部楼层
这些以前都看过,不过是黑白的
HD一条街,身边的一条街。
发表于 2016-1-10 11:51:07 | 显示全部楼层
神作一枚,剧情充满悬疑
HD一条街,身边的一条街。
发表于 2016-11-14 01:53:07 | 显示全部楼层
谢谢楼主分享!
HD一条街,身边的一条街。

手机版|小黑屋|有问题发邮件到admin#(换成@)hd1tj.org|微博|免责申明|HD一条街

GMT+8, 2017-4-25 22:48

Powered by Discuz! X3.1

© 2001-2013 Comsenz Inc.

快速回复 返回顶部 返回列表