开启辅助访问 切换到窄版

HD一条街论坛

 找回密码
 加入我们
查看: 150|回复: 5

[1080p] 【希区柯克10大经典悬疑】贵妇失踪记.The.Lady.Vanishes.1938.1080p.BluRay.x264.DD1.0-FGT 11.3G

[复制链接]
发表于 2015-11-30 11:24:10 | 显示全部楼层 |阅读模式
本帖最后由 秦焉 于 2015-11-30 11:35 编辑
; x4 P' t$ R/ u: z/ |9 A
- T! z  H3 R% L( N# v/ z6 N p2155703968.jpg & T  j6 d3 c/ p' H; W$ B5 b
5 @$ C0 r8 U8 r: T+ B5 [2 ?3 g
◎译  名 The Lady Vanishes ( B" w5 X/ k+ g% g' q
◎片  名 贵妇失踪记 /  失踪的女人 / 贵妇失踪案 / 失踪的贵妇
4 D! s7 m4 K, E6 B! Q! L1 \◎年  代 1938
; z. b+ f& S5 U, O5 m◎国  家 英国
8 q7 l) T" V. b6 U3 p◎类  别 喜剧 / 悬疑 / 惊悚
3 n* w% s) o6 |◎语  言 英语 / 德语 / 法语 / 意大利语. o. }$ r0 B" S9 @
◎上映日期 1938-11-01
# a, ^3 k: [8 X: u9 ]◎IMDb评分  8.0/10 from 34,212 users  
1 ]7 e" N  s) A2 E; Y/ h; z% B/ O◎IMDb链接  http://www.imdb.com/title/tt0030341/; y3 k/ R8 q$ V3 q4 N1 K
◎豆瓣评分 8.1/10 from 4,058 users1 _% t2 \; A- A4 p. H, Q
◎豆瓣链接 http://movie.douban.com/subject/1292760/7 m. p: u& a$ N# j* g; S
◎片  长 96 分钟2 F0 F( \6 Z1 G* B- U) `3 ?
◎导  演 阿尔弗雷德·希区柯克 Alfred Hitchcock
+ X) G9 Y: @4 }. P. ]) k9 N2 H◎主  演 玛格丽特·洛克伍德 Margaret Lockwood/ ~+ o/ K9 ~4 L; d0 U/ h
                   迈克尔·雷德格瑞夫 Michael Redgrave
( u7 W2 B" @8 x6 _" p9 x                   保罗·卢卡斯 Paul Lukas
+ e4 X2 ?1 U4 |8 k# M                   梅·惠蒂 Dame May Whitty& O3 n) p; e  V/ {
# i$ g; d% _$ G1 K4 g  Y( N
◎剧情简介
: l+ i* V& @  n$ l
: x! |3 t1 f8 B" n; i+ m; u  正要赶往伦敦完婚的凯莉(Margaret Lockwood)因雪崩被困在山下的小旅馆里,偶遇摄影记者康德(Michael Redgrave),两个人因小事发生争执,第二天大家各自赶路,却登上了同一列火车。 % S, B3 m( d  d# o( V, `# X! S% S
  在车上凯莉与一名老妇人佛洛伊(Dame May Whitty)结伴,彼此照料。然而凯莉因头部被撞,恍惚中沉沉睡去,待她醒来,老妇人不见了。四处寻找佛洛伊,却不见她的踪影,凯莉只好报警。出乎意料的是同车厢的每个人都说没见过什么老妇人,陷入困惑的凯莉再次遇到康德。康德相信凯莉,也感到事有蹊跷,两人渐渐和好,一起展开了调查。. B6 S: X/ R& ?7 ^2 q

# i/ H8 X$ t* N& m$ U  l◎幕后制作6 ?6 Y0 i. Q9 i; J% f
$ u$ O5 x2 w' {3 E' l7 C" T/ v
  本片是希区柯克在英国时期导演的名作之一,集喜剧、悬疑、惊险于一炉,在美国极受欢迎,引起好莱坞的注意,为日后希区柯克式惊悚电影奠立风格,对当时年轻制片人们也有很广大的影响。前二十分钟节奏慢,但随后慢慢开始加快故事进展速度,就像火车渐渐开快。明显地,希区柯克式的印象充斥本片,特别是他能够适宜的指挥驾驭他的演员们配何故事需要。本片演员众多,表演也非常出色,路易斯.利瓦伊创作的配乐也为本片增色不少。1979年的重拍版译名为《欧洲快车小姐不见了》(或《傻妹大闹列车》、《迷离列车》),风格偏搞笑。
& e4 M) W) o, r' q9 \; F1 ^. C; z  h3 y" }3 M* q3 a
  1. Video0 Y' p; Z3 C( q# B) d7 d
  2. ID                                       : 1
    , M$ Y3 K6 ~! R; d( f# n
  3. Format                                   : AVC
    : j, \1 s. a# c7 D' \0 G" T
  4. Format/Info                              : Advanced Video Codec6 b% d8 ~2 J& p6 ?' h
  5. Format profile                           : [email protected]
    ! j: X0 e1 r5 f' d  f
  6. Format settings, CABAC                   : Yes. ^+ Z) B7 t( o3 o4 h
  7. Format settings, ReFrames                : 5 frames
    6 O5 f7 F  C8 E& H# O( @' `
  8. Codec ID                                 : V_MPEG4/ISO/AVC
    & D/ o: l& D& d, H: |$ R2 T, f! Y  z
  9. Duration                                 : 1h 36mn9 j7 e, y, G; v' o2 _) u. o# R
  10. Bit rate                                 : 16.4 Mbps+ |* z) f1 P# H# X6 _
  11. Width                                    : 1 440 pixels  l! A# P# M4 H, ]8 W' E
  12. Height                                   : 1 080 pixels
    , Y3 H1 R( Y0 e8 M% ^- t3 o, P# k
  13. Display aspect ratio                     : 4:3
    / G6 a" C: C3 m' A
  14. Frame rate mode                          : Constant
    3 n7 k/ Y" ~' n% T
  15. Frame rate                               : 23.976 fps
    / l" z/ t+ n3 ^+ a
  16. Color space                              : YUV
    ) ?- w0 s3 ?7 k2 g+ v/ n0 B
  17. Chroma subsampling                       : 4:2:0
    + Q* [% U: H) Y+ S( @8 W, `. e
  18. Bit depth                                : 8 bits+ G% m0 {. s; a2 D% j9 C" ]
  19. Scan type                                : Progressive5 S: L1 o7 a- R! ~# o; d
  20. Bits/(Pixel*Frame)                       : 0.441
    7 V9 z- t' Q* |, `) _! a% _! f- S7 g% t
  21. Stream size                              : 10.8 GiB (95%)
    9 d5 z& Z9 ^; }8 \
  22. Writing library                          : x264 core 116 r2074 2641b9e
    ' z" X5 B3 _* T; D5 y  S  k
  23. Encoding settings                        : cabac=1 / ref=5 / deblock=1:-3:-3 / analyse=0x3:0x113 / me=umh / subme=11 / psy=1 / psy_rd=1.00:0.05 / mixed_ref=1 / me_range=48 / chroma_me=1 / trellis=2 / 8x8dct=1 / cqm=0 / deadzone=21,11 / fast_pskip=0 / chroma_qp_offset=-2 / threads=12 / sliced_threads=0 / nr=0 / decimate=1 / interlaced=0 / bluray_compat=0 / constrained_intra=0 / bframes=6 / b_pyramid=2 / b_adapt=2 / b_bias=0 / direct=3 / weightb=1 / open_gop=0 / weightp=2 / keyint=250 / keyint_min=23 / scenecut=40 / intra_refresh=0 / rc_lookahead=60 / rc=2pass / mbtree=1 / bitrate=16442 / ratetol=1.0 / qcomp=0.70 / qpmin=0 / qpmax=69 / qpstep=4 / cplxblur=20.0 / qblur=0.5 / vbv_maxrate=40000 / vbv_bufsize=30000 / nal_hrd=none / ip_ratio=1.40 / aq=2:0.90
    * _8 o* R! P- b. W7 f, @1 p, z
  24. Language                                 : English6 m2 P( e4 d8 J  K8 @: {& z
  25. Default                                  : Yes
    9 [. m- I$ J7 o6 W7 J4 |
  26. Forced                                   : No0 A/ e+ z- b$ Q6 t% T: t# v
  27. + |2 Z* f( o& i' ]. y/ e
  28. Audio
    " t, X- b# x+ ?  y
  29. ID                                       : 2
    3 g) g+ w8 D6 X* b  O
  30. Format                                   : AC-33 u; B7 [. l2 D( k; \; Z9 @/ g
  31. Format/Info                              : Audio Coding 3* Z  j  m$ [# g4 X9 [6 ~1 d
  32. Mode extension                           : CM (complete main): N- X6 x; L' A2 {9 e& K
  33. Format settings, Endianness              : Big
    . C. |+ r% d* F' E: F# w
  34. Codec ID                                 : A_AC3! z! d8 N. ~# k5 y$ m' ^
  35. Duration                                 : 1h 36mn" j; N$ v; a* r7 ~2 m) ~! w- ?" |
  36. Bit rate mode                            : Constant2 \1 u* e7 @4 F; _) m
  37. Bit rate                                 : 448 Kbps- R# o9 x: @/ A6 q3 F+ l
  38. Channel(s)                               : 1 channel
      ?& i8 l. u% z! K' Z& @0 q
  39. Channel positions                        : Front: C
    6 ?. d( P% A7 e' p4 a7 k# ]
  40. Sampling rate                            : 48.0 KHz3 e( u, P, f% u9 X
  41. Compression mode                         : Lossy* {2 D% M! A) [
  42. Stream size                              : 309 MiB (3%)
    ( r( q; I& D. m0 z' q
  43. Language                                 : English+ ^# w9 {# Y6 x+ t/ x: B3 A- w& g
  44. Default                                  : Yes
    $ N, E$ P4 k4 ]; A
  45. Forced                                   : No( |6 I" V- Y/ `/ g% p% M
  46. - w! `, R3 A  N* c" r4 o
  47. Text
    7 C. f' _8 y8 P$ c! Y% Y- W
  48. ID                                       : 3- {* T3 u/ R0 A, A/ G% F
  49. Format                                   : UTF-85 \# l2 M" E. C* |7 U  w
  50. Codec ID                                 : S_TEXT/UTF8& a& Q$ r8 o/ f
  51. Codec ID/Info                            : UTF-8 Plain Text; a* Q+ F2 Y1 e! e3 ]7 f
  52. Language                                 : English
    8 s; N7 v& z9 ^# F% q7 F9 K8 c
  53. Default                                  : Yes
    1 C& Z& A7 x. H0 P/ [
  54. Forced                                   : No
复制代码

4 Q. A+ ~- b/ c! r& T0 o
' o+ [. d" f1 W3 f' B: R7 W The.Lady.Vanishes.1938.1080p.BluRay.x264.DD1.0-FGT.mkv.jpg + `& s; a" }% G$ {- J
游客,如果您要查看本帖隐藏内容请回复  捐助论坛可免回复查看隐藏内容 详情请点击
最近访问 头像模式 列表模式
HD一条街,身边的一条街。
发表于 2015-11-30 12:33:07 | 显示全部楼层
经典啊,谢谢分享
HD一条街,身边的一条街。
发表于 2015-12-2 21:41:25 | 显示全部楼层
进来支持一下老电影 谢谢楼主分享
HD一条街,身边的一条街。
lxf83th 该用户已被删除
发表于 2015-12-3 17:56:23 | 显示全部楼层
提示: 作者被禁止或删除 内容自动屏蔽
HD一条街,身边的一条街。
发表于 2015-12-23 02:26:16 | 显示全部楼层
thank you very much
HD一条街,身边的一条街。
发表于 2016-1-6 15:27:50 | 显示全部楼层
去年BBC翻拍过,不过还是原来的更有精髓
HD一条街,身边的一条街。
您需要登录后才可以回帖 登录 | 加入我们

本版积分规则

手机版|小黑屋|有问题发邮件到admin#(换成@)hd1tj.org|微博|免责申明|HD一条街

GMT+8, 2017-1-20 19:57

Powered by Discuz! X3.1

© 2001-2013 Comsenz Inc.

快速回复 返回顶部 返回列表