开启辅助访问 切换到窄版

HD一条街论坛

 找回密码
 加入我们
查看: 161|回复: 5

[1080p] 【希区柯克10大经典悬疑】贵妇失踪记.The.Lady.Vanishes.1938.1080p.BluRay.x264.DD1.0-FGT 11.3G

[复制链接]
发表于 2015-11-30 11:24:10 | 显示全部楼层 |阅读模式
本帖最后由 秦焉 于 2015-11-30 11:35 编辑 % z1 W* c- K' u1 ^9 `* e" O
$ e+ a7 M% i8 f/ m* w: L# @
p2155703968.jpg * B+ |, Q0 U, ]- {2 G3 M! m

& c8 t- B& `7 N: [◎译  名 The Lady Vanishes
/ a0 ?/ Q1 f" o, L◎片  名 贵妇失踪记 /  失踪的女人 / 贵妇失踪案 / 失踪的贵妇8 J0 v7 W& i2 a" _# ~
◎年  代 1938
2 E5 A7 N+ D0 r+ ~◎国  家 英国
0 r1 v* Y2 D- z- u5 O8 w3 ^4 x/ c8 T◎类  别 喜剧 / 悬疑 / 惊悚
6 P' A5 I4 T# ~+ ~◎语  言 英语 / 德语 / 法语 / 意大利语
. R8 q; L: C2 \* b1 D◎上映日期 1938-11-01( `4 @, h6 T. T4 k8 C1 i
◎IMDb评分  8.0/10 from 34,212 users  3 Y9 J6 G$ Y3 F& d. n
◎IMDb链接  http://www.imdb.com/title/tt0030341/1 }4 w6 s9 t( f; M: a
◎豆瓣评分 8.1/10 from 4,058 users
! `% O7 j$ V0 L◎豆瓣链接 http://movie.douban.com/subject/1292760/3 M1 E6 F8 ^0 P: W7 g& ~
◎片  长 96 分钟0 w) S" b& y0 ^" H) D* _
◎导  演 阿尔弗雷德·希区柯克 Alfred Hitchcock! r# L& ]" J3 L& b# N7 C5 h5 E
◎主  演 玛格丽特·洛克伍德 Margaret Lockwood
% Z; c0 _% N" V9 _# `. J                   迈克尔·雷德格瑞夫 Michael Redgrave0 w% p8 h( K. A: \+ @- D
                   保罗·卢卡斯 Paul Lukas/ S' u% O, X1 m! O+ n2 ]7 f6 f! }
                   梅·惠蒂 Dame May Whitty
$ k4 {0 ^7 x0 x, g4 |# L/ j/ X/ c; Y3 d: J5 Z
◎剧情简介$ e! ~! H% M4 q$ O5 o% |

! M6 A4 ~& Y, z$ }  正要赶往伦敦完婚的凯莉(Margaret Lockwood)因雪崩被困在山下的小旅馆里,偶遇摄影记者康德(Michael Redgrave),两个人因小事发生争执,第二天大家各自赶路,却登上了同一列火车。 & E: H( e, W$ O. s6 b0 k2 ~; \
  在车上凯莉与一名老妇人佛洛伊(Dame May Whitty)结伴,彼此照料。然而凯莉因头部被撞,恍惚中沉沉睡去,待她醒来,老妇人不见了。四处寻找佛洛伊,却不见她的踪影,凯莉只好报警。出乎意料的是同车厢的每个人都说没见过什么老妇人,陷入困惑的凯莉再次遇到康德。康德相信凯莉,也感到事有蹊跷,两人渐渐和好,一起展开了调查。* h" H* X% v8 S% d: m; ]" h, u! J

6 z( r& b4 p/ T8 ~# i" }7 \◎幕后制作
. N3 m$ h: Y# M  a& T* }2 a$ f4 l7 ^6 T( b( j
  本片是希区柯克在英国时期导演的名作之一,集喜剧、悬疑、惊险于一炉,在美国极受欢迎,引起好莱坞的注意,为日后希区柯克式惊悚电影奠立风格,对当时年轻制片人们也有很广大的影响。前二十分钟节奏慢,但随后慢慢开始加快故事进展速度,就像火车渐渐开快。明显地,希区柯克式的印象充斥本片,特别是他能够适宜的指挥驾驭他的演员们配何故事需要。本片演员众多,表演也非常出色,路易斯.利瓦伊创作的配乐也为本片增色不少。1979年的重拍版译名为《欧洲快车小姐不见了》(或《傻妹大闹列车》、《迷离列车》),风格偏搞笑。
. x1 A) p/ S8 v0 X. m, ^9 b+ W% k$ Y2 H( C
  1. Video( ]5 d$ N( T( J, T
  2. ID                                       : 1$ l, X. D' g  f6 U1 a) H% w
  3. Format                                   : AVC
    1 m. W8 v% j4 V  j- ~
  4. Format/Info                              : Advanced Video Codec
    5 G2 s) B) y5 E6 j0 Z' _
  5. Format profile                           : [email protected]8 o9 z0 q2 ?" |- z
  6. Format settings, CABAC                   : Yes
    , d7 r7 }8 f" n7 g" d& l6 `
  7. Format settings, ReFrames                : 5 frames
    ! i+ X4 f! E) A
  8. Codec ID                                 : V_MPEG4/ISO/AVC
    , L; u$ D8 ^+ ]! J6 A& L* [
  9. Duration                                 : 1h 36mn' b1 ^, ~- L3 l8 ]7 k5 k
  10. Bit rate                                 : 16.4 Mbps
    8 g2 r: A$ O% A7 w/ i% p; {
  11. Width                                    : 1 440 pixels7 F/ B9 a$ }% k$ ~6 C5 n% k% H! m
  12. Height                                   : 1 080 pixels
    , f1 h  V, L+ Y" k7 C/ ?& d  N  A
  13. Display aspect ratio                     : 4:3
    9 c  v# r2 Q  W' N3 _  X
  14. Frame rate mode                          : Constant: z4 S0 J' E2 ]# F3 a7 D
  15. Frame rate                               : 23.976 fps8 F, C0 e# T* D- S9 a: c1 g
  16. Color space                              : YUV
    6 f2 T) n! W: L  A) v7 f
  17. Chroma subsampling                       : 4:2:0
    " l/ ~" _) k: b9 y
  18. Bit depth                                : 8 bits
    / M5 M7 D: V, D8 d" {
  19. Scan type                                : Progressive
    ; e- u0 \6 V5 L1 J0 S0 m/ w: \) r
  20. Bits/(Pixel*Frame)                       : 0.441
      s$ l7 Y" \% t0 L
  21. Stream size                              : 10.8 GiB (95%)5 _- }( Y1 l. z4 z. \4 c7 p
  22. Writing library                          : x264 core 116 r2074 2641b9e# v; N% U! ?1 f
  23. Encoding settings                        : cabac=1 / ref=5 / deblock=1:-3:-3 / analyse=0x3:0x113 / me=umh / subme=11 / psy=1 / psy_rd=1.00:0.05 / mixed_ref=1 / me_range=48 / chroma_me=1 / trellis=2 / 8x8dct=1 / cqm=0 / deadzone=21,11 / fast_pskip=0 / chroma_qp_offset=-2 / threads=12 / sliced_threads=0 / nr=0 / decimate=1 / interlaced=0 / bluray_compat=0 / constrained_intra=0 / bframes=6 / b_pyramid=2 / b_adapt=2 / b_bias=0 / direct=3 / weightb=1 / open_gop=0 / weightp=2 / keyint=250 / keyint_min=23 / scenecut=40 / intra_refresh=0 / rc_lookahead=60 / rc=2pass / mbtree=1 / bitrate=16442 / ratetol=1.0 / qcomp=0.70 / qpmin=0 / qpmax=69 / qpstep=4 / cplxblur=20.0 / qblur=0.5 / vbv_maxrate=40000 / vbv_bufsize=30000 / nal_hrd=none / ip_ratio=1.40 / aq=2:0.90
    & _! c  c4 e0 r2 \9 ?$ O
  24. Language                                 : English- e- q# F  o7 H" l. m8 y$ u3 s7 L
  25. Default                                  : Yes4 t2 ]' D$ f( ^* X2 y) r
  26. Forced                                   : No3 R: {' B* e  C' m, g$ X' R8 E0 b+ }
  27. # u9 F6 I: I8 d. C
  28. Audio
    ( {" e. O3 h% ?1 b% M  x
  29. ID                                       : 2
    : O$ d. J& f% |6 i6 I. v& x
  30. Format                                   : AC-3
    % D) M9 G/ W; a0 b% z. i1 T
  31. Format/Info                              : Audio Coding 3
    9 z/ x+ |- N( h! Q) z$ E7 h
  32. Mode extension                           : CM (complete main)
    & e! l8 d4 s* x% V. R, t+ Q
  33. Format settings, Endianness              : Big2 D$ G$ E  t. i/ j5 K
  34. Codec ID                                 : A_AC3; b* `- W' J; J; q) H( q" s' k$ b
  35. Duration                                 : 1h 36mn
    ) V; z- _1 V1 C! u
  36. Bit rate mode                            : Constant7 ]2 P' A. f; U
  37. Bit rate                                 : 448 Kbps: M! F/ c2 x( _: E+ E" ~6 `
  38. Channel(s)                               : 1 channel3 j" w. H% e% W
  39. Channel positions                        : Front: C
      ]3 n8 O  U1 u! d2 n% T- y
  40. Sampling rate                            : 48.0 KHz- t* d1 G" u$ u3 w" Q# w
  41. Compression mode                         : Lossy
    0 t) r! f) F0 G/ Z4 S1 J7 T# _
  42. Stream size                              : 309 MiB (3%)
    + O& i- n9 R1 r$ f& @4 J
  43. Language                                 : English& P& t) q1 G7 x" X6 B/ @* i
  44. Default                                  : Yes3 h+ T& f9 M$ T2 A6 U% A2 j; K
  45. Forced                                   : No/ ~# T7 T+ W5 p5 L0 x5 j2 o; N

  46. - n) X# I  ~$ E" W! G5 ]$ b: S& S
  47. Text
    0 M0 E8 {- X; U! Z6 t  Y$ y7 t8 k
  48. ID                                       : 31 G' }  Q$ n' W2 F3 o' ~. G
  49. Format                                   : UTF-8  u& E# X+ d! Y: ?
  50. Codec ID                                 : S_TEXT/UTF8( `4 P. i4 v& m3 W. J/ g9 s8 v8 L
  51. Codec ID/Info                            : UTF-8 Plain Text6 {: \/ u0 n0 v0 ^% Z% `  X; r9 G
  52. Language                                 : English: |) K. b8 t5 B4 ]/ C
  53. Default                                  : Yes
    5 K6 o  |% F) z% ]0 `
  54. Forced                                   : No
复制代码

8 q+ P$ ^: S8 }+ G/ B) Q' J8 y2 g. g3 @5 H( t: D2 j! L( }
The.Lady.Vanishes.1938.1080p.BluRay.x264.DD1.0-FGT.mkv.jpg
7 X. r5 z0 s! @
游客,如果您要查看本帖隐藏内容请回复  捐助论坛可免回复查看隐藏内容 详情请点击
最近访问 头像模式 列表模式
HD一条街,身边的一条街。
发表于 2015-11-30 12:33:07 | 显示全部楼层
经典啊,谢谢分享
HD一条街,身边的一条街。
发表于 2015-12-2 21:41:25 | 显示全部楼层
进来支持一下老电影 谢谢楼主分享
HD一条街,身边的一条街。
lxf83th 该用户已被删除
发表于 2015-12-3 17:56:23 | 显示全部楼层
提示: 作者被禁止或删除 内容自动屏蔽
HD一条街,身边的一条街。
发表于 2015-12-23 02:26:16 | 显示全部楼层
thank you very much
HD一条街,身边的一条街。
发表于 2016-1-6 15:27:50 | 显示全部楼层
去年BBC翻拍过,不过还是原来的更有精髓
HD一条街,身边的一条街。
您需要登录后才可以回帖 登录 | 加入我们

本版积分规则

手机版|小黑屋|有问题发邮件到admin#(换成@)hd1tj.org|微博|免责申明|HD一条街

GMT+8, 2017-2-23 06:06

Powered by Discuz! X3.1

© 2001-2013 Comsenz Inc.

快速回复 返回顶部 返回列表