开启辅助访问 切换到窄版

HD一条街论坛

 找回密码
 立即注册
搜索
查看: 193|回复: 5

[1080p] 【希区柯克10大经典悬疑】贵妇失踪记.The.Lady.Vanishes.1938.1080p.BluRay.x264.DD1.0-FGT 11.3G

[复制链接]
发表于 2015-11-30 11:24:10 | 显示全部楼层 |阅读模式
本帖最后由 秦焉 于 2015-11-30 11:35 编辑 . b4 ?4 J9 e3 \, f' }
  ~1 ]% L( ~+ i1 ^9 }3 {
p2155703968.jpg
$ x. g& C' ^5 r- }9 v9 z9 u2 E5 ]/ A* _8 @
◎译  名 The Lady Vanishes
  ~6 O$ ]- p1 |/ o◎片  名 贵妇失踪记 /  失踪的女人 / 贵妇失踪案 / 失踪的贵妇
; ?' h* }) g3 x5 I) k* `$ G◎年  代 1938# ]# n% b4 t& V7 V
◎国  家 英国
# L4 ?) k/ v1 b7 S◎类  别 喜剧 / 悬疑 / 惊悚
6 p9 a& m9 m/ @3 a1 f4 I5 K◎语  言 英语 / 德语 / 法语 / 意大利语- P: s2 J$ F) }! u2 ^+ w
◎上映日期 1938-11-01
% x9 s1 w5 C& r+ j◎IMDb评分  8.0/10 from 34,212 users  4 ?9 ~7 Q* E0 ~* E; S1 o+ D
◎IMDb链接  http://www.imdb.com/title/tt0030341/# v1 i; J+ h' \$ E5 {
◎豆瓣评分 8.1/10 from 4,058 users2 ~( Y8 q+ Z, B& L& W$ }
◎豆瓣链接 http://movie.douban.com/subject/1292760/% e# V$ M4 }% J' Y# t5 U
◎片  长 96 分钟
: J9 s" F) H* V1 W. `◎导  演 阿尔弗雷德·希区柯克 Alfred Hitchcock
$ b( D: m- i2 ~/ @) @5 {◎主  演 玛格丽特·洛克伍德 Margaret Lockwood0 I1 j0 i! M9 d
                   迈克尔·雷德格瑞夫 Michael Redgrave
5 R* x, p4 A8 F4 X% M& K                   保罗·卢卡斯 Paul Lukas
& m' c& Y; C* h0 l6 w' J  R                   梅·惠蒂 Dame May Whitty6 L* f' w. u2 @6 x" S

  m! H9 J3 e+ s' m8 [8 B◎剧情简介
; o" p! W& W1 X# z' m9 Y4 _% R( P8 d% e  \' h' O
  正要赶往伦敦完婚的凯莉(Margaret Lockwood)因雪崩被困在山下的小旅馆里,偶遇摄影记者康德(Michael Redgrave),两个人因小事发生争执,第二天大家各自赶路,却登上了同一列火车。 + c; R4 h4 \7 l( \& E
  在车上凯莉与一名老妇人佛洛伊(Dame May Whitty)结伴,彼此照料。然而凯莉因头部被撞,恍惚中沉沉睡去,待她醒来,老妇人不见了。四处寻找佛洛伊,却不见她的踪影,凯莉只好报警。出乎意料的是同车厢的每个人都说没见过什么老妇人,陷入困惑的凯莉再次遇到康德。康德相信凯莉,也感到事有蹊跷,两人渐渐和好,一起展开了调查。. f* I3 y( m- j6 y, {
$ X/ i) @, f# x) P/ p4 z
◎幕后制作
$ J0 R$ I5 j1 P% q& ^; ?9 V' y
! s# @4 g7 g4 U% s& T  本片是希区柯克在英国时期导演的名作之一,集喜剧、悬疑、惊险于一炉,在美国极受欢迎,引起好莱坞的注意,为日后希区柯克式惊悚电影奠立风格,对当时年轻制片人们也有很广大的影响。前二十分钟节奏慢,但随后慢慢开始加快故事进展速度,就像火车渐渐开快。明显地,希区柯克式的印象充斥本片,特别是他能够适宜的指挥驾驭他的演员们配何故事需要。本片演员众多,表演也非常出色,路易斯.利瓦伊创作的配乐也为本片增色不少。1979年的重拍版译名为《欧洲快车小姐不见了》(或《傻妹大闹列车》、《迷离列车》),风格偏搞笑。' ]& Q; q9 v" s& x
" v: S" |  V7 A7 K2 I6 {' |
  1. Video( \. L# n! W- Z, E8 r
  2. ID                                       : 1- z5 }: y% x& k' N
  3. Format                                   : AVC
    6 _% P& S$ q9 o* _
  4. Format/Info                              : Advanced Video Codec
    ( ], d& Y8 e# R" U& @( g; s2 g; O
  5. Format profile                           : [email protected]1 D8 d! x1 j2 V+ D1 z
  6. Format settings, CABAC                   : Yes
    : U5 d. c8 J" q3 k
  7. Format settings, ReFrames                : 5 frames
    7 J+ y% F7 H0 ~+ L& A# }" a
  8. Codec ID                                 : V_MPEG4/ISO/AVC
    6 T' ^, m3 B3 c  L& g: |8 {% }! |
  9. Duration                                 : 1h 36mn
    , Q* I/ o6 ?' V3 U
  10. Bit rate                                 : 16.4 Mbps
    8 x. q% _4 t8 ]. E
  11. Width                                    : 1 440 pixels  S1 y+ n% f, ^: s3 I3 E, ]
  12. Height                                   : 1 080 pixels
      t/ \6 O+ U- ]/ }$ w
  13. Display aspect ratio                     : 4:3
    + v2 \3 B* _) o7 i5 t* b  l' t* U0 {" m0 m
  14. Frame rate mode                          : Constant
    7 r3 L  T& b: D" U% z) ?
  15. Frame rate                               : 23.976 fps0 }3 ?1 {  Z# U6 q
  16. Color space                              : YUV, B/ T6 a+ I) l' H  V% y5 E% A. l# b$ L& b
  17. Chroma subsampling                       : 4:2:0& b# I( u1 M) E0 s3 S+ e
  18. Bit depth                                : 8 bits8 ?3 y. }" z- v( S. v+ w
  19. Scan type                                : Progressive1 A# w' U0 t% B( T4 l
  20. Bits/(Pixel*Frame)                       : 0.441' ?6 }, t+ L& m3 `/ ?, z
  21. Stream size                              : 10.8 GiB (95%)" ^2 h5 l. A! f
  22. Writing library                          : x264 core 116 r2074 2641b9e
    : O2 p# K% ~7 l' @0 v$ f' `
  23. Encoding settings                        : cabac=1 / ref=5 / deblock=1:-3:-3 / analyse=0x3:0x113 / me=umh / subme=11 / psy=1 / psy_rd=1.00:0.05 / mixed_ref=1 / me_range=48 / chroma_me=1 / trellis=2 / 8x8dct=1 / cqm=0 / deadzone=21,11 / fast_pskip=0 / chroma_qp_offset=-2 / threads=12 / sliced_threads=0 / nr=0 / decimate=1 / interlaced=0 / bluray_compat=0 / constrained_intra=0 / bframes=6 / b_pyramid=2 / b_adapt=2 / b_bias=0 / direct=3 / weightb=1 / open_gop=0 / weightp=2 / keyint=250 / keyint_min=23 / scenecut=40 / intra_refresh=0 / rc_lookahead=60 / rc=2pass / mbtree=1 / bitrate=16442 / ratetol=1.0 / qcomp=0.70 / qpmin=0 / qpmax=69 / qpstep=4 / cplxblur=20.0 / qblur=0.5 / vbv_maxrate=40000 / vbv_bufsize=30000 / nal_hrd=none / ip_ratio=1.40 / aq=2:0.908 b- h' S. D8 X
  24. Language                                 : English$ j: z  R5 V! S, l7 n$ k9 @3 H
  25. Default                                  : Yes
    9 o: |; X2 A! y- e# O0 ]# o
  26. Forced                                   : No
    , w+ `8 e3 |5 j) F2 c2 f0 `5 @- J9 D
  27. # ^% |, L4 I0 M$ R- `
  28. Audio
    . F9 C3 y3 n7 F* o+ F+ J0 R
  29. ID                                       : 2( D- L1 |& }2 d$ c! @
  30. Format                                   : AC-3
    / b3 R  E  Y- q) ^7 {* X7 ?4 S4 l! Y
  31. Format/Info                              : Audio Coding 36 q( K& X# M( D7 ?) m. x: e
  32. Mode extension                           : CM (complete main)# W/ [) u& k# _2 c6 k) w! O
  33. Format settings, Endianness              : Big" \" G3 c) x* x- A
  34. Codec ID                                 : A_AC39 l1 l0 s8 E9 H# V( p4 }# K/ ?
  35. Duration                                 : 1h 36mn) E- I0 D7 h% ^+ z0 G# A
  36. Bit rate mode                            : Constant
    # n4 y* s- m" \6 W+ J+ g' b
  37. Bit rate                                 : 448 Kbps
    7 \" g$ {! U/ ~6 V, I
  38. Channel(s)                               : 1 channel
    2 e" o0 b/ Q6 ]! z" p
  39. Channel positions                        : Front: C
    ; v% I- F1 k( X: f5 L
  40. Sampling rate                            : 48.0 KHz
    : Z* [" d4 ~# V9 u; z
  41. Compression mode                         : Lossy
    & ?. U, F" q/ H1 O* }- A
  42. Stream size                              : 309 MiB (3%)
    % ]5 |4 `$ U7 v' t5 y/ |
  43. Language                                 : English: D. q: h! w) @3 `6 F: W' R
  44. Default                                  : Yes8 \8 B! D( ^+ k1 R% w
  45. Forced                                   : No
    - g  b3 D3 H! K3 ?9 b* b7 s
  46. & u1 J& I) K1 M0 [9 _! V1 x. F
  47. Text8 D4 Z8 A6 a4 u- _
  48. ID                                       : 3
    ) d# Z; Y" P$ n4 _) L
  49. Format                                   : UTF-8
    5 n  ?1 o/ x6 r7 \4 V) h
  50. Codec ID                                 : S_TEXT/UTF8
    6 Z0 y5 O# G  Q* a  F3 c( r8 o1 R
  51. Codec ID/Info                            : UTF-8 Plain Text
    2 p7 z# D. p$ k- ~* [
  52. Language                                 : English, s  o- D2 Q# ^* [; C1 o
  53. Default                                  : Yes
    , c6 d4 @* _8 S9 X
  54. Forced                                   : No
复制代码
; h, n5 Q  @& E# s3 }

! t) c2 t7 M  J The.Lady.Vanishes.1938.1080p.BluRay.x264.DD1.0-FGT.mkv.jpg 8 k5 N, S" M& }2 P  Q
游客,如果您要查看本帖隐藏内容请回复  捐助论坛可免回复查看隐藏内容 详情请点击
最近访问 头像模式 列表模式
HD一条街,身边的一条街。
发表于 2015-11-30 12:33:07 | 显示全部楼层
经典啊,谢谢分享
HD一条街,身边的一条街。
发表于 2015-12-2 21:41:25 | 显示全部楼层
进来支持一下老电影 谢谢楼主分享
HD一条街,身边的一条街。
lxf83th 该用户已被删除
发表于 2015-12-3 17:56:23 | 显示全部楼层
提示: 作者被禁止或删除 内容自动屏蔽
HD一条街,身边的一条街。
发表于 2015-12-23 02:26:16 | 显示全部楼层
thank you very much
HD一条街,身边的一条街。
发表于 2016-1-6 15:27:50 | 显示全部楼层
去年BBC翻拍过,不过还是原来的更有精髓
HD一条街,身边的一条街。

手机版|小黑屋|有问题发邮件到admin#(换成@)hd1tj.org|微博|免责申明|HD一条街

GMT+8, 2017-4-23 18:08

Powered by Discuz! X3.1

© 2001-2013 Comsenz Inc.

快速回复 返回顶部 返回列表