开启辅助访问 切换到窄版

HD一条街论坛

 找回密码
 立即注册
查看: 131|回复: 5

[1080p] 【希区柯克10大经典悬疑】贵妇失踪记.The.Lady.Vanishes.1938.1080p.BluRay.x264.DD1.0-FGT 11.3G

[复制链接]
发表于 2015-11-30 11:24:10 | 显示全部楼层 |阅读模式
本帖最后由 秦焉 于 2015-11-30 11:35 编辑 ' F+ ]* ^3 f3 |# T6 h% u+ o' U8 p, U
$ f0 n4 x4 V# Z8 }
p2155703968.jpg
' ]. |$ U7 s; f: v1 d5 t2 N$ S7 W: x& p+ `+ i. o/ J2 n
◎译  名 The Lady Vanishes + P9 ^1 w. B  u: z9 u" B5 o* O
◎片  名 贵妇失踪记 /  失踪的女人 / 贵妇失踪案 / 失踪的贵妇
* M! ~9 ~* {# u* z9 Q# o- o! l◎年  代 1938
9 Q% E; s. S( _* n* k' ^0 [◎国  家 英国: J; H0 f/ \, `
◎类  别 喜剧 / 悬疑 / 惊悚+ V( ?+ H6 C6 A  u* E' g5 x
◎语  言 英语 / 德语 / 法语 / 意大利语  W8 j$ W! V" h4 r) c
◎上映日期 1938-11-01
6 D  I; o) G2 j% l* I9 W◎IMDb评分  8.0/10 from 34,212 users  
" s7 n4 ^9 _. ?# B! |1 E4 S2 p◎IMDb链接  http://www.imdb.com/title/tt0030341/. j% W' L9 r2 ?/ G7 f4 G( l& E
◎豆瓣评分 8.1/10 from 4,058 users+ v6 |6 a- t" u& v
◎豆瓣链接 http://movie.douban.com/subject/1292760/7 ^  j$ P6 G4 i: n' ]
◎片  长 96 分钟7 j5 ^" _6 s6 h$ T: M! h& m
◎导  演 阿尔弗雷德·希区柯克 Alfred Hitchcock
1 I7 |; e; N% ?; R◎主  演 玛格丽特·洛克伍德 Margaret Lockwood
) B. Y  f: [1 o$ y  d3 D$ l5 m( O/ X0 S                   迈克尔·雷德格瑞夫 Michael Redgrave1 l7 h- I8 j$ N3 V0 M, N
                   保罗·卢卡斯 Paul Lukas2 `3 E3 t" M2 w/ g+ ]2 \  V8 z
                   梅·惠蒂 Dame May Whitty* O6 \+ Y( s# f' H  f3 O* f  r

* a0 ]% R- Z8 w◎剧情简介$ F: Z+ J( D5 E" ?% M

" l8 @; v, B' G5 i+ a9 b" q, M  正要赶往伦敦完婚的凯莉(Margaret Lockwood)因雪崩被困在山下的小旅馆里,偶遇摄影记者康德(Michael Redgrave),两个人因小事发生争执,第二天大家各自赶路,却登上了同一列火车。 7 q2 c  @5 D; g! J/ _
  在车上凯莉与一名老妇人佛洛伊(Dame May Whitty)结伴,彼此照料。然而凯莉因头部被撞,恍惚中沉沉睡去,待她醒来,老妇人不见了。四处寻找佛洛伊,却不见她的踪影,凯莉只好报警。出乎意料的是同车厢的每个人都说没见过什么老妇人,陷入困惑的凯莉再次遇到康德。康德相信凯莉,也感到事有蹊跷,两人渐渐和好,一起展开了调查。
! o  r* A" d3 j( m& d0 G7 w$ L9 z( P1 x2 A. {; F
◎幕后制作
  m4 S! G& z/ k9 Y7 k. E5 m* T/ Z0 v6 K+ z* W! t2 E* S7 z
  本片是希区柯克在英国时期导演的名作之一,集喜剧、悬疑、惊险于一炉,在美国极受欢迎,引起好莱坞的注意,为日后希区柯克式惊悚电影奠立风格,对当时年轻制片人们也有很广大的影响。前二十分钟节奏慢,但随后慢慢开始加快故事进展速度,就像火车渐渐开快。明显地,希区柯克式的印象充斥本片,特别是他能够适宜的指挥驾驭他的演员们配何故事需要。本片演员众多,表演也非常出色,路易斯.利瓦伊创作的配乐也为本片增色不少。1979年的重拍版译名为《欧洲快车小姐不见了》(或《傻妹大闹列车》、《迷离列车》),风格偏搞笑。
; z- T3 [& z+ |! n, Z& N9 ?$ A5 h" ^2 I# \% n# X3 {
  1. Video& w( P9 ^$ ]- c: j- E
  2. ID                                       : 1
    6 Y; J2 W" N8 g& _
  3. Format                                   : AVC
    $ q. ?9 O' G: m  k* J7 J
  4. Format/Info                              : Advanced Video Codec
    $ @1 S8 ], c7 O
  5. Format profile                           : [email protected]: J5 N. D2 `" t6 I4 |+ S0 O
  6. Format settings, CABAC                   : Yes, {' Y* O, g; V0 v+ Y
  7. Format settings, ReFrames                : 5 frames9 N8 F  a% T, s5 r  H  D) t
  8. Codec ID                                 : V_MPEG4/ISO/AVC5 l" N% P9 E* @! V+ a# |3 R
  9. Duration                                 : 1h 36mn* y# H6 L4 m. h3 d
  10. Bit rate                                 : 16.4 Mbps
    + A9 |) c2 E" @, |" _7 ?. C8 Q/ T
  11. Width                                    : 1 440 pixels
    5 Z# y: k$ G2 v/ W, X% [" M5 H2 G
  12. Height                                   : 1 080 pixels
    # ?$ y0 C# E) U2 A/ N
  13. Display aspect ratio                     : 4:37 T1 X) s9 K$ k2 Y4 ^2 K
  14. Frame rate mode                          : Constant' L( ]$ S  N3 I1 F8 z, h
  15. Frame rate                               : 23.976 fps: e9 Q6 J0 c/ ~$ M
  16. Color space                              : YUV2 Y6 {/ @* i# W
  17. Chroma subsampling                       : 4:2:01 f+ `% ]' ?" v9 o- }0 V% _
  18. Bit depth                                : 8 bits
    , T) E- g* s2 g9 E+ P8 z
  19. Scan type                                : Progressive
    1 y8 C) k! E- A  ]0 T1 ?
  20. Bits/(Pixel*Frame)                       : 0.441
    ! R1 i5 H9 z1 {$ v/ c3 ~
  21. Stream size                              : 10.8 GiB (95%)
    5 }' H4 K$ P. Y
  22. Writing library                          : x264 core 116 r2074 2641b9e
    ( o5 r2 O, R8 J4 d5 ^
  23. Encoding settings                        : cabac=1 / ref=5 / deblock=1:-3:-3 / analyse=0x3:0x113 / me=umh / subme=11 / psy=1 / psy_rd=1.00:0.05 / mixed_ref=1 / me_range=48 / chroma_me=1 / trellis=2 / 8x8dct=1 / cqm=0 / deadzone=21,11 / fast_pskip=0 / chroma_qp_offset=-2 / threads=12 / sliced_threads=0 / nr=0 / decimate=1 / interlaced=0 / bluray_compat=0 / constrained_intra=0 / bframes=6 / b_pyramid=2 / b_adapt=2 / b_bias=0 / direct=3 / weightb=1 / open_gop=0 / weightp=2 / keyint=250 / keyint_min=23 / scenecut=40 / intra_refresh=0 / rc_lookahead=60 / rc=2pass / mbtree=1 / bitrate=16442 / ratetol=1.0 / qcomp=0.70 / qpmin=0 / qpmax=69 / qpstep=4 / cplxblur=20.0 / qblur=0.5 / vbv_maxrate=40000 / vbv_bufsize=30000 / nal_hrd=none / ip_ratio=1.40 / aq=2:0.90
    % X. M4 v9 ^. j, y/ u- I5 R9 S+ b2 J  j0 M
  24. Language                                 : English# D, U: t/ Q+ m0 u
  25. Default                                  : Yes% G" k8 u) H! Q# \* p; [
  26. Forced                                   : No
    6 B) ]- w& u" k. V  ~
  27. # e+ E& X8 e& T2 v1 ?
  28. Audio
    ) m- R- P& p6 `3 X1 c, G7 b
  29. ID                                       : 29 w" s) K7 F) f* G8 h
  30. Format                                   : AC-3" ~! G0 ^( \. S
  31. Format/Info                              : Audio Coding 3
    8 ?+ b& a5 |; a, b9 q
  32. Mode extension                           : CM (complete main)
    1 b: s7 D, \2 ~) x
  33. Format settings, Endianness              : Big
      i* c  Z& m4 [" M1 g
  34. Codec ID                                 : A_AC3# x1 X# [6 c* B# b1 ^: i
  35. Duration                                 : 1h 36mn9 k7 }' A4 W4 R8 @. m
  36. Bit rate mode                            : Constant- q" o4 }$ ~' m8 B- e  P% J& U
  37. Bit rate                                 : 448 Kbps! w0 E8 r% c: s* h
  38. Channel(s)                               : 1 channel5 x; ?6 g! R. v7 z
  39. Channel positions                        : Front: C
    3 S$ n9 h. _5 }; a) ?) _
  40. Sampling rate                            : 48.0 KHz
    # z8 u2 L) p$ c" G4 P
  41. Compression mode                         : Lossy
    # h  w& E, Z) g; M$ b; F2 f
  42. Stream size                              : 309 MiB (3%)  {+ N8 Q7 B$ p2 o8 Q/ }4 L, l& s
  43. Language                                 : English
    & a# G0 n" M5 _
  44. Default                                  : Yes
    ; l0 R, i4 B, c& y# f; q
  45. Forced                                   : No7 i6 G5 d/ ~; t9 ?% H6 E& ^3 q8 V7 S2 A

  46. 0 c0 S3 i2 w& c" d( u3 Z; ~
  47. Text
    ' A4 ^# Q& O/ w6 S. B/ Q& T  ^. H
  48. ID                                       : 3
    1 q7 s$ v/ A' H+ |) Z& T
  49. Format                                   : UTF-8
    5 _1 g5 v# R6 K
  50. Codec ID                                 : S_TEXT/UTF8
    . K5 G% I+ ~) d$ Q% I9 D
  51. Codec ID/Info                            : UTF-8 Plain Text- M5 \3 T8 N  K( S2 @
  52. Language                                 : English
    . ^- A. v4 O: f, d7 n9 ?9 S' e6 D
  53. Default                                  : Yes. C6 d4 v2 x' a1 {* u
  54. Forced                                   : No
复制代码
$ e: i1 M( G& V: k( p
2 Z. l, t, K3 O3 \1 p
The.Lady.Vanishes.1938.1080p.BluRay.x264.DD1.0-FGT.mkv.jpg
8 }# d! \/ k* A$ v- E# C7 k
游客,如果您要查看本帖隐藏内容请回复  捐助论坛可免回复查看隐藏内容详情请点击
最近访问 头像模式 列表模式
HD一条街,身边的一条街。
发表于 2015-11-30 12:33:07 | 显示全部楼层
经典啊,谢谢分享
HD一条街,身边的一条街。
发表于 2015-12-2 21:41:25 | 显示全部楼层
进来支持一下老电影 谢谢楼主分享
HD一条街,身边的一条街。
lxf83th 该用户已被删除
发表于 2015-12-3 17:56:23 | 显示全部楼层
提示: 作者被禁止或删除 内容自动屏蔽
HD一条街,身边的一条街。
发表于 2015-12-23 02:26:16 | 显示全部楼层
thank you very much
HD一条街,身边的一条街。
发表于 2016-1-6 15:27:50 | 显示全部楼层
去年BBC翻拍过,不过还是原来的更有精髓
HD一条街,身边的一条街。
您需要登录后才可以回帖 登录 | 立即注册

本版积分规则

手机版|小黑屋|有问题发邮件到admin#(换成@)hd1tj.org|微博|免责申明|HD一条街

GMT+8, 2016-12-7 05:53

Powered by Discuz! X3.1

© 2001-2013 Comsenz Inc.

快速回复 返回顶部 返回列表