开启辅助访问 切换到窄版

HD一条街论坛

 找回密码
 加入我们
查看: 172|回复: 5

[1080p] 【希区柯克10大经典悬疑】贵妇失踪记.The.Lady.Vanishes.1938.1080p.BluRay.x264.DD1.0-FGT 11.3G

[复制链接]
发表于 2015-11-30 11:24:10 | 显示全部楼层 |阅读模式
本帖最后由 秦焉 于 2015-11-30 11:35 编辑 0 ]2 ^) S6 `( x
' U, F7 _; W+ E9 f+ G  E7 h0 T
p2155703968.jpg
' [! o" G* N; K' L7 ]+ w3 k: j
& \; J* k. r& t) `◎译  名 The Lady Vanishes
  B# `" x6 e+ _2 D( }0 N% m! r◎片  名 贵妇失踪记 /  失踪的女人 / 贵妇失踪案 / 失踪的贵妇
: ^/ x+ C4 Q# r5 s5 {, I◎年  代 1938
7 o# \% j9 S. Y4 h◎国  家 英国
9 E+ W! W( l* M◎类  别 喜剧 / 悬疑 / 惊悚- B; H* u* s& Z) A. r$ u% I
◎语  言 英语 / 德语 / 法语 / 意大利语' _2 j) w6 M8 q; Q  R
◎上映日期 1938-11-01) `6 n3 y+ P# C  o
◎IMDb评分  8.0/10 from 34,212 users  
7 s/ m" f  h6 T◎IMDb链接  http://www.imdb.com/title/tt0030341/
; B* `+ L' N5 x+ x◎豆瓣评分 8.1/10 from 4,058 users1 Y" [* g( e& t. ~3 w$ j
◎豆瓣链接 http://movie.douban.com/subject/1292760/3 S% _  E- k0 b$ e8 a& g0 l
◎片  长 96 分钟
! U/ ?5 y- ~& a; v+ `& C9 @% e◎导  演 阿尔弗雷德·希区柯克 Alfred Hitchcock$ Q! m" a* {3 g
◎主  演 玛格丽特·洛克伍德 Margaret Lockwood
" ~* R0 A! @- \* _- S8 }                   迈克尔·雷德格瑞夫 Michael Redgrave, U7 o5 K9 Y& t' z! X
                   保罗·卢卡斯 Paul Lukas
$ e! @9 a; ~4 d, I# i+ P                   梅·惠蒂 Dame May Whitty2 g9 V! w% q" u0 `3 f, {" Z7 [* d
& ?9 t" ^6 p7 R0 O8 m
◎剧情简介
& R. p. i0 u  k& G# n) S, T  m3 A% E
  正要赶往伦敦完婚的凯莉(Margaret Lockwood)因雪崩被困在山下的小旅馆里,偶遇摄影记者康德(Michael Redgrave),两个人因小事发生争执,第二天大家各自赶路,却登上了同一列火车。 4 B3 i( L' n1 S5 R& T) F4 L) L
  在车上凯莉与一名老妇人佛洛伊(Dame May Whitty)结伴,彼此照料。然而凯莉因头部被撞,恍惚中沉沉睡去,待她醒来,老妇人不见了。四处寻找佛洛伊,却不见她的踪影,凯莉只好报警。出乎意料的是同车厢的每个人都说没见过什么老妇人,陷入困惑的凯莉再次遇到康德。康德相信凯莉,也感到事有蹊跷,两人渐渐和好,一起展开了调查。
# g1 {! y" s, B% }$ c$ _3 l) N: _& n) n9 F0 W
◎幕后制作
5 L% E3 i3 b" w( Z  b* k4 R( O& K( I. N9 w! {% S4 }: T! @* [3 F3 @) f& p
  本片是希区柯克在英国时期导演的名作之一,集喜剧、悬疑、惊险于一炉,在美国极受欢迎,引起好莱坞的注意,为日后希区柯克式惊悚电影奠立风格,对当时年轻制片人们也有很广大的影响。前二十分钟节奏慢,但随后慢慢开始加快故事进展速度,就像火车渐渐开快。明显地,希区柯克式的印象充斥本片,特别是他能够适宜的指挥驾驭他的演员们配何故事需要。本片演员众多,表演也非常出色,路易斯.利瓦伊创作的配乐也为本片增色不少。1979年的重拍版译名为《欧洲快车小姐不见了》(或《傻妹大闹列车》、《迷离列车》),风格偏搞笑。
" I. e  _% \0 j3 z0 p8 N/ a0 e# f8 g) a5 f: Y! {- ]
  1. Video, y! w, n4 Q. ^2 G; J: I2 n
  2. ID                                       : 1
    4 {% t6 p' p& U) y
  3. Format                                   : AVC  }1 L0 E* Y' ^
  4. Format/Info                              : Advanced Video Codec
    3 y8 l: s! c2 B: f
  5. Format profile                           : [email protected]
    $ [8 r$ V/ K: q0 \( o1 Z1 l
  6. Format settings, CABAC                   : Yes
    7 j$ z; Q- `% e$ w4 K) t0 K
  7. Format settings, ReFrames                : 5 frames% x/ u4 W7 P+ [
  8. Codec ID                                 : V_MPEG4/ISO/AVC9 p1 y; L, |9 D1 c! A. Q+ a) [* P
  9. Duration                                 : 1h 36mn
    7 w& [, `  Z% P1 N8 z5 Y, T5 l0 G
  10. Bit rate                                 : 16.4 Mbps% ~* U% a" [" J" }
  11. Width                                    : 1 440 pixels) G5 z5 X# ?; c- Z- J# T* m5 }
  12. Height                                   : 1 080 pixels5 C7 a1 R3 I, ?0 |6 u2 G
  13. Display aspect ratio                     : 4:3. Q3 j$ k! t2 z4 ~& \
  14. Frame rate mode                          : Constant, n& V; g7 |0 ?  U4 y4 K( b  }
  15. Frame rate                               : 23.976 fps
    4 a# o! _& V! C" {
  16. Color space                              : YUV+ E% y7 L. w  ^( Q% Q; I" n
  17. Chroma subsampling                       : 4:2:0/ z, A$ q& d* p; @3 c& ~+ Q/ O
  18. Bit depth                                : 8 bits
    $ g6 }9 F' r! `8 ]2 G& Q* u
  19. Scan type                                : Progressive- U. g, k- t% _' x' x  [) k  m
  20. Bits/(Pixel*Frame)                       : 0.4414 p8 o& ^+ {+ }1 Q5 f
  21. Stream size                              : 10.8 GiB (95%)& h. i* ^6 d, ]( {0 v% ?( N0 R
  22. Writing library                          : x264 core 116 r2074 2641b9e
      D) E- R% ?* K
  23. Encoding settings                        : cabac=1 / ref=5 / deblock=1:-3:-3 / analyse=0x3:0x113 / me=umh / subme=11 / psy=1 / psy_rd=1.00:0.05 / mixed_ref=1 / me_range=48 / chroma_me=1 / trellis=2 / 8x8dct=1 / cqm=0 / deadzone=21,11 / fast_pskip=0 / chroma_qp_offset=-2 / threads=12 / sliced_threads=0 / nr=0 / decimate=1 / interlaced=0 / bluray_compat=0 / constrained_intra=0 / bframes=6 / b_pyramid=2 / b_adapt=2 / b_bias=0 / direct=3 / weightb=1 / open_gop=0 / weightp=2 / keyint=250 / keyint_min=23 / scenecut=40 / intra_refresh=0 / rc_lookahead=60 / rc=2pass / mbtree=1 / bitrate=16442 / ratetol=1.0 / qcomp=0.70 / qpmin=0 / qpmax=69 / qpstep=4 / cplxblur=20.0 / qblur=0.5 / vbv_maxrate=40000 / vbv_bufsize=30000 / nal_hrd=none / ip_ratio=1.40 / aq=2:0.90
    ( K4 u0 V+ P; H% l/ a
  24. Language                                 : English& ^" L, F/ u" Q
  25. Default                                  : Yes# Y) W/ G8 [2 E% K) L) i
  26. Forced                                   : No" A7 @" Z9 R1 F9 i; C' m6 v. h
  27. , v8 H- u% O0 K& g7 E1 z* x
  28. Audio5 Y' o; P# D& R- z6 B& ^4 V( R- |  b) X
  29. ID                                       : 2
    7 D* y4 T6 v4 ~7 g  W' f. [
  30. Format                                   : AC-3
    + Q0 K$ H/ h, p" w
  31. Format/Info                              : Audio Coding 33 ^2 _+ @, ?2 _1 Z1 N/ L: Z
  32. Mode extension                           : CM (complete main)
    5 [% K8 P4 R  [/ M
  33. Format settings, Endianness              : Big
    ! L  }9 E: B' j- M. q
  34. Codec ID                                 : A_AC3& z6 d/ I( O% \# F2 K" }
  35. Duration                                 : 1h 36mn% s' E% d6 a- t$ K/ U# K$ Y
  36. Bit rate mode                            : Constant
    0 j8 w" a& ^3 I, y4 s
  37. Bit rate                                 : 448 Kbps
    5 M+ u9 \. r1 f9 d& p
  38. Channel(s)                               : 1 channel
    1 G( I0 [! ], y5 J( H' P3 \
  39. Channel positions                        : Front: C
    5 n& h3 g. Z- h/ F7 }# O( C4 g
  40. Sampling rate                            : 48.0 KHz
      K$ L2 ~& R  L1 v
  41. Compression mode                         : Lossy* y* |. }+ M0 S
  42. Stream size                              : 309 MiB (3%). p& a5 _4 V! o+ t0 x
  43. Language                                 : English4 J9 J; {" \/ ?  `( t
  44. Default                                  : Yes
    , F5 {9 U9 l. E/ Z
  45. Forced                                   : No& @5 [) c/ b6 g8 J- s  I7 \/ u4 d

  46. * U( c) e1 m! e" m2 w
  47. Text
    5 F: J& m+ V2 s% R. n9 p4 `
  48. ID                                       : 3
    ' s6 C! o, N* {2 l4 `
  49. Format                                   : UTF-8# o$ v  f2 o1 z4 [# N( G' N
  50. Codec ID                                 : S_TEXT/UTF8
    ' M5 w) H1 Z% A  q5 C9 y7 Q" u/ s
  51. Codec ID/Info                            : UTF-8 Plain Text
    0 p6 Z, e* @* V9 k
  52. Language                                 : English/ @1 y3 a8 Q; _2 m2 R' D
  53. Default                                  : Yes
    7 i0 N8 M+ n6 B$ n/ X
  54. Forced                                   : No
复制代码
  [0 G, [8 N% v$ h% U; f& _6 T9 d7 u. y, t

" ^. [* k9 h+ v  h, U( [ The.Lady.Vanishes.1938.1080p.BluRay.x264.DD1.0-FGT.mkv.jpg , x8 H5 ~  ]# j
游客,如果您要查看本帖隐藏内容请回复  捐助论坛可免回复查看隐藏内容 详情请点击
最近访问 头像模式 列表模式
HD一条街,身边的一条街。
发表于 2015-11-30 12:33:07 | 显示全部楼层
经典啊,谢谢分享
HD一条街,身边的一条街。
发表于 2015-12-2 21:41:25 | 显示全部楼层
进来支持一下老电影 谢谢楼主分享
HD一条街,身边的一条街。
lxf83th 该用户已被删除
发表于 2015-12-3 17:56:23 | 显示全部楼层
提示: 作者被禁止或删除 内容自动屏蔽
HD一条街,身边的一条街。
发表于 2015-12-23 02:26:16 | 显示全部楼层
thank you very much
HD一条街,身边的一条街。
发表于 2016-1-6 15:27:50 | 显示全部楼层
去年BBC翻拍过,不过还是原来的更有精髓
HD一条街,身边的一条街。

手机版|小黑屋|有问题发邮件到admin#(换成@)hd1tj.org|微博|免责申明|HD一条街

GMT+8, 2017-3-24 04:22

Powered by Discuz! X3.1

© 2001-2013 Comsenz Inc.

快速回复 返回顶部 返回列表