开启辅助访问 切换到窄版

HD一条街论坛

 找回密码
 立即注册
查看: 170|回复: 6

[1080p] 【希区柯克10大经典悬疑】火车怪客.Strangers.on.a.Train.1951.1080p.BluRay.x264.DTS-FGT 10.5G

[复制链接]
发表于 2015-11-30 10:45:43 | 显示全部楼层 |阅读模式
本帖最后由 秦焉 于 2015-11-30 10:52 编辑 # ], K/ |- @7 q, U
6 \7 {( ^/ w5 V
p1744743579.jpg
* `4 b" i9 ?; I# {! d
6 I7 x- J( v& y2 c2 A/ x! M: Y' }◎译  名 Strangers on a Train
  E# l7 x0 Z& H) a6 ^  ]◎片  名 火车怪客 /  列车上的陌生人 / 追魂记 / 列车上的生人  u* h1 K1 L5 f' T( Z
◎年  代 1951
5 W- r) Y1 s( o+ H1 I◎国  家 美国: k  {& b/ _& u
◎类  别 惊悚 / 犯罪 / 黑色电影
( s, |( G6 {3 Y8 l7 x: c! j; ^◎语  言 英语 / 法语9 l7 n6 U* a! j8 P3 w' o8 g# y; Z
◎上映日期 1951-07-03(美国)2 E3 `# L+ @( R
◎IMDb评分  8.1/10 from 88,640 users  
, |. [7 i) t8 r◎IMDb链接  http://www.imdb.com/title/tt0044079/
6 V# v9 }) n! Y: l5 o, n◎豆瓣评分 7.8/10 from 7,766 users
/ B: Q1 B( f( ^5 G9 Q4 u0 N' s8 m◎豆瓣链接 http://movie.douban.com/subject/1298505/
) `, R+ ?1 y9 F◎片  长 101分钟
3 b7 @4 S& U( ]1 }5 [9 F◎导  演 阿尔弗雷德·希区柯克 Alfred Hitchcock9 V" ~  t0 R. y( v
◎主  演 法利·格兰杰 Farley Granger/ q5 \' s! }6 d6 A/ L
                   鲁思·罗曼 Ruth Roman
7 u, b, {/ M; \1 L0 n6 c/ \                   罗伯特·沃克 Robert Walker
# W) n  b. N4 U                   里奥.G.卡罗尔 Leo G. Carroll
1 B: D/ t" K% v                   马里恩·洛恩 Marion Lorne
; y+ `; p, E! K* [8 J* h                   诺玛·威登 Norma Varden
, X5 k. ]  u  y) ]                   帕特里夏·希区柯克 Patricia Hitchcock8 [2 X0 C! C) Q! q) C
                   凯茜·罗杰斯 Kasey Rogers
6 ~( c" O  g: n4 |- V' R                   乔纳森·哈勒 Jonathan Hale3 }% @) k! @" B- U' @& x% Q
                   霍华德·圣约翰 Howard St. John
" D5 r, y1 A9 p8 m7 ~
3 ~# d+ c- L! M* I- u◎剧情简介& d5 K8 `) Q* `5 `# `* }1 H

# d% M  X9 y+ D. W, J  凯亨(法利·格兰杰)恨自己不守妇道的妻子,意图谋害;布鲁罗(罗伯特·沃特)想杀死自己的父亲。一次他们在火车上偶遇,两人互诉衷肠,协议互换杀人。布鲁罗轻松的杀掉了凯亨的妻子,凯亨却难以下手。布鲁罗以嫁祸凯亨相要挟,转瞬间凯亨从杀人走向了为自己洗脱罪责而奔命。
, m) k* Y. T1 }3 d6 ^  火车上的怪客,改变了凯亨的命运,也让他卷进了危险的漩涡。! Q2 i8 v* p" _# q9 f

- v5 M2 y, `7 b$ D; h. l/ h5 a+ X◎幕后制作$ E+ d% ^/ }- n$ {/ e- B4 t
) {0 L9 T( h/ K& o/ y8 k
  片尾的旋转木马戏已成为经典。英国版的结局有所不同。1969年重拍为《蛇蝎美人》(Once You Kiss a Stranger);1987年的《扔阿妈出火车》(Throw Momma from the Train)也明显取材于该片。. D4 c0 p' F9 ]: A! i
  因为《火车怪客》是派翠西亚·海史密斯的小说处女作,所以小说版权的成交价仅为7500美元,为了压低价格,导演阿尔弗雷德·希区柯克故意不让自己的名字出现在谈判中,事后得知真相的海史密斯因此大为恼火。对希区柯克而言,取得版权只是简单易行的第一步,将小说搬上大银幕才是最棘手的难题,他对怀特菲尔德·库克完成的故事大纲非常满意,库克在故事中融入了同性恋的潜台词(原著中有所暗示),并将小说中的布鲁诺从粗鲁的酒鬼变为魅力四射的大帅哥,影片主人公由此更具希区柯克式反派的特质。希区柯克本想请一位著名编剧为影片执笔,却被包括约翰·斯坦贝克和桑顿·怀尔德在内的八位编剧先后回绝,他们都认为影片故事华而不实,并对第一次出版小说的海史密斯心存疑虑。
$ F% {0 M6 Q! [# O  希区柯克随即找到了曾凭《双重赔偿》剧本荣获奥斯卡提名的雷蒙德·钱德勒,后者虽然认为《火车怪客》是个愚蠢的小故事,但还是决定接手,不过钱德勒一向很难共事,在讨论剧本时,希区柯克喜欢漫无边际的高谈阔论,甚至几小时都不涉及正题,而钱德勒则只专注于生意,希望尽快动笔,对钱德勒而言,与希区柯克的会面简直糟糕透顶、痛苦不堪,截然不同的做事风格让两人的关系急转直下。完成剧本初稿之后,钱德勒对希区柯克的意见置若罔闻,两人不欢而散。希区柯克希望由本·赫克特接任编剧,无暇抽身的后者推荐了他的助手森西·奥蒙德,虽然这位金发美女只出版过一本短篇小说合集,可希区柯克仍决定孤注一掷。两人初次会面时,希区柯克将钱德勒的剧本扔进了垃圾桶,他告诉奥蒙德那位著名编剧的成果中没有一句话是他想要的,他们必须以库克的大纲为蓝本从头开始。当时距影片开拍仅剩三周,奥蒙德与希区柯克的妻子阿尔玛和制片助理芭芭拉·基昂常常一起工作至深夜,在三人的齐心协力下,影片剧本得以如期完工。尽管剧本终稿已经与钱德勒毫无关系,可希区柯克直到影片上映前才发现他的名字仍在编剧名单中,希区柯克希望用库克和奥蒙德替掉钱德勒,却被华纳兄弟公司回绝,制片方坚持保留钱德勒的名字,从而用他的威望招揽人气。
) f8 e% {2 A4 P+ \& P/ K5 y  《火车怪客》标志着40年代末期希区柯克电影风格的复苏,那就是影片中对纷繁细节的充分关注,希区柯克亲自设计出布鲁诺的龙虾领带,就连布鲁诺意外掉落盖伊打火机的下水道中出现的橘子皮、口香糖包装纸、湿淋淋的叶子和褶皱的纸团都出自希区柯克的精心挑选。米里亚姆被布鲁诺勒死的镜头是片中最让人过目难忘的镜头之一,该镜头经常出现在电影学院的课堂上,这段最出人意料和最具美学标准的的画面缓慢而优雅,全部由被害人掉落在地上的眼镜来呈现,这种非比寻常的视角拍摄起来非常复杂,希区柯克先在Canoga公园完成外景,然后再利用摄影棚中的大型凹面反光镜完成变形画面。片中最震撼的场景非盖伊与布鲁诺在失控旋转木马上的搏斗莫属,这场高潮戏由微缩模型爆破和背景投影合成,而在疯狂木马下面爬行的人并非演员或特技人,而是旋转木马操作员,当时他与致命的危险近在咫尺,希区柯克将这段拍摄经历称为其电影生涯中最惊险的瞬间,如果这名志愿者稍一抬头,《火车怪客》就会由一部悬疑片变为恐怖片。& r. n% |7 p) A5 i0 z7 K

. Z, _% y+ @! s1 Y# a7 p◎幕后花絮; l, K$ u5 j0 @  F: R! @

5 Q  a% o/ R; {  ·导演希区柯克在片中客串了拿着低音提琴上车的旅客。4 s9 N/ c# G8 u4 {! E5 [6 I, u" ~
  ·威廉·霍尔登曾是扮演盖伊的最初人选。
2 }- C1 s- L) z" ?  ·本片是罗伯特·沃克出演的最后一部完整的故事片,本片杀青的八个月后,他因药物过敏而丧生。6 R, v5 Z2 y5 `( W' t$ z$ J2 @# }
  ·本片决定了卡洛尔·伯纳特在好莱坞星光大道上星形徽章的位置,1951年,她在好莱坞大道的华纳剧院任领座员,看过本片的伯纳特告诉一对迟到的男女应该从头观看这部精彩的电影,经理因此将她解雇。多年后,已经成名的伯纳特要求将她的星星放在华纳剧院门口。
2 L+ ]2 E* D$ i, D: v' w0 V6 ~+ A  u+ y6 F( a5 P: V% J1 E" `
  1. Video
    ' T" W; o2 t- n  M% ?- r1 p
  2. ID                                       : 19 O2 v  o5 `# @# p9 g
  3. Format                                   : AVC5 G1 n$ i7 ?. u+ j) E
  4. Format/Info                              : Advanced Video Codec- ~4 M1 l) a+ I) k* Y5 L, }, {3 }
  5. Format profile                           : [email protected]" ^: g, i: ]/ `
  6. Format settings, CABAC                   : Yes: p9 N* p5 T% z9 V# `9 o) U
  7. Format settings, ReFrames                : 4 frames
    4 X- a, D% C; z4 H  c0 D7 N
  8. Codec ID                                 : V_MPEG4/ISO/AVC
    $ C  y2 t7 _) i* R( ^
  9. Duration                                 : 1h 40mn1 u2 u; f' P- c" N0 ?: ?8 }
  10. Bit rate mode                            : Variable
    7 m% w+ g, l8 `+ \+ d/ Y! C
  11. Bit rate                                 : 13.8 Mbps4 R7 N9 ^: ]5 a. L$ f3 f
  12. Maximum bit rate                         : 30.0 Mbps% Y. {6 j( n! P* R! L# w$ F
  13. Width                                    : 1 920 pixels
    7 }9 |0 o2 F, F  h: g2 }
  14. Height                                   : 1 080 pixels; t; P2 n' e2 f! E# `* x# n
  15. Display aspect ratio                     : 16:92 V. \1 h9 \+ W6 |& w  S  i& C3 K
  16. Frame rate mode                          : Constant
    % U* j# E: e+ J' W
  17. Frame rate                               : 23.976 fps
    . G. s; i' u3 |; A
  18. Color space                              : YUV: p" ~3 ^: q- v, h4 C
  19. Chroma subsampling                       : 4:2:02 e+ A( j/ O; [8 ~" D. ^
  20. Bit depth                                : 8 bits
    % }; y/ @3 q/ E: U6 f
  21. Scan type                                : Progressive
    ' j) k9 h. y6 ]7 r: k6 }
  22. Bits/(Pixel*Frame)                       : 0.278/ h$ E' H3 v% \) l( @2 k
  23. Stream size                              : 9.75 GiB (93%)5 k! M, }6 t- J2 Q
  24. Language                                 : English1 ?0 d6 o* D* c" g* l
  25. Default                                  : Yes2 g8 j: d) c( n1 Y6 [
  26. Forced                                   : No
    . y, Q1 m4 Q: v0 f9 W' f# r# {0 I

  27. . K5 c: k; Y) ~- r
  28. Audio
      r* x! v- I; t8 p& O, m; Z+ {8 f
  29. ID                                       : 20 m! K! G5 [6 Q
  30. Format                                   : DTS% q3 Y0 G8 s# ?. J% ?! K* j5 w) x
  31. Format/Info                              : Digital Theater Systems: C+ @. ^8 j5 _$ L) D
  32. Mode                                     : 16: @1 Y; q0 g6 K9 k9 W$ S
  33. Format settings, Endianness              : Big
    : F8 o! P" \/ M. W& k
  34. Codec ID                                 : A_DTS
    + P+ J1 T2 I5 E  w# f- I, n
  35. Duration                                 : 1h 40mn
    6 y# {3 e2 ~9 Z, R/ p+ C0 W
  36. Bit rate mode                            : Constant2 R( p+ Z# \1 q5 \
  37. Bit rate                                 : 768 Kbps9 `  X  ], I0 O3 D
  38. Channel(s)                               : 1 channel
    $ j( M5 M* v" B
  39. Channel positions                        : Front: C0 v0 E: T- D' @+ \
  40. Sampling rate                            : 48.0 KHz( M7 v' `, m, K8 _
  41. Bit depth                                : 24 bits
    , f  x5 g- r. q
  42. Compression mode                         : Lossy9 s9 J6 e7 r1 v3 V
  43. Stream size                              : 554 MiB (5%)
    / R$ o- d' q% |3 V
  44. Language                                 : English
    # w& e+ R1 P* D, z: c% S
  45. Default                                  : Yes
    - u8 E1 [4 H6 U' z. c3 f+ X
  46. Forced                                   : No
复制代码

' Q: [/ i1 @5 m) M1 w& @9 l" q0 A) d  _" A
Strangers.on.a.Train.1951.1080p.BluRay.x264.DTS-FGT.mkv.jpg
) O% {: {5 k) c* z- |
3 A) U& ?* C$ P* h7 j- v
游客,如果您要查看本帖隐藏内容请回复  捐助论坛可免回复查看隐藏内容 详情请点击
最近访问 头像模式 列表模式
HD一条街,身边的一条街。
发表于 2015-11-30 10:51:41 | 显示全部楼层
胖子的电影好看啊!感谢分享
HD一条街,身边的一条街。
发表于 2015-11-30 15:21:03 | 显示全部楼层
很珍貴的資源,感謝分享~~
HD一条街,身边的一条街。
发表于 2015-12-2 21:43:41 | 显示全部楼层
再来支持楼主分享经典电影
HD一条街,身边的一条街。
lxf83th 该用户已被删除
发表于 2015-12-3 18:47:16 | 显示全部楼层
提示: 作者被禁止或删除 内容自动屏蔽
HD一条街,身边的一条街。
发表于 2015-12-5 22:40:01 | 显示全部楼层
好奇 惊鸟还算不进前十喔
HD一条街,身边的一条街。
发表于 2016-1-10 11:56:19 | 显示全部楼层
本人看的第一部希区柯克电影,很不错
HD一条街,身边的一条街。

手机版|小黑屋|有问题发邮件到admin#(换成@)hd1tj.org|微博|免责申明|HD一条街

GMT+8, 2017-3-31 00:40

Powered by Discuz! X3.1

© 2001-2013 Comsenz Inc.

快速回复 返回顶部 返回列表