开启辅助访问 切换到窄版

HD一条街论坛

 找回密码
 立即注册
搜索
查看: 220|回复: 9

[1080p] 【希区柯克10大经典悬疑】三十九级台阶.The.39.Steps.1935.1080p.BluRay.x264-AVCHD 7.95G

[复制链接]
发表于 2015-11-30 10:28:53 | 显示全部楼层 |阅读模式
p2163183297.jpg $ a' l9 q7 [9 p$ e7 p
! _3 A- t* R- G; n
◎译  名 The 39 Steps
9 {/ B7 U3 I* @. {◎片  名 三十九级台阶 /  国防大秘密 / 步步惊心 / 国防大机密 / 谍网惊魂3 y/ j8 |# E* a/ g4 P
◎年  代 1935+ h$ P2 v7 C5 ^1 _1 Z& @
◎国  家 英国( s! a$ p9 W0 ?" ]
◎类  别 悬疑 / 惊悚 / 犯罪
% S3 y* E4 f8 c◎语  言 英语/ Q' I: C  h/ h: O- U( n
◎上映日期 1935-08-01
% m' @9 F) z- P; M1 ]4 W◎IMDb评分  7.8/10 from 38,170 users' f3 u% O7 Z, K; `# V
◎IMDb链接  tt0026029
% n" w& Q/ b  x. X- t+ _) K◎豆瓣评分 7.8/10 from 8,592 users6 g6 k7 r. q9 }9 u1 O/ }- t1 o# F$ ^
◎豆瓣链接 1298412
/ S) G+ p- P0 @; N" ]2 T5 a◎片  长 86 分钟2 m; d  z) }, U/ o3 }
◎导  演 阿尔弗雷德·希区柯克 Alfred Hitchcock- U$ y4 E# o7 |% y; j, m/ ^" e
◎主  演 罗伯特·多纳特 Robert Donat
, M; J; b; ~2 h6 {. s! k                   玛德琳·卡洛 Madeleine Carroll3 G! V# b1 O0 |- T8 J0 F
                   佩吉·阿什克罗福特 Peggy Ashcroft3 v+ J1 }0 F& T& [! k) c( ?

! r( @) j7 y8 E◎剧情简介
5 s1 U) I& \# u! N. x; n6 _1 q/ L0 ]" r3 Q9 y, t
       音乐厅中传来枪声,观众们一片惊慌。一位外国女子(露西曼娜海姆饰)询问理查德汉内(罗伯特多纳特饰)是否可以在他家中过夜。次日该女子在被杀之前告诉理查德必须阻止间谍组织“三十九级台阶”将国家机密偷偷送出英国。汉内为了证明自己并不是杀人凶手无奈前往苏格兰高地寻找线索,在火车上他寻求一位叫做帕梅拉(玛德琳愠坓尔饰)的金发年轻女子帮助,但她却马上向警察告发了他。他找到了“三十九级台阶”的领导人乔丹教授,但随即被陷害入狱。侥幸逃脱后又由于帕梅拉的告发被两位伪装成便衣警察的人带走,并且他们还把帕梅拉和他铐在了一起。于是两人携手逃脱了出来并取得了互相的信任,然后他们再次回到音乐厅,汉内看到了上次就见过的表演。他向号称可以回答任何问题的“记忆先生”(怀特茠森饰)提问:“什么是三十九级台阶“,于是……
, U* U8 D) z2 ]8 Y) p' B  希区柯克曾说“记忆先生“是他最喜欢的角色之一,这个角色建立在一个名叫达塔斯的真人基础上,他自己小时候在伦敦看过他的表演。) X8 U5 j1 H9 ~; M8 {) l) [

4 {& z6 \9 x& Z1 `1 ~$ j2 O5 F. `1 m6 q9 z: p& m' b/ S2 s
◎幕后制作- A6 N6 k  _& ^5 l+ b  ?
2 S* f0 T, H( G: C$ c; ]3 F
       希区柯克早期在英国拍摄的最著名间谍片,根据同名经典间谍小说改编,虚构了一出平民卷入间谍战的精彩情节。整部影片虽然全在摄影棚中拍摄,却能以假乱真,制造出丰富景观变化,音效和视觉技巧也有著天衣无缝的搭配。台词机智幽默,节奏的处理也相当紧凑逼人。希区考克选角功夫之独到,就如同他那惊世骇俗的运镜手法和令人毛骨悚然的气氛布局一样出色。这部影片改编自英国通俗小说家兼政治家约翰·巴肯的同名小说。这也是希区柯克在英国的最后一部电影。巴肯的小说中有着种种突如其来、意想不到的阴谋和犯罪,无辜者或局外人总是莫名其妙地被追逐,在这个过程中经受磨难和心理历程。希区柯克借用这种方式建立他的电影叙事框架,但却剔除了巴肯小说中的政治动机,而是虚构一个符号作为动机,但并不对动机进行解释。因而叙事的动机在希区柯克的电影中一早就挑明,悬念在于这个动机的实现过程。《三十九级台阶》已经具有了希区柯克美国时期电影的主题和风格特征,而影片获得纽约影片人当年的最佳影片也促成了希区柯克赴美的决心。4 m  A! N; L0 L* a4 b2 a( c
  v7 e# o$ m5 h2 d8 X
◎影片评价& C, |5 v, Q0 U% P2 b: C  k4 V9 c

2 ?' F. b' b+ a" M& \) ~7 A       导演阿尔弗莱德·希区柯克一生致力于惊悚悬疑片的创作。五十多部传世经典中,《蝴蝶梦》让他一举成名。随后的《美人计》、《爱德华大夫》、《后窗》、《西北偏北》对世界悬疑影片有着特殊的贡献。
  g; u1 Q) k. D1 ^+ \" m5 V       本片的音效和视觉技巧,有着天衣无缝的搭配。希区考克曾针对此一观点,有过下列的声明:「镜头的瞬间转移和不同场景快速的跳格处理,是我对本片感到最为满意的地方。 例如,片中多纳手上扣着半副手铐甫从警局逃出,随即出现在救世军乐队的行列中,并急速地通过巷道,进入了一间众人正在开会的大厅里(谢天谢地,总算将您给盼到了,某某先生),急昏头的大会人员不分青红皂白地将他推上讲台。又例如,一个女孩伴随着两个男人,原本她以为是要将多纳送往警局,但随即发现方向不对......诸如此类镜头的快速转移,在本片中不胜枚举,也是我最引以为傲之处。」
) D9 F( S+ q8 @7 C, }) h       至于六十头绵羊的镜头处理,更是伤透希区考克的脑筋(所有的镜头均在歌蒙(Gaumout)的莱姆园摄影棚(Lime Grove Studio)内拍摄)。它们毫不客气地将整个布景给吃个精光。制作本片时,希区考克更是把他那喜欢恶作剧的个性发挥到了极致。卡萝和多纳两人直到开镜的那一天才正式碰面,希区考克二话不说,就将两人以手铐铐在一起,然后自己整整失踪了一天。等到他终于回来面对两位怒不可遏的明星时,他说道:「我只不过是想看看你们会如何处理这种局面罢了,你们知道的,将来在片中你们是有这种镜头的。」# n) p9 q+ _# ?# Z! b
       至于那位饱受惊吓的女主角,希区考克有他的评语:「我个人认为最具希区考克典型的金发美女,首推玛德琳卡萝(Madeleine Carroll)。那些来自英国、德国北部或瑞典的美女,看起来一个个都像是个女老师,但我的妈呀!你可真别小看她们,只要她们春情一发,一定会吓你一大跳。」多纳是个和蔼可爱、很容易相处的人,但在与阿雪合演的那幕戏中,却不知为何,总是对著她傻笑,重拍到第五次时,希区考克忍不住一拳击碎一盏灯,才使即将爆发的怒气平静下来。多纳咯咯的傻笑声,也终于给煞住了。0 m4 P3 ^% Y) ]) D, t9 D" Z  ~
# a, G8 `, u, h. Z/ p$ P
  1. Video" }( N7 r! i5 I- Z5 s
  2. ID                                       : 1
    9 p3 @- Z+ i3 `$ ?0 O( l
  3. Format                                   : AVC
    9 f" ]  O3 T$ r% Q3 k
  4. Format/Info                              : Advanced Video Codec
    " k( W- ?$ c4 k2 A$ k
  5. Format profile                           : [email protected]
    4 T: Y3 _" ^( W/ a! w
  6. Format settings, CABAC                   : Yes6 q* e" C1 o3 S  |
  7. Format settings, ReFrames                : 4 frames
    9 c' V; p. Z$ D! u0 X) [6 B
  8. Codec ID                                 : V_MPEG4/ISO/AVC
    8 W) s: U- A& \
  9. Duration                                 : 1h 26mn; Z* S5 i  D( V! o6 h
  10. Bit rate                                 : 13.0 Mbps
    ; J; ^  Q; q  c9 Q. E
  11. Width                                    : 1 440 pixels0 P+ y3 u# d2 X2 R3 U
  12. Height                                   : 1 080 pixels
    ' |. I2 w$ d) n# w6 a
  13. Display aspect ratio                     : 4:3' m1 e5 w- s. b  z9 E& K
  14. Frame rate mode                          : Constant
    & S, B! B5 B6 _
  15. Frame rate                               : 23.976 fps  I3 U) N: A$ v8 E
  16. Color space                              : YUV
    7 r: s- }. m& f# R4 N
  17. Chroma subsampling                       : 4:2:08 r' _8 \- W6 H, ]
  18. Bit depth                                : 8 bits3 I4 R- B- {1 x% H/ A5 {% L
  19. Scan type                                : Progressive& M# A4 |# I1 q: |! A% Q6 ^2 O
  20. Bits/(Pixel*Frame)                       : 0.348* Z/ w1 R1 M" y' D* N" O
  21. Stream size                              : 7.67 GiB (97%)' s: a9 ~2 E6 P4 w, v8 K+ Z
  22. Writing library                          : x264 core 78 r1318 fe83a90% `! ~3 R+ B* Q* k4 n
  23. Encoding settings                        : cabac=1 / ref=4 / deblock=1:0:0 / analyse=0x3:0x133 / me=umh / subme=7 / psy=1 / psy_rd=1.0:0.0 / mixed_ref=1 / me_range=16 / chroma_me=1 / trellis=1 / 8x8dct=1 / cqm=0 / deadzone=21,11 / chroma_qp_offset=-2 / threads=6 / nr=0 / decimate=1 / mbaff=0 / constrained_intra=0 / bframes=3 / b_pyramid=0 / b_adapt=1 / b_bias=0 / direct=1 / wpredb=1 / keyint=250 / keyint_min=25 / scenecut=40 / rc_lookahead=40 / rc=2pass / mbtree=1 / bitrate=12986 / ratetol=1.0 / qcomp=0.60 / qpmin=10 / qpmax=51 / qpstep=4 / cplxblur=20.0 / qblur=0.5 / ip_ratio=1.40 / aq=1:1.00
    " f* L" r( o, L( h. M3 P
  24. Language                                 : English! K9 {7 |1 i" J, a1 z& w2 q
  25. Default                                  : Yes, Y; ^; ]; I& U
  26. Forced                                   : No& a7 ^- t- V" W! c5 [2 E
  27. ! s# [7 ]! n  G' V+ s
  28. Audio
    $ C$ ?8 P! n" y/ {2 Q3 S
  29. ID                                       : 25 \1 X1 k* V' C  L
  30. Format                                   : AC-3
    ; t' u- B+ C. }0 I- @
  31. Format/Info                              : Audio Coding 3! \/ n# H1 X. w) e9 l
  32. Mode extension                           : CM (complete main)  o2 w+ ]  {- S* T; N
  33. Format settings, Endianness              : Big
    9 z$ C4 R$ k* A- K1 J5 t
  34. Codec ID                                 : A_AC36 {/ Y8 B! j& ^) ?
  35. Duration                                 : 1h 26mn" s. i* ?  a! v/ R1 _) A" x, v9 I
  36. Bit rate mode                            : Constant
    1 ~) O  m9 T+ U4 |& u4 \
  37. Bit rate                                 : 192 Kbps& v' x- L3 o3 s3 D5 |* `! X
  38. Channel(s)                               : 2 channels! O! ~/ D9 N! I1 B
  39. Channel positions                        : Front: L R& M3 y* k9 j% R+ \  H: C- i
  40. Sampling rate                            : 48.0 KHz
    + C& f( T& d$ X- m, [
  41. Bit depth                                : 16 bits) v' h9 C- A; @& p
  42. Compression mode                         : Lossy
    6 n" |  a) J4 D: c: h
  43. Stream size                              : 119 MiB (1%)
    5 V7 |/ r* l* [/ c
  44. Language                                 : English
    3 o& Q- z* T  I7 k# n
  45. Default                                  : Yes9 b) J0 h  v/ }4 C
  46. Forced                                   : No
    ' J& m$ E5 T& h5 {

  47. / d: P' }$ J4 E3 X
  48. Text
    ! @# d" V# R$ a  o8 u- g9 _
  49. ID                                       : 3' e9 J0 P' b5 t& f
  50. Format                                   : UTF-8
    ! m+ w7 A5 z1 z2 o, C
  51. Codec ID                                 : S_TEXT/UTF8
    3 ?- Y- I& o. i4 L' {% \1 Z  E3 P. j: [
  52. Codec ID/Info                            : UTF-8 Plain Text
    4 N- l0 E; a/ C  g; j
  53. Language                                 : English
    4 ~8 ?3 D: j; g
  54. Default                                  : Yes  @* i. y$ d1 q5 V- }( v6 N
  55. Forced                                   : No
复制代码
* T; s% f# V+ W# ~  V2 \- F9 H

; {$ Y$ C. c* V; w/ x8 r avchd-the.39.steps.1080p.mkv.jpg 1 I4 X, q+ o  m
7 q2 {) v4 e8 m3 U! \
游客,如果您要查看本帖隐藏内容请回复  捐助论坛可免回复查看隐藏内容 详情请点击
( }, N. i% X+ j" ~' M" N

  x5 j* T, }: G' y$ L2 E
最近访问 头像模式 列表模式
HD一条街,身边的一条街。
发表于 2015-11-30 10:57:01 | 显示全部楼层
经典好片又一波来袭啊
HD一条街,身边的一条街。
发表于 2015-11-30 11:54:59 | 显示全部楼层
1935年的電影,很難得還有這麼好的資源,感謝分享~~
HD一条街,身边的一条街。
发表于 2015-11-30 19:38:08 | 显示全部楼层
希区柯克的经典,谢谢分享
HD一条街,身边的一条街。
发表于 2015-11-30 19:48:28 | 显示全部楼层
经典电影不错.谢谢分享.
HD一条街,身边的一条街。
发表于 2015-11-30 23:09:16 | 显示全部楼层
经典啊) s" ?0 y% m* p& G% `6 _3 k
感谢分享
HD一条街,身边的一条街。
发表于 2015-12-1 10:34:19 | 显示全部楼层
这是我最喜欢的一部希区柯克的电影
HD一条街,身边的一条街。
发表于 2015-12-2 21:44:45 | 显示全部楼层
感谢楼主无私的分享
HD一条街,身边的一条街。
lxf83th 该用户已被删除
发表于 2015-12-3 18:48:26 | 显示全部楼层
提示: 作者被禁止或删除 内容自动屏蔽
HD一条街,身边的一条街。
发表于 2016-1-8 17:45:14 | 显示全部楼层
又是一部翻拍无数的片子,典型的希区柯克电影
HD一条街,身边的一条街。

手机版|小黑屋|有问题发邮件到admin#(换成@)hd1tj.org|微博|免责申明|HD一条街

GMT+8, 2017-4-29 07:47

Powered by Discuz! X3.1

© 2001-2013 Comsenz Inc.

快速回复 返回顶部 返回列表