开启辅助访问 切换到窄版

HD一条街论坛

 找回密码
 立即注册
查看: 403|回复: 11

[720p] 龙门客栈 Dragon.Inn.1967.1080p.BluRay.x264-FAPCAVE 7.65G

[复制链接]
发表于 2015-11-3 21:37:48 | 显示全部楼层 |阅读模式
2500d451569c6c3ded25d76f2d5a8d3e90892943.jpg
0 N* c; R, b8 k# M" P
, Z! l8 ~* e1 X2 o( \7 B" I  i  c( Y$ X* f9 p: ?
◎译  名 龙门客栈
7 J4 h2 A# J+ s0 e6 K1 D◎片  名 龍門客棧
( e1 t" T  M$ g& M9 w/ D; N' d7 c◎年  代 1967# u% o8 |2 l% h5 e% a7 L! ]/ N
◎国  家 台湾
" X2 ~( K0 o# F! n8 b◎类  别 动作/冒险/武侠/古装, q& P- a6 f  B1 Y  k% d
◎语  言 汉语普通话8 E( P2 n4 @: u2 ^8 Y7 U: E
◎上映日期 1967-10-21(台湾)7 u) @* W2 q* r/ `& ?# E
◎IMDb评分  7.6/10 from 742 users
; o) y0 S8 I) ?4 @9 I9 n7 w7 h) i◎IMDb链接  http://www.imdb.com/title/tt0060635/$ x0 c, Z- H$ i
◎豆瓣评分 8.0/10 from 3,514 users
' ^# y  {, h8 V* ~$ B◎豆瓣链接 http://movie.douban.com/subject/1459054/
, y' d# p0 P4 N6 d8 g9 ~◎片  长 112分钟0 ?  N7 f  ?; O$ @5 [
◎导  演 胡金铨 King Hu
3 X# j% f  f! I; j) x6 O+ _& y◎主  演 上官灵凤 Lingfeng Shangguan. P+ s3 N4 n9 T! S$ p
      石隽 Chun Shih
) T8 D) q% r8 C0 m" d/ n      苗天 Tien Miao
) {- i$ P% W7 s& h( a: s0 C' c      徐枫 Feng Hsu
6 G& E* `4 m- o' M      韩英杰 Ying-Chieh Han
& s7 F: J$ k! g8 S# `' l& q$ N      田鹏 Peng Tien
; F  a7 Z9 g3 C3 R* d- L7 s  k2 a! K" Z
◎简  介
) r5 n+ e8 M0 L# y3 c
- r, B) R3 n. R& w# o  明朝中叶,宦官当权,兵部尚书于谦遭陷害入狱,满门抄斩,只剩下一儿一女被押送塞外龙门充军。东厂太监曹少钦(白鹰 饰)意欲斩草除根,派人截杀两个孩子,被于谦旧部朱骥阻拦。曹少钦又派心腹皮绍棠(苗天 饰)和毛宗宪(韩英杰 饰)赶到出关必经之地龙门客栈拦截。其时义士萧少镃(石隽 饰)也赶赴客栈与栈主会合商议搭救忠良之后,朱骥与其女扮男装的妹妹朱辉(上官灵凤 饰)也赶到客栈,三路人马碰头,怀着各自目的,试探彼此身份,很快变成一场混战,此时曹少钦也正飞速赶来龙门客栈,武功极高的他是义士们的最后宿敌……
  1. Video
    2 u1 v+ Q! @  K  @  S
  2. ID                                       : 1# u! j; t! a6 r9 A9 I
  3. Format                                   : AVC
    . n" g5 L; Z6 F- p( p* L- ?0 {
  4. Format/Info                              : Advanced Video Codec6 u2 e3 E# O" y
  5. Format profile                           : [email protected]
    ! T9 ]2 {- l" ]' n0 Y( _8 x; }: k
  6. Format settings, CABAC                   : Yes
    ) s3 Q  B3 w5 v* t6 S
  7. Format settings, ReFrames                : 5 frames5 B) I1 f6 n2 M2 b7 ^
  8. Codec ID                                 : V_MPEG4/ISO/AVC
    0 ~( ~- s7 H2 N: j
  9. Duration                                 : 1h 51mn
    1 q3 K4 {) h* y: u" e
  10. Bit rate                                 : 9 192 Kbps
    ; d* W( m  V# `$ {2 _9 e
  11. Width                                    : 1 920 pixels
    5 G/ V, c; P' P& ~4 H
  12. Height                                   : 816 pixels
    8 U8 W- f. Z! e
  13. Display aspect ratio                     : 2.35:1" y1 n& l. O$ K3 I/ l
  14. Frame rate mode                          : Constant5 L+ r; _/ ^# Y5 q2 v# _7 g
  15. Frame rate                               : 23.976 fps
    6 q7 a+ x& A' N! \2 [
  16. Color space                              : YUV
    & B# c$ w; F. I2 Z# S- [% J
  17. Chroma subsampling                       : 4:2:0
    - V# c; u3 W* T7 I, k* R
  18. Bit depth                                : 8 bits
    0 d9 s. D  @3 e9 k
  19. Scan type                                : Progressive
    + P/ ?  Z5 o9 m' x, ~9 Z: A6 Q
  20. Bits/(Pixel*Frame)                       : 0.2452 W, U# z0 V* U/ _' L7 `
  21. Stream size                              : 7.00 GiB (92%), [/ H5 S$ }: j
  22. Writing library                          : x264 core 148 r2638 7599210
    ( G+ C& U9 `, X6 \3 `
  23. Encoding settings                        : cabac=1 / ref=5 / deblock=1:0:0 / analyse=0x3:0x133 / me=umh / subme=7 / psy=1 / psy_rd=1.00:0.00 / mixed_ref=1 / me_range=16 / chroma_me=1 / trellis=1 / 8x8dct=1 / cqm=0 / deadzone=21,11 / fast_pskip=0 / chroma_qp_offset=-2 / threads=12 / lookahead_threads=2 / sliced_threads=0 / nr=0 / decimate=1 / interlaced=0 / bluray_compat=0 / constrained_intra=0 / bframes=3 / b_pyramid=2 / b_adapt=2 / b_bias=0 / direct=3 / weightb=1 / open_gop=0 / weightp=2 / keyint=250 / keyint_min=23 / scenecut=40 / intra_refresh=0 / rc_lookahead=50 / rc=2pass / mbtree=1 / bitrate=9192 / ratetol=1.0 / qcomp=0.60 / qpmin=0 / qpmax=69 / qpstep=4 / cplxblur=20.0 / qblur=0.5 / ip_ratio=1.40 / aq=1:1.008 {/ P- y, b4 H. y5 o
  24. Language                                 : English/ Q0 ~" M! C( |2 \
  25. Default                                  : Yes
    : c: [9 T1 f6 U( {
  26. Forced                                   : No
    8 h; M5 s5 C1 Y
  27. DURATION                                 : 01:51:18.797000000
    ) W* z: f. \" j6 p6 G
  28. NUMBER_OF_FRAMES                         : 160131. T: c' L" \# M! g2 I
  29. NUMBER_OF_BYTES                          : 76743230236 G3 T( r' _; {0 z& E; M" w# v+ v! D
  30. _STATISTICS_WRITING_APP                  : mkvmerge v7.7.0 (\'Six Voices\') 32bit built on Feb 28 2015 23:23:00/ P) K1 k# b* a* ?4 r
  31. _STATISTICS_WRITING_DATE_UTC             : 2015-10-28 11:38:020 y# r( }. D) U$ V, j
  32. _STATISTICS_TAGS                         : BPS DURATION NUMBER_OF_FRAMES NUMBER_OF_BYTES2 y/ q: M- g6 N7 d. R  H
  33. 0 e/ m8 S+ J6 {" [* L  q
  34. Audio
    8 E. E1 B1 U2 T# U/ `* \" ~+ M
  35. ID                                       : 2
    - @' [5 V7 q% U0 c+ u- v4 V- t5 E
  36. Format                                   : AC-3# w1 h7 H& `3 R, I1 N
  37. Format/Info                              : Audio Coding 3
    0 g' @$ E2 c. b4 V! |7 n: V) f& B" k, x
  38. Mode extension                           : CM (complete main)/ F# ^% @! c% H* |  l0 C5 a
  39. Format settings, Endianness              : Big6 Y: ~+ n, X3 [( o7 N
  40. Codec ID                                 : A_AC3
    2 H% D& g; o/ k" v: b
  41. Duration                                 : 1h 51mn( [& i3 V! v7 W  ?+ V. Q& g' r$ T
  42. Bit rate mode                            : Constant0 e$ n; X- e. _" F2 W9 N
  43. Bit rate                                 : 640 Kbps
      ~) b) H& T! a+ Y
  44. Channel(s)                               : 1 channel1 a9 N9 Z8 E# M6 F" q
  45. Channel positions                        : Front: C
    % j7 Y# T3 T, Z+ N" o
  46. Sampling rate                            : 48.0 KHz
      j2 h$ W+ |7 ^
  47. Compression mode                         : Lossy; `- J: F1 p8 r7 Q* E7 k
  48. Stream size                              : 510 MiB (7%)7 F" b! H, J2 M6 U" K2 ~; `
  49. Language                                 : Chinese
    * c  c! h3 J$ ?5 _1 t; t
  50. Default                                  : Yes" R/ C) z) {8 K) K" ~3 W
  51. Forced                                   : No8 ]" m6 M5 t6 W5 Q& j7 y" \

  52. 3 Y) \/ S* t! Q7 O) n$ b6 j; I- a
  53. Text
    + V% a* i1 s7 A
  54. ID                                       : 3) B  l" X9 n3 k4 M  s9 D8 {9 H& Y# g
  55. Format                                   : UTF-8" A& K) `* M# y# a3 {, e
  56. Codec ID                                 : S_TEXT/UTF8
    4 c- W; ?  C. N" k
  57. Codec ID/Info                            : UTF-8 Plain Text
    8 c5 g/ w" s$ q) S3 K4 c
  58. Language                                 : English; P& x# C: ?; ~* h
  59. Default                                  : Yes
    7 }1 T2 j, S0 t
  60. Forced                                   : No( a1 r: A3 Q1 S- n1 G4 \, j
  61. ( X/ I1 @# U, |" a2 }- G1 q
  62. Menu
    6 A& J' L" p4 x( P3 Y
  63. 00:00:00.000                             : en:00:00:00.000) D( \) x! S) {% H8 H
  64. 00:09:09.716                             : en:00:09:09.716% @" G# l3 E* q  u& d% g+ b
  65. 00:16:47.715                             : en:00:16:47.715, J% i/ s, T) n" Z2 E, L1 J
  66. 00:27:46.248                             : en:00:27:46.248& ~2 p; V# j% M& _7 Y
  67. 00:37:09.269                             : en:00:37:09.2699 \' X4 P/ A# U
  68. 00:46:54.687                             : en:00:46:54.6876 N% ?5 `1 C1 k+ Q: {# c: p& ]
  69. 00:55:55.894                             : en:00:55:55.894
    + I% \; ^; H# b: A. t( r) W. N
  70. 01:01:26.057                             : en:01:01:26.057/ s! f& V1 t! U6 u
  71. 01:14:24.418                             : en:01:14:24.418
    ( f2 p! C5 {3 z5 ?, C
  72. 01:22:48.630                             : en:01:22:48.630
    ; ?. C7 {6 ]' c
  73. 01:33:16.674                             : en:01:33:16.674
复制代码

. J5 T9 P1 L! [. G3 r( o9 y
6 A1 P, B' @& d6 Q4 n
! x1 ~' ?/ w- a3 h
                               
登录/注册后可看大图
: S+ B2 _, @; d. M0 |% V0 u

1 y& n2 ]0 N) _) V+ {* R  @* ]# w& g  o3 I" o6 G
游客,如果您要查看本帖隐藏内容请回复  捐助论坛可免回复查看隐藏内容 详情请点击
最近访问 头像模式 列表模式
HD一条街,身边的一条街。
发表于 2015-11-3 22:00:01 | 显示全部楼层
非常的好! 謝謝!!
HD一条街,身边的一条街。
发表于 2015-11-4 07:32:57 | 显示全部楼层
感觉这部电影挺好看的,下载看一下。
HD一条街,身边的一条街。
发表于 2015-11-4 07:56:13 | 显示全部楼层
67年的片子出了蓝光!!!太厉害了。
HD一条街,身边的一条街。
发表于 2015-11-4 08:38:42 | 显示全部楼层
谢谢楼主分享
HD一条街,身边的一条街。
发表于 2015-11-4 09:25:49 | 显示全部楼层
好老的电影,下载来看看
HD一条街,身边的一条街。
发表于 2015-11-4 09:39:48 | 显示全部楼层
经典啊,看看,谢谢分享
HD一条街,身边的一条街。
发表于 2015-11-4 19:22:18 | 显示全部楼层
六十年代的片子,看看,感謝分享~~
HD一条街,身边的一条街。
发表于 2015-11-4 22:49:41 | 显示全部楼层
感谢大大分享经典电影 这个版本太强大
HD一条街,身边的一条街。
发表于 2015-11-5 08:59:36 来自手机 | 显示全部楼层
老片出高清版,大家有福了。
HD一条街,身边的一条街。

手机版|小黑屋|有问题发邮件到admin#(换成@)hd1tj.org|微博|免责申明|HD一条街

GMT+8, 2017-3-30 05:12

Powered by Discuz! X3.1

© 2001-2013 Comsenz Inc.

快速回复 返回顶部 返回列表