开启辅助访问 切换到窄版

HD一条街论坛

 找回密码
 加入我们
查看: 368|回复: 11

[720p] 龙门客栈 Dragon.Inn.1967.1080p.BluRay.x264-FAPCAVE 7.65G

[复制链接]
发表于 2015-11-3 21:37:48 | 显示全部楼层 |阅读模式
2500d451569c6c3ded25d76f2d5a8d3e90892943.jpg
5 v( {# T; _1 h; @  a! x9 f; @% Y. C0 ]( B' P' P/ \* t7 n# y

8 r4 T4 n1 e1 q% i( `( K7 L◎译  名 龙门客栈
; g6 g; M$ ]( Z+ ^1 |◎片  名 龍門客棧% v7 Y  A* e# H# b
◎年  代 1967* c6 z& y' I' t; U+ m8 Y* t# J
◎国  家 台湾
" @5 r5 w9 Y1 k. S9 w7 E% ^, D◎类  别 动作/冒险/武侠/古装7 I5 ~1 z3 y/ n. _
◎语  言 汉语普通话
* g" R% a, d! V: S( f1 t◎上映日期 1967-10-21(台湾)& B' m* |* V7 I: B( k
◎IMDb评分  7.6/10 from 742 users
) x, x0 H( r6 \% V4 p◎IMDb链接  http://www.imdb.com/title/tt0060635/
* \. J! R5 i' J+ d- g◎豆瓣评分 8.0/10 from 3,514 users6 E8 a& q- p" i& {* h: t! F
◎豆瓣链接 http://movie.douban.com/subject/1459054/
% S) P3 N+ O& }8 O" Z◎片  长 112分钟+ o+ D: c. k; P/ Q' T% |
◎导  演 胡金铨 King Hu
8 S: K; v- m% F; M* \' b◎主  演 上官灵凤 Lingfeng Shangguan7 f4 p$ O; T* {( V4 `2 p
      石隽 Chun Shih
" P" ~, J) P2 Q8 n7 c& V* N      苗天 Tien Miao8 f, A$ R0 _: _# W, {
      徐枫 Feng Hsu
- ]$ s2 {& R4 a0 W      韩英杰 Ying-Chieh Han$ z+ G+ O4 W; w7 P( s
      田鹏 Peng Tien
; D$ v2 B- V5 u) X# a% x* Q1 W  h
8 h. p6 L' K+ p◎简  介
9 Y; O# q/ S& o4 Y0 K+ p8 f4 r3 o1 r9 E
  明朝中叶,宦官当权,兵部尚书于谦遭陷害入狱,满门抄斩,只剩下一儿一女被押送塞外龙门充军。东厂太监曹少钦(白鹰 饰)意欲斩草除根,派人截杀两个孩子,被于谦旧部朱骥阻拦。曹少钦又派心腹皮绍棠(苗天 饰)和毛宗宪(韩英杰 饰)赶到出关必经之地龙门客栈拦截。其时义士萧少镃(石隽 饰)也赶赴客栈与栈主会合商议搭救忠良之后,朱骥与其女扮男装的妹妹朱辉(上官灵凤 饰)也赶到客栈,三路人马碰头,怀着各自目的,试探彼此身份,很快变成一场混战,此时曹少钦也正飞速赶来龙门客栈,武功极高的他是义士们的最后宿敌……
  1. Video& |5 K1 i! ~% w( o' e5 l9 Y
  2. ID                                       : 10 g8 Z3 E! a4 o: k
  3. Format                                   : AVC; V5 J2 {5 y1 D! U! `1 L: ]; Z$ x
  4. Format/Info                              : Advanced Video Codec- s% P+ @" `' e; Q% `; X, M
  5. Format profile                           : High@L4.1
    3 b: ~  W( [8 \/ O4 K# X; o
  6. Format settings, CABAC                   : Yes
    3 d1 o6 X: {. H" a
  7. Format settings, ReFrames                : 5 frames
    ; ^" c6 g2 X$ }) @+ T$ n
  8. Codec ID                                 : V_MPEG4/ISO/AVC
    3 K$ c( I: I0 d" ]
  9. Duration                                 : 1h 51mn
      E# l  ~6 E* k+ ^1 g4 R& {& F
  10. Bit rate                                 : 9 192 Kbps
    ' z; t( ?% Z* c3 R( c! t
  11. Width                                    : 1 920 pixels! d/ L2 `% K$ U, F+ P3 D8 W
  12. Height                                   : 816 pixels
    , U& |7 w6 a0 f
  13. Display aspect ratio                     : 2.35:1( j# W8 q, g4 P- n: a, a' @
  14. Frame rate mode                          : Constant7 f* o1 S& e" ~2 v6 R, y9 I  {
  15. Frame rate                               : 23.976 fps6 w4 S8 _; @; A1 l2 O
  16. Color space                              : YUV0 @: n: H4 y5 m: z6 o; z
  17. Chroma subsampling                       : 4:2:01 e# r0 d! L+ Q2 o' D
  18. Bit depth                                : 8 bits1 z4 |, {) X) o
  19. Scan type                                : Progressive
    ( V  c7 t6 C( B2 }
  20. Bits/(Pixel*Frame)                       : 0.245
    4 _5 P# T  y- d/ o; {& N
  21. Stream size                              : 7.00 GiB (92%)* L% U7 n; Y9 A0 k, r& Y
  22. Writing library                          : x264 core 148 r2638 7599210/ S# t1 P/ k0 T& H/ N. u" ~
  23. Encoding settings                        : cabac=1 / ref=5 / deblock=1:0:0 / analyse=0x3:0x133 / me=umh / subme=7 / psy=1 / psy_rd=1.00:0.00 / mixed_ref=1 / me_range=16 / chroma_me=1 / trellis=1 / 8x8dct=1 / cqm=0 / deadzone=21,11 / fast_pskip=0 / chroma_qp_offset=-2 / threads=12 / lookahead_threads=2 / sliced_threads=0 / nr=0 / decimate=1 / interlaced=0 / bluray_compat=0 / constrained_intra=0 / bframes=3 / b_pyramid=2 / b_adapt=2 / b_bias=0 / direct=3 / weightb=1 / open_gop=0 / weightp=2 / keyint=250 / keyint_min=23 / scenecut=40 / intra_refresh=0 / rc_lookahead=50 / rc=2pass / mbtree=1 / bitrate=9192 / ratetol=1.0 / qcomp=0.60 / qpmin=0 / qpmax=69 / qpstep=4 / cplxblur=20.0 / qblur=0.5 / ip_ratio=1.40 / aq=1:1.00! L5 X0 k( p# c* P" u6 D. j# ~
  24. Language                                 : English3 Z: K4 o3 p" l3 G$ M; f
  25. Default                                  : Yes1 m& s: g6 [1 {& l6 I6 p
  26. Forced                                   : No
    & @; e: \9 h. k5 d# I5 K! p
  27. DURATION                                 : 01:51:18.7970000001 J' U3 O3 V: S/ p) Z
  28. NUMBER_OF_FRAMES                         : 160131
    , U2 J% m; ^* w1 @' r
  29. NUMBER_OF_BYTES                          : 7674323023/ Q% A% W) k+ a4 A# R$ ^
  30. _STATISTICS_WRITING_APP                  : mkvmerge v7.7.0 (\'Six Voices\') 32bit built on Feb 28 2015 23:23:00
    + z9 _6 p% Y/ z: d9 p# O6 J
  31. _STATISTICS_WRITING_DATE_UTC             : 2015-10-28 11:38:02
    6 r( u5 ^. L! U" b+ j  ]
  32. _STATISTICS_TAGS                         : BPS DURATION NUMBER_OF_FRAMES NUMBER_OF_BYTES% ~* p  Z' z/ B& _
  33. ( H; j! d/ J5 c
  34. Audio( i- o3 q. x9 h( D/ E/ v
  35. ID                                       : 2
    " F! U: i, b, L+ z1 J% z& m6 b: J
  36. Format                                   : AC-3: M( J3 v' A$ P7 l6 f! y
  37. Format/Info                              : Audio Coding 3. `; }4 L/ w& D- Z  [4 E( D& {
  38. Mode extension                           : CM (complete main)
    5 k/ \0 P5 G, J6 T
  39. Format settings, Endianness              : Big0 f& |, s6 x1 w; \% z5 h  }* N, _
  40. Codec ID                                 : A_AC3
    6 S+ b3 C( c8 h' f3 |; R' z' X4 x& C
  41. Duration                                 : 1h 51mn
    5 W3 O; m* _& z- v- Z. B" }
  42. Bit rate mode                            : Constant$ x( ~& b5 v, m0 O9 T7 B& {! d
  43. Bit rate                                 : 640 Kbps$ d+ s8 @" t- x; _6 `/ i  f
  44. Channel(s)                               : 1 channel
    + d7 h. P5 s# W9 g# F) L7 b; d8 }
  45. Channel positions                        : Front: C
    * l/ H! I6 T2 R2 a
  46. Sampling rate                            : 48.0 KHz
    ( V  v9 h) {* G" c4 {
  47. Compression mode                         : Lossy- ~* @, L0 C! |/ q8 M
  48. Stream size                              : 510 MiB (7%)
    $ p$ \" l3 ~2 Q6 Z: o  c/ c
  49. Language                                 : Chinese' b' k8 H* Z6 b$ J$ x3 E
  50. Default                                  : Yes0 r  C  d. K8 _" O: b) P
  51. Forced                                   : No
    1 W: E8 r3 x# W$ `
  52. $ E% t4 U( O6 W4 c
  53. Text
    3 n8 q+ _2 P7 n9 G9 m+ s! J
  54. ID                                       : 37 L' {# B7 ^4 S0 p, t2 H* z0 s
  55. Format                                   : UTF-8
    7 j  P4 o' j4 [. U5 q, A
  56. Codec ID                                 : S_TEXT/UTF8) |6 j! k8 S/ I( J( W
  57. Codec ID/Info                            : UTF-8 Plain Text" B4 s) `/ g5 H# `8 R2 v. @
  58. Language                                 : English, @) `- ^8 H* }1 m+ p) i6 O
  59. Default                                  : Yes
    % x  G0 a, }* N2 V. T/ l8 C
  60. Forced                                   : No9 g0 |6 J5 r* a* ]3 q* H  L) p

  61. + ~1 \% g6 ]! N! q& V
  62. Menu
    : F3 s- _0 e3 X. {" ], R# ^' h9 p
  63. 00:00:00.000                             : en:00:00:00.000
    # Y2 x* _- S% `, u3 h4 {2 [+ N( r
  64. 00:09:09.716                             : en:00:09:09.716: m5 k* B5 w" D% |( \+ e
  65. 00:16:47.715                             : en:00:16:47.7151 J2 g8 y. A1 F) u/ ~: R/ h
  66. 00:27:46.248                             : en:00:27:46.248
    0 i. U) N& a8 |4 \* Y4 c" @0 b
  67. 00:37:09.269                             : en:00:37:09.2690 Q; S" {* c- H
  68. 00:46:54.687                             : en:00:46:54.687" p& V+ P" V; g( ]  Y/ {$ I
  69. 00:55:55.894                             : en:00:55:55.894! N9 [7 v( [' B$ n( R
  70. 01:01:26.057                             : en:01:01:26.057; F3 q5 v! Q+ |9 w( l8 v
  71. 01:14:24.418                             : en:01:14:24.418
    ' E. k  j- z# ^4 Y0 {( K
  72. 01:22:48.630                             : en:01:22:48.6307 q, A5 ^& K) J
  73. 01:33:16.674                             : en:01:33:16.674
复制代码
# z! Y4 {/ d6 i3 o# @

, G) Z. O% L7 i

% t: B& y' t. k  M                               
登录/注册后可看大图

, z% }3 V! E! l5 M- G: e4 m$ t& j
, g, o5 }7 w& X8 C2 t2 B' o  u
2 r) f8 V: f' `4 c( L' p, i0 D
游客,如果您要查看本帖隐藏内容请回复  捐助论坛可免回复查看隐藏内容 详情请点击
最近访问 头像模式 列表模式
HD一条街,身边的一条街。
发表于 2015-11-3 22:00:01 | 显示全部楼层
非常的好! 謝謝!!
HD一条街,身边的一条街。
发表于 2015-11-4 07:32:57 | 显示全部楼层
感觉这部电影挺好看的,下载看一下。
HD一条街,身边的一条街。
发表于 2015-11-4 07:56:13 | 显示全部楼层
67年的片子出了蓝光!!!太厉害了。
HD一条街,身边的一条街。
发表于 2015-11-4 08:38:42 | 显示全部楼层
谢谢楼主分享
HD一条街,身边的一条街。
发表于 2015-11-4 09:25:49 | 显示全部楼层
好老的电影,下载来看看
HD一条街,身边的一条街。
发表于 2015-11-4 09:39:48 | 显示全部楼层
经典啊,看看,谢谢分享
HD一条街,身边的一条街。
发表于 2015-11-4 19:22:18 | 显示全部楼层
六十年代的片子,看看,感謝分享~~
HD一条街,身边的一条街。
发表于 2015-11-4 22:49:41 | 显示全部楼层
感谢大大分享经典电影 这个版本太强大
HD一条街,身边的一条街。
发表于 2015-11-5 08:59:36 来自手机 | 显示全部楼层
老片出高清版,大家有福了。
HD一条街,身边的一条街。
您需要登录后才可以回帖 登录 | 加入我们

本版积分规则

手机版|小黑屋|有问题发邮件到admin#(换成@)hd1tj.org|微博|免责申明|HD一条街

GMT+8, 2017-2-20 23:39

Powered by Discuz! X3.1

© 2001-2013 Comsenz Inc.

快速回复 返回顶部 返回列表