开启辅助访问 切换到窄版

HD一条街论坛

 找回密码
 立即注册
查看: 109|回复: 5

[其它] [115][十万火急][DVDRip/1.59G][粤语][MKV][1997年刘青云/方中信/李若彤/刘松仁/黄卓玲主演]

[复制链接]
发表于 2015-5-27 17:01:22 | 显示全部楼层 |阅读模式

. o8 M" d/ {& n3 \  B                               
登录/注册后可看大图
* L7 Y' ]0 E7 W/ {
6 z8 F1 M, d* g) O6 f

* A  U' Z. j6 p% N6 ~' U  E4 L, d◎译  名 Lifeline4 Y) H0 P7 t2 J& n
◎片  名 十万火急! O7 v2 J/ m5 w) d5 C
◎年  代 19973 _0 n) [( c2 Y% |
◎国  家 香港: }7 K3 [- u3 @4 g! n2 a+ r
◎类  别 惊悚/动作
6 F7 C* `' O- w! X- i◎语  言 粤语2 l8 l! u9 }+ l3 ~/ R5 N' e
◎上映日期 1997-01-03) z3 W9 z  {2 r* t$ ]4 W1 d3 `, n
◎IMDb评分  6.9/10 from 368 users
9 y9 Q) j( Y4 ]◎IMDb链接  http://www.imdb.com/title/tt0120115/7 B  u" \. S1 P
◎豆瓣评分 7.3/10 from 4,165 users
) G8 z/ b9 `! A: O$ M; M  j◎豆瓣链接 http://movie.douban.com/subject/1304045/, j4 l" r0 Y/ }0 R8 Q
◎片  长 108 分钟  K* _; g: k5 q/ z) ]+ t0 {
◎导  演 杜琪峰
, D) I% m4 q" s  B3 J. A. E9 r◎主  演 刘青云4 \9 Y* h' J6 Y. V: r" P+ O1 z
      方中信* }; S9 V0 n. G% e* C7 L) e& H
      李若彤
6 g) J0 [; l  H6 }, g1 T      刘松仁
9 U+ F9 b0 {* T7 E; w; j* }+ m      黄卓玲- ^1 V& a/ E1 c, g7 z
      黄浩然
$ V3 N, @( N# h1 p      林雪/ M7 _. n8 W' c$ Y
      元彬6 G7 }& [0 N9 Z0 m  {: W4 V2 U
      陈启泰
9 E7 ]! y7 u8 l' {4 {. G6 o4 y$ h8 V/ ]
◎简  介, N) u$ v) j3 O% B- n, ^8 z
5 k$ Z5 d( ?% G6 v
  消防队长云(刘青云饰)是个刻己尽责的救火队员,每当意外发生,他都要和队员赶到火场。新调来的上司(方中信饰)决心以严谨纪律重整阵容,他的苛刻要求招致一众消防员的不满。但在生活上,他们各自并不如意。上司重遇前妻,形同陌路。一心为事业的女见习队长(黄卓菱饰)也与丈夫貌合神离。云在一次现场抢救过程中,搭救了Carmen(李若彤饰)。- P0 o9 ]6 u5 K
  面对那场突然爆发的灾难性的五级大火,对消防员自身构成危险,所有人必须离开火场,火场內藏有大量危险品及引致大爆炸,並且释放出大量有毒气体,而火场內仍有生还者待救。身处生死边缘的消防队员们,仍决定奋不顾身继续救人,最后他们能否成功?$ H, D5 `8 m5 Z& x% W: }
2 d  f/ [+ ]/ L: P$ H) C
◎获奖情况# f. [+ f! c1 v0 C6 p

% H0 k9 R! q4 I3 B  第17届香港电影金像奖 (1998)5 q5 F. Y& h6 O$ x- M0 l( F# J
  最佳电影(提名) 方逸华
: R- S6 s5 q0 P9 K  最佳导演(提名) 杜琪峰/ u: E6 W- B; O
  最佳新演员(提名) 黄卓玲
2 @! t2 [* N- v( t' k* W0 A/ H- L+ N  最佳剪接 黄永明
3 x4 ~& i/ Q, e" _; G1 {' h9 A  最佳动作设计(提名) 元彬6 z8 w9 B6 z5 y- K2 I3 \. k" t
  最佳音响效果
  1. Format                                   : Matroska
    . a8 H" P2 B/ ~! w. g* f3 D
  2. Format version                           : Version 23 r3 O5 a7 \" x
  3. File size                                : 1.59 GiB+ S2 e6 o/ t1 R$ o
  4. Duration                                 : 1h 43mn! P# O; _+ y6 W" U. h' {
  5. Overall bit rate                         : 2 185 Kbps
    8 J9 u/ d$ |% g
  6. Writing application                      : HandBrake 0.10.1 2015030800
    * t! s- l6 G2 h0 q' O
  7. Writing library                          : Lavf55.12.03 t4 g# |( R& r5 v$ I: U8 |0 H

  8. 7 c5 Y2 a. V* l2 a5 ^
  9. Video) U8 w7 |8 }1 q9 m( S$ h& r
  10. ID                                       : 1
    : }: I0 s' B3 z# v, Y$ Z- @4 T
  11. Format                                   : AVC+ g5 A" Y0 }  \$ q8 Z+ S1 M0 c  d
  12. Format/Info                              : Advanced Video Codec
    , p  z- T0 r( t. o; M. `5 P2 ^5 h
  13. Format profile                           : [email protected]7 {7 r' @$ L/ y2 C% Z; E/ Z9 J/ P3 I
  14. Format settings, CABAC                   : Yes
    * b2 ~3 N% i$ k" }5 n5 c2 g# G
  15. Format settings, ReFrames                : 16 frames+ w0 `6 o, G$ M. V, W. y
  16. Codec ID                                 : V_MPEG4/ISO/AVC3 z4 j8 c2 }5 C' |1 P) H; r
  17. Duration                                 : 1h 43mn* ?0 l7 K* p3 O- C4 {" G, T
  18. Bit rate                                 : 1 758 Kbps9 M' Q9 L+ S3 h$ A
  19. Width                                    : 714 pixels" w6 z" l0 P" o' ^1 ]2 N
  20. Height                                   : 390 pixels5 z9 [8 F( Y; o
  21. Display aspect ratio                     : 1.85:1
    7 x" u2 T0 X+ r$ X' E2 Z$ D- G1 l' j
  22. Frame rate mode                          : Constant
    , l9 f2 P- v. H  |
  23. Frame rate                               : 29.970 fps9 U* }' R$ }& y$ E5 P8 ?- F% G/ N4 a5 {
  24. Color space                              : YUV: K! l0 ]. w0 e' ?$ H% y/ G
  25. Chroma subsampling                       : 4:2:0
    * u. j7 |2 O3 B7 f' S9 |3 m
  26. Bit depth                                : 8 bits, F! y1 V' F- _2 n' ]9 ?
  27. Scan type                                : Progressive
    1 `3 S# `& W( [
  28. Bits/(Pixel*Frame)                       : 0.211
    * M$ f/ b6 Y5 l
  29. Stream size                              : 1.28 GiB (80%)
    & ^# q- t. t9 }$ T# k
  30. Writing library                          : x264 core 142 r2479 dd79a61% S( W& K" G  k% Y- S0 U
  31. Encoding settings                        : cabac=1 / ref=16 / deblock=1:-1:-1 / analyse=0x3:0x133 / me=tesa / subme=11 / psy=1 / psy_rd=1.00:0.15 / mixed_ref=1 / me_range=24 / chroma_me=1 / trellis=2 / 8x8dct=1 / cqm=0 / deadzone=21,11 / fast_pskip=0 / chroma_qp_offset=-3 / threads=6 / lookahead_threads=1 / sliced_threads=0 / nr=0 / decimate=1 / interlaced=0 / bluray_compat=0 / constrained_intra=0 / bframes=16 / b_pyramid=2 / b_adapt=2 / b_bias=0 / direct=3 / weightb=1 / open_gop=0 / weightp=2 / keyint=300 / keyint_min=30 / scenecut=40 / intra_refresh=0 / rc_lookahead=60 / rc=crf / mbtree=1 / crf=16.0 / qcomp=0.60 / qpmin=0 / qpmax=69 / qpstep=4 / ip_ratio=1.40 / aq=1:1.00) o3 u' {9 n3 S  y/ H5 N
  32. Default                                  : Yes
    $ e6 A  I" j$ [/ Y  F! Q3 H1 q4 F
  33. Forced                                   : No
    # q. t0 J* J2 N5 a# c2 R
  34. Color primaries                          : BT.601 NTSC
    4 l( v7 C6 V% o* @/ `5 F
  35. Transfer characteristics                 : BT.709$ p: U! D6 ^/ f0 W$ o. Y
  36. Matrix coefficients                      : BT.601
    7 H6 b% Y! [: F$ {' m9 P! R0 e8 K% N
  37. Color range                              : Limited; O5 w$ x9 M: E9 x! Y) _( g9 _( ?2 f
  38. 2 ?2 Q; {% c" [# A3 Y
  39. Audio% V9 b& O+ y. Z7 n4 @
  40. ID                                       : 2
    6 {& ]3 ~6 W* h
  41. Format                                   : AC-3
    4 i5 q; o: U4 y
  42. Format/Info                              : Audio Coding 3
    2 b# k& ?4 q* ^# e8 X9 ^# \
  43. Mode extension                           : CM (complete main)1 x6 l6 z# j. o  q0 s
  44. Format settings, Endianness              : Big
    9 b7 A+ J) n: \6 @3 F, I0 ^! O
  45. Codec ID                                 : A_AC3
    4 G: G9 j. N4 J2 c0 E3 J& @: O
  46. Duration                                 : 1h 43mn4 z- N+ f+ G* ^3 `. O) }2 @3 @
  47. Bit rate mode                            : Constant  D( ^" t" D0 J* T5 k( C
  48. Bit rate                                 : 384 Kbps7 Q  l7 O' Q/ r$ X7 o
  49. Channel(s)                               : 6 channels
      e) |3 Y& ~& r8 s2 J
  50. Channel positions                        : Front: L C R, Side: L R, LFE7 B2 p& }4 l! j  P) H5 H5 x0 M
  51. Sampling rate                            : 48.0 KHz
      H) X3 E+ R' M+ ?; B
  52. Bit depth                                : 16 bits+ q$ m8 L0 I- z, }
  53. Compression mode                         : Lossy  ~& s2 C# U8 l0 t! V
  54. Stream size                              : 285 MiB (18%)
    * o. @) [. s0 U4 @
  55. Title                                    : Surround
    0 M. [' ?/ A0 P! S+ O
  56. Language                                 : Chinese
    , s7 D6 ?* `: x8 q5 D* m
  57. Default                                  : Yes  ]1 _. d) }% F4 ^
  58. Forced                                   : No
复制代码

5 L/ M* \: D: u  j- h( D, b6 l# X% A. A4 [; k* M5 W  A
, B" @  q% W) ]' x
                               
登录/注册后可看大图
0 @. Z' w, s; g: i2 D" T
* Y. m& v4 z* n; n6 w' M# J( B( [0 S
                               
登录/注册后可看大图

7 G6 p: T: L0 t8 s6 \3 a" i
; K" y; i5 [( K' M, L6 }) H& t
                               
登录/注册后可看大图
* }! M8 k2 f* d' _9 t  [

# h9 h& v4 W1 S' M# ?# F- M3 E7 w/ {                               
登录/注册后可看大图
0 I0 b5 G2 U9 a+ s" r

" N, q$ Q6 B5 h3 b! \                               
登录/注册后可看大图
! e. T0 I' T3 \
1 k& }0 S8 g; B0 ]! ?
                               
登录/注册后可看大图
$ Y* A& d; W6 d9 Y7 y: C! ~" y

( P+ ]% V4 E2 h5 V* D1 n- H8 H5 [7 A* B2 ^, h. B
115网盘* G5 W) x9 c" l5 e/ ~

7 o1 s% ]0 Q3 F8 A3 E. ^
游客,如果您要查看本帖隐藏内容请回复  捐助论坛可免回复查看隐藏内容详情请点击
最近访问 头像模式 列表模式
HD一条街,身边的一条街。
发表于 2015-5-27 18:05:48 | 显示全部楼层
其实我一直觉得楼主的品味不错!呵呵!
HD一条街,身边的一条街。
yuanyuxin623 该用户已被删除
发表于 2015-5-27 18:14:46 | 显示全部楼层
提示: 作者被禁止或删除 内容自动屏蔽
HD一条街,身边的一条街。
发表于 2015-6-12 13:23:31 | 显示全部楼层
楼主发贴辛苦了,谢谢楼主分享!
HD一条街,身边的一条街。
发表于 2015-6-27 13:06:34 | 显示全部楼层
分享高清资源,就来HD一条街!
HD一条街,身边的一条街。
您需要登录后才可以回帖 登录 | 立即注册

本版积分规则

手机版|小黑屋|有问题发邮件到admin#(换成@)hd1tj.org|微博|免责申明|HD一条街

GMT+8, 2016-12-8 04:13

Powered by Discuz! X3.1

© 2001-2013 Comsenz Inc.

快速回复 返回顶部 返回列表