开启辅助访问 切换到窄版

HD一条街论坛

 找回密码
 立即注册
搜索
查看: 205|回复: 4

[1080p] Looney.Tunes.Volume.1.1936-1966.1080p.BluRay.REMUX.AVC.DD1.0-RARBG 45.54G

[复制链接]
发表于 2015-4-9 17:53:13 | 显示全部楼层 |阅读模式
1 ]5 U9 Q1 I) P* T1 g
                               
登录/注册后可看大图
+ e5 B3 U  k# Z' W) B, @0 X" i: M
* X& ?/ |7 u  c
50 Remastered Theatrical Shorts0 t) J/ {, a7 w- C% u8 N/ C% ^
. T' X% v2 j& s# J
Episodes:1 @' l1 q' r3 s  \9 [* s
01. Hare Tonic7 y  _( e4 |% a
02. Baseball Bugs- r8 F; u: R, z8 P
03. Buccaneer Bunny- I" \3 m% o$ t; D  E! v, ?2 G9 U
04. The Old Grey Hare
; ]) F) H& u" P' y! R! z) {/ o# F05. Rabbit Hood5 W# F, ]0 n( }7 o0 O
06. 8 Ball Bunny
. X, d5 p1 R4 E07. Rabbit Of Seville
8 v$ ~, x- D" M- p08. What\'s Opera, Doc?; `, Z: D, \% `$ T- U( n) F  l6 P
09. The Great Piggy Bank Robbery' T3 f) s% P& T* G$ s
10. A Pest In The House
( w; _" c/ L8 b4 }+ E0 H& a# w11. The Scarlet Pumpernickel
6 p0 \+ [, A% c$ ]* d12. Duck Amuck* e2 ?$ x( s2 g- B' \+ Z
13. Robin Hood Daffy
+ U: [' A7 h/ |5 g14. Baby Bottleneck5 f+ `9 I1 P% L3 U0 y5 {6 D8 d
15. Kitty Kornered
4 Q  [, U+ s  N; K1 h16. Scaredy Cat" ^; C3 Z+ {: X4 }2 ]9 X2 e
17. Porky Chops
  m( z( O; O/ {/ y. L$ m8 L18. Old Glory
6 p7 E* Q( M/ w# \0 |9 L19. A Tale Of Two Kitties
1 t, B2 J: @) [# p20. Tweetie Pie4 B) F- U" C7 _; l
21. Fast And Furry-ous8 j2 a8 o2 E* Q3 `! q
22. Beep, Beep
: z. ~9 B6 G8 c23. Lovelorn Leghorn
0 `- e0 V2 @5 E24. For Scent-imental Reasons3 D! H! H! A, R; c5 j
25. Speedy Gonzales
. ]* F/ [' K0 W26. One Froggy Evening  Q+ g6 f- g( S6 p# W
27. Three Little Bops2 X7 e* x, z3 `& d$ i& q
28. I Love To Singa
0 L- i/ k: U. z3 J29. Katnip Kollege7 e; h8 |$ m) o9 X  Q
30. The Dover Boys at Pimento University
" m) ]0 Y3 z/ L2 [% |& a& {31. Chow Hound% l( q1 s# W: b/ y6 S: x: J
32. Haredevil Hare9 R- f6 r! D$ r, I5 x) ^) e$ }
33. Hasty Hare, The
; k* J( N) T( f6 L. j34. Duck Dodgers In The 24th Century' _5 y: o% H3 x, j1 g, d  L
35. Hare-way To The Stars
; U2 R6 m" w9 a$ D; y* W36. Mad As A Mars Hare& L: F/ O. D5 ]- s# I% ~
37. Devil May Hare
1 `/ m) k; [1 b6 b, {, ?38. Bedevilled Rabbit% u9 d( B- Q/ g5 Z
39. Ducking The Devil
8 h( e( U. R. K# L1 g$ `40. Bill Of Hare
4 }' Q5 O: z; j- U# X41. Dr. Devil And Mr. Hare) e& I+ i$ F, Q3 R
42. Bewitched Bunny
/ {& }* b' H+ l* A5 z43. Broom-stick Bunny9 ?) b0 z+ x7 c  q
44. A Witch\'s Tangled Hare
* p& `& e/ Y5 n+ o45. A-haunting We Will Go
, ]! x  O% N$ x7 T/ I& }! |; ]46. Feed The Kitty
9 l0 [- A, A* A; F9 h1 ^47. Kiss Me Kat/ ~8 u" ]' {: V4 W+ S4 i: U- z$ i
48. Feline Frame-up
2 [, p% {/ o: Z. s$ K. E49. From A To Z-z-z-z( ~1 E& E1 D4 P8 n$ e8 ~6 e
50. Boyhood Daze4 h" x; p0 V, i. Q& V
2 g# O* F( e5 O8 i9 z( j) L
4 Y+ @) h) t, ^
3 a1 n# p  U# l1 b1 G5 C
Screens:8 N+ L4 B8 l+ N7 r

4 _7 u$ `. T* [; S
3 T5 h# r0 f9 L4 r, v( H! A( w; m
" C  O+ o4 s" n; G8 m; M( }6 ?
% \% k0 m3 |3 q: U: ~& s  C! B
3 b' g# L3 D# o# |& Y( b0 ^' d+ l9 n: I) b, b
& K/ I0 S0 ^2 }- v9 I: x+ L! H

. g4 L* U/ [. ^; D( Q- b# ?9 V. E9 R( _  q$ i  Z
[url=][-] Hide MediaInfo[/url]
- A1 [9 e' N- B
& A( R2 ~* t& x% E- E- G: rVideo* s8 {$ c$ a8 {( d# H5 G5 t! Q
ID                                       : 1# V5 \/ l* j* t- F4 G
Format                                   : AVC
" g8 U1 J/ l2 s$ IFormat/Info                              : Advanced Video Codec# @( N& J7 F" W, n% c( d# \% @
Format profile                           : [email protected]
8 G0 n" t  ?. k0 CFormat settings, CABAC                   : Yes' e7 f9 t5 q. Q
Format settings, ReFrames                : 2 frames) [3 o6 e5 }0 |$ H6 c3 i( r
Codec ID                                 : V_MPEG4/ISO/AVC6 L( Z) n+ c5 O+ P
Duration                                 : 8mn 20s8 U1 \7 H. s) ^+ i
Bit rate mode                            : Variable$ R% O: M' q0 q& O" p+ @. s
Bit rate                                 : 17.6 Mbps
* ?9 U% y& A9 ?0 k" I9 e4 ], `Width                                    : 1 920 pixels+ w& _9 {+ ^" a, N. }( V
Height                                   : 1 080 pixels
7 `" Y1 c& f" g2 V; SDisplay aspect ratio                     : 16:90 d7 L. Y( e# ?
Frame rate mode                          : Constant8 X. R% N/ ~. q! X
Frame rate                               : 23.976 fps
2 |3 C) w7 O2 ?1 i; B1 w( ^Color space                              : YUV
" c. d2 L3 {! w$ hChroma subsampling                       : 4:2:04 Z% |7 n# q3 z
Bit depth                                : 8 bits
7 B# ?! h8 L4 x' eScan type                                : Progressive4 ^3 a  R' N+ |/ }* ^2 T1 O8 x
Bits/(Pixel*Frame)                       : 0.353
' i' O9 w( i+ C8 e. l. z% g$ {8 c5 kStream size                              : 1.02 GiB (97%)- |$ R+ w( G# z3 R) c% k" o+ A
Default                                  : Yes' ]% k( ~' w* H% O* U) u
Forced                                   : No7 A( N9 w( q- Y+ X2 d1 @) M
  B" X2 M) ^, r, g1 X
Audio( E% u; p; d0 V$ r8 K& H
ID                                       : 27 ]+ K. T/ S5 y- M) {
Format                                   : AC-3! E9 E" y% G7 P- t
Format/Info                              : Audio Coding 3
- L# W" f9 y  N+ [+ U7 E1 A( ^$ oMode extension                           : CM (complete main)
" N: h5 g$ u9 j4 B, x9 `Format settings, Endianness              : Big
/ a2 I. W& Y% K( KCodec ID                                 : A_AC3
' ]& q3 v1 E! L8 J+ a5 D- d+ P* xDuration                                 : 8mn 20s9 u% q* w/ Y# \5 ]/ G8 V: g
Bit rate mode                            : Constant
) _2 q/ o/ s! GBit rate                                 : 192 Kbps
+ e  c* f. H. U$ q% \- S" k$ o' \Channel(s)                               : 1 channel
) q- {% x# j/ l% F' N/ i& MChannel positions                        : Front: C
( o% z) K! P- k; v$ ~Sampling rate                            : 48.0 KHz
0 N- R$ P# P( |( SBit depth                                : 16 bits: K" ~7 Q' z3 @9 a3 u( v
Compression mode                         : Lossy. \0 q/ U2 u9 c, _$ E& z
Stream size                              : 11.4 MiB (1%)4 {( E8 {; q2 w3 r4 `* B
Language                                 : English* p% [4 V8 Y, @) v
Default                                  : Yes5 V6 F) s/ ?8 \4 |
Forced                                   : No
! L' e% F# a# g
' e' q$ U6 z8 F! G- Q  {Text
8 o. e% `8 V' _/ L/ X) c9 A, yID                                       : 3
* Y; I; M' N0 H0 W- ?- l  g4 RFormat                                   : PGS
5 ]! ?$ s* p3 x, O/ S3 GMuxing mode                              : zlib- G( g! ?5 e+ r# j, |. ~
Codec ID                                 : S_HDMV/PGS- q" Z' J( T" f* `
Codec ID/Info                            : The same subtitle format used on BDs/HD-DVDs" Q" a. _/ D" y0 i- E
Language                                 : English9 T7 x6 \$ s3 Y" t5 k
Default                                  : Yes
9 F# }) B2 v' VForced                                   : No9 @5 s3 r, c$ R& W$ Q4 ~9 X
+ m# ?5 r  M% z% F4 Q
  t$ e. n* h+ X
游客,如果您要查看本帖隐藏内容请回复  捐助论坛可免回复查看隐藏内容 详情请点击
最近访问 头像模式 列表模式
HD一条街,身边的一条街。
发表于 2015-4-9 17:56:16 | 显示全部楼层
既然你诚信诚意的推荐了,那我就勉为其难的看看吧!
HD一条街,身边的一条街。
发表于 2015-4-9 21:05:36 | 显示全部楼层
在HD一条街找到好多东西
HD一条街,身边的一条街。
发表于 2015-4-9 22:38:40 | 显示全部楼层
这个帖子不回对不起自己!
HD一条街,身边的一条街。
发表于 2015-4-10 02:44:09 | 显示全部楼层
感谢楼主分享啊 。
HD一条街,身边的一条街。

手机版|小黑屋|有问题发邮件到admin#(换成@)hd1tj.org|微博|免责申明|HD一条街

GMT+8, 2017-4-26 19:55

Powered by Discuz! X3.1

© 2001-2013 Comsenz Inc.

快速回复 返回顶部 返回列表