HD一条街

 找回密码
 立即注册
搜索
查看: 2716|回复: 26

[720P] 倩女喜相逢[国粤双语 简繁中文字幕]My Spiritual Ex Lover HDTV 720p x264 2Audio-DTKTV 22.51G

[复制链接]
发表于 2015-3-7 15:13:14 | 显示全部楼层 |阅读模式

马上注册,结交更多好友,享用更多功能,让你轻松玩转社区。

您需要 登录 才可以下载或查看,没有帐号?立即注册

x

! j/ C8 J; e7 \  S8 j9 A                               
登录/注册后可看大图

% q' `6 N; {# s7 @! C
- j. d. N: J9 q6 ~3 ~9 r
: \8 I% v7 |7 C0 b$ z中文名 : 倩女喜相逢+ U0 u/ D! @& d; w% X- [5 J
英文名 : My `Spiritual` Ex-Lover
* O5 a# R" c  ]監   製:莊偉建, 葉鎮輝5 d, Q: L# Q$ T5 F
編   劇:張雪菊、溫淦鋒、鍾正龍、楊詠瑩、王浩然
/ ?" ]4 F) D4 W6 o( Y# N編   審:陳金鈴
1 ?2 D* d: B' B& r9 m: Y& F+ I播   送:香港電視廣播有限公司 (TVB)
. V( S' |' I+ t. D5 `, h製   作:香港電視廣播有限公司 (TVB)4 H/ q. \/ r8 w4 F
首   播:2015.02.09
& Z4 x2 p, A' b& I) o: n1 C7 O時   間:星期一至五 9:30PM 翡翠台、9:30PM 高清翡翠台
. I1 I8 m3 x4 j$ E* p) P集   數:15集" G3 s' [, D; x2 k( T" t+ {

$ V" Z( t" k( U, Q9 O. x聊齋志異中,以女鬼聶小倩及書生寧采臣的故事最為人津津樂道。章卷中的淒美情節固然令看官留下深刻印象,今次為這部經典注入荒誕的喜劇元素,從歡笑中帶出發人深省的道理!
  1. Video
    0 [; t1 X: I; N7 q
  2. ID                                       : 1: l  f  X! D: g2 X9 Q, W  X* }
  3. Format                                   : AVC# X5 D8 t9 z; [3 K' O. n+ Y5 z# A
  4. Format/Info                              : Advanced Video Codec
    , T! n, y2 |% K3 m9 w0 D
  5. Format profile                           : High@L4.1
    8 o. |& U6 c0 N+ D% F
  6. Format settings, CABAC                   : Yes& |- Z; M, z3 e1 c) J" s6 M8 p
  7. Format settings, ReFrames                : 8 frames7 X8 r: l4 S# `/ q
  8. Codec ID                                 : V_MPEG4/ISO/AVC
    / i! e% O! y% E3 h2 j* g; o
  9. Duration                                 : 1h 27mn# Q# D0 E+ g% l) B* f/ c
  10. Bit rate                                 : 4 211 Kbps: Y2 Z& f( ~; Y$ F9 s* }# w# z0 I2 `2 G
  11. Width                                    : 1 280 pixels7 T: C5 T% q' [% ]5 r
  12. Height                                   : 720 pixels" g" h1 a* P. R; {
  13. Display aspect ratio                     : 16:9, R( f! d  [( x+ o: \0 c6 v( }
  14. Frame rate                               : 25.000 fps
    ( H9 M) V5 `2 o9 \( s( u+ O) r
  15. Color space                              : YUV
    / G2 h$ p5 M8 U5 B& j. ~) q
  16. Chroma subsampling                       : 4:2:0
    0 W2 K2 \. {; y$ X/ j7 E( u
  17. Bit depth                                : 8 bits/ W! z! P; w) m
  18. Scan type                                : Progressive4 m! c( q) k4 `
  19. Bits/(Pixel*Frame)                       : 0.1830 `; \4 x' i* X3 V0 r
  20. Stream size                              : 2.58 GiB (86%)
    / s* u9 x$ u+ G3 `4 Z2 o2 |8 j# n
  21. Title                                    : HDTime7 |& V- A  P- ^! [$ |! o
  22. Default                                  : Yes, _$ S8 M- `) D9 j4 I2 \
  23. Forced                                   : No
    " i5 j' R4 c5 S3 x
  24. + ]. Y' K1 T8 |
  25. Audio #1
    ( |/ P. F1 Q! C1 R, T
  26. ID                                       : 2* s: P, J! W$ a3 T: J, v
  27. Format                                   : AC-3' D' g, R' ?. c% {8 l  Z+ ?. x
  28. Format/Info                              : Audio Coding 3
    ! O& E" Z( Y2 G6 L
  29. Mode extension                           : CM (complete main)% _+ N" t3 J9 w
  30. Format settings, Endianness              : Big
    : o8 ^# ]  s; E* ]# A* w
  31. Codec ID                                 : A_AC3) u$ x. _$ L' G! X. u7 ~$ y
  32. Duration                                 : 1h 27mn, s  K8 c/ {/ Y4 x) x5 B( |
  33. Bit rate mode                            : Constant$ T, j* t$ \! u0 e+ G+ z& t" o
  34. Bit rate                                 : 384 Kbps' _! q1 B- E- X: z! X4 x
  35. Channel(s)                               : 6 channels. M& x' M/ C  P0 g
  36. Channel positions                        : Front: L C R, Side: L R, LFE. R6 T5 r) L. S8 l% j* p( i+ v" @
  37. Sampling rate                            : 48.0 KHz1 f; X5 b* w5 Y
  38. Bit depth                                : 16 bits( d( \. X, p3 J! F
  39. Compression mode                         : Lossy
    ( ~+ W  c7 I: D9 i
  40. Delay relative to video                  : 10ms
    . [+ g! b/ Y# W. _# i
  41. Stream size                              : 241 MiB (8%)
    8 u4 R+ V5 R" X9 N7 q
  42. Title                                    : Cantonese) {3 H3 X6 F& F7 a: L7 E3 ^+ K
  43. Language                                 : Chinese
    ' R1 t# b. e+ S+ R& A7 m
  44. Default                                  : Yes) ?$ N  n5 y0 ~) O) T! y& M; `
  45. Forced                                   : No; \& C# M' _+ Y0 F# w# X# L; C

  46. ; z6 f0 q7 C& h; p
  47. Audio #23 B+ @) m3 a) d9 X
  48. ID                                       : 3
    & I0 Y& T, _5 g$ q% N# Y- S- t
  49. Format                                   : AC-3
    : e2 A7 R' J; b5 p
  50. Format/Info                              : Audio Coding 3
    $ p# ?! Q; A% X5 X" @1 _. m0 S
  51. Mode extension                           : CM (complete main)
    5 d( c/ H% m& @3 B
  52. Format settings, Endianness              : Big; V# k0 D6 e) O5 c6 A
  53. Codec ID                                 : A_AC33 C2 V  l3 m  J6 |6 ?
  54. Duration                                 : 1h 27mn: ]% N" D7 R7 p' c: J/ a9 G
  55. Bit rate mode                            : Constant6 {: }8 M9 m% g4 y- ^. b5 B1 D
  56. Bit rate                                 : 192 Kbps8 @" j2 f: N: n7 a6 a
  57. Channel(s)                               : 2 channels
    + _+ i! f% o7 {" d
  58. Channel positions                        : Front: L R" H) B- ~! Y( I1 Q3 M) V1 B( ?
  59. Sampling rate                            : 48.0 KHz
    * Q* ]/ d' @- d& @4 D4 R
  60. Bit depth                                : 16 bits! b) \! `1 o: N0 k& q5 m2 w3 Q8 P* {
  61. Compression mode                         : Lossy9 ]3 S3 R: X4 u# M7 B1 V1 f
  62. Stream size                              : 121 MiB (4%)4 G/ D+ x5 ?  j" r* H% A
  63. Title                                    : Mandarin, n, P% i' w& d/ X& M7 L3 W
  64. Language                                 : Chinese
    5 h3 P7 u' U- r
  65. Default                                  : No) C# u9 F" g6 j; @- N3 Q
  66. Forced                                   : No* n) u* r" ~$ r4 |" V& g
  67. 5 ^% H1 T& y) U' j* ]3 K$ o; L! }+ |
  68. Text #1( O) M5 ~5 R: @/ E! L, \# Z9 y# F
  69. ID                                       : 4' e/ }. Z# q5 l  S! R* u* _: B
  70. Format                                   : UTF-8% l" j* C3 U. H: g' Z
  71. Codec ID                                 : S_TEXT/UTF87 h# ?" P; @3 \) [# k- ^# ]4 y
  72. Codec ID/Info                            : UTF-8 Plain Text# N5 d! }/ e# g, G7 C5 y
  73. Title                                    : Chs
    " t2 J2 K1 f  j& {0 _# Z+ B: v" D
  74. Language                                 : Chinese: S& _* n- Z: ]0 h( s5 h
  75. Default                                  : No5 f" S" r0 U! t% B* d
  76. Forced                                   : No8 P: U, E3 F$ A( p

  77. 1 f* f  ]$ M) Q( C0 r) N: Y/ Q2 o
  78. Text #2
    7 e$ J5 ~, T" m( y- t+ q- G
  79. ID                                       : 5
    9 Y$ e9 E# x& B& @3 j
  80. Format                                   : UTF-8
    4 U  w7 U7 z( A6 `6 J
  81. Codec ID                                 : S_TEXT/UTF8
    % P2 N! V+ M( R- q$ P
  82. Codec ID/Info                            : UTF-8 Plain Text
    0 D  G* X5 K/ Q* A; q: J
  83. Title                                    : Cht
    3 |# G3 L/ w# V1 r  h5 V0 _
  84. Language                                 : Chinese3 X/ [: h3 Z5 {/ V2 }, G
  85. Default                                  : No
    5 [3 y* f, N: Q" q" D% V
  86. Forced                                   : No
复制代码

* i+ y  a6 Z! T% c( {* X9 W6 c, V' Y
; u3 w2 x6 }) |
                               
登录/注册后可看大图
9 m. Z* G  p2 ]  O' J/ W
% `% h. x6 g& Z
                               
登录/注册后可看大图
1 g  }) C  H7 P( X/ \) C: |) c0 |
8 G- e2 N) ~$ n. \, U
                               
登录/注册后可看大图

9 h  p7 H, o* ~5 o

1 Q& i+ X# j4 p  v+ O) E                               
登录/注册后可看大图
7 h7 a" Y8 Z2 @% T* ^3 g7 b

( P3 m6 V) A/ ^9 O                               
登录/注册后可看大图

1 R, l) _( z$ J$ i4 _1 y

5 x, U+ Q. r5 t6 }1 @                               
登录/注册后可看大图

' E/ A( x2 ~+ z7 E9 g. x9 }( o4 s" I- R8 ~* I( ^9 V3 s

/ R7 B  z$ _, e! d' y# W9 z115网盘
, y) \- G" w( `" {6 j
: @7 T+ s3 c) T2 T& A
游客,如果您要查看本帖隐藏内容请回复  VIP可免回复查看隐藏内容 详情请点击
发表于 2015-3-7 16:19:07 | 显示全部楼层
应该很搞笑吧,支持
发表于 2015-3-8 00:32:00 | 显示全部楼层
哇,终于更新咗喇
钟意 该用户已被删除
发表于 2015-3-8 08:37:23 | 显示全部楼层
提示: 作者被禁止或删除 内容自动屏蔽
ysj 该用户已被删除
发表于 2015-3-8 16:12:25 | 显示全部楼层
提示: 作者被禁止或删除 内容自动屏蔽
x385868158 该用户已被删除
发表于 2015-3-9 16:43:36 | 显示全部楼层
提示: 作者被禁止或删除 内容自动屏蔽
:-)轉瞬即逝の哖 该用户已被删除
发表于 2015-3-9 19:49:59 | 显示全部楼层
提示: 作者被禁止或删除 内容自动屏蔽
发表于 2015-3-10 16:23:11 | 显示全部楼层
谢谢楼主分享
发表于 2015-3-12 01:52:45 | 显示全部楼层
既然你诚信诚意的推荐了,那我就勉为其难的看看吧!
您需要登录后才可以回帖 登录 | 立即注册

本版积分规则

QQ|封号公示|有问题发邮件到admin#(换成@)hd1tj.org|微博|免责申明|HD一条街

GMT+8, 2021-4-13 06:21

快速回复 返回顶部 返回列表