开启辅助访问 切换到窄版

HD一条街论坛

 找回密码
 立即注册
搜索
查看: 305|回复: 15

[其它] 多桑[豆瓣 8.7分]A Borrowed Life 1994 1.39G

[复制链接]
发表于 2015-2-13 15:09:40 | 显示全部楼层 |阅读模式
Y1yU.jpg " H- x! |$ r, o+ Z% S
) W5 `8 x6 S- u* ^9 r; e: p$ E- z
导演: 吴念真4 T4 B4 l+ o2 }7 b( p
编剧: 吴念真$ R2 E" H8 C0 z% A( k
主演: 蔡振南 / 蔡秋凤 / 梅芳 / 陈淑芳 / 张凤书
* b3 @/ B# d& H类型: 剧情
6 y) c, ^* S' C- O% Y制片国家/地区: 台湾+ c& \' j3 V* _  }. N
语言: 日语 / 闽南语 / 汉语普通话" D4 u, J+ j+ n$ ~. Q7 Y- T
上映日期: 1994$ h0 F4 j% O. c' w- d" w6 i" ]: k5 {
片长: 167 分钟) D3 w, ~7 X5 q/ Y9 r$ F
又名: A Borrowed Life* E$ c- h/ Q# k. f8 V' z
IMDb链接:http://www.imdb.com/title/tt01096915 q/ j, U7 R* G6 _# M" u! B
+ N$ e0 w* E* y# N  ]: E  n. t. h
多桑的剧情简介  ·  ·  ·  ·  ·  ·
5 X; Z! z( x7 S* U; Z+ d2 s' Z" S  故事发生在1929年的台湾,那一年,多桑(蔡振南 饰)来到了这个世界。成年之后,多桑结婚成家,并有了三个可爱的孩子。然而,生活对于多桑来说是贫困而艰苦的,他在金矿场工作所得根本无法承担起家中巨大的开支,为此,多桑的妻子不得不外出做木工,以补贴家用。
  f) g1 a9 i7 F+ c9 p) n, t' s; r  屋漏偏逢连夜雨,金矿场倒闭了,家中失去了最大的经济来源。五年过去,多桑重回职场,当上了一名煤矿工人,并渐渐向上发展,最终成为了山中矿场的村长。人到中年,多桑终于患上了几乎所有煤矿工人都会患上的气喘病,不堪忍受病痛的折磨,多桑只能退休,没过多久,他便被送入了医院,只能依靠器械维生。 ©豆瓣
  1. TECH INFO
    ; U' z: A4 b; H2 ], }& R; b1 B% S
  2. General
    . m$ |: _& Y" \% d- S) J* \& E) m
  3. Format                                   : AVI
    + M9 L0 }8 E; d5 H
  4. Format/Info                              : Audio Video Interleave
    ) ?6 S3 m( ~  a% _7 c
  5. File size                                : 700 MiB- m! ~: K- f( o4 k
  6. Duration                                 : 1h 19mn$ V# `) k$ X4 Z
  7. Overall bit rate mode                    : Variable
    0 @0 ^  l5 F' j9 `4 a4 P# z1 ^+ @0 q
  8. Overall bit rate                         : 1 231 Kbps
    $ z7 |) v, j+ o$ Z6 Z, W- u% J0 ?4 w2 r
  9. Writing application                      : VirtualDubMod 1.5.10.2 (build 2540/release)# e8 ~5 r, n' P  `% w1 w; B
  10. Writing library                          : VirtualDubMod build 2540/release
    , r' R( h; _: [# G, I# `1 R9 p  d
  11. $ w& o  G$ R6 n& o8 P5 C3 ]* j, U
  12. Video6 ]/ a2 m' ?7 E3 m' p
  13. ID                                       : 0: t' t, S% [  ^; d, \& R  W0 ^2 x  \3 ?, J
  14. Format                                   : MPEG-4 Visual
    # {7 r/ d# q4 r
  15. Format profile                           : Advanced [email protected]7 B5 A6 l+ N) G! V9 Q1 x& s1 `
  16. Format settings, BVOP                    : No
    ( u: D1 }1 ^  ]/ |$ j6 ~
  17. Format settings, QPel                    : No
    # b5 p) Z  N- ^$ z+ ^
  18. Format settings, GMC                     : No warppoints/ |* I+ K) Q; e" ~+ n0 N9 S
  19. Format settings, Matrix                  : Default (H.263)5 L2 e* d1 p# u) @6 F
  20. Codec ID                                 : XVID; T* t, e! [+ E& k, |* z# q
  21. Codec ID/Hint                            : XviD
    + d$ W% [5 b2 a" R) q) C
  22. Duration                                 : 1h 19mn# ?0 Y6 P" n' q" k
  23. Source duration                          : 1h 12mn1 n$ k4 G. }% ]' ]6 ]3 A  H
  24. Bit rate                                 : 1 160 Kbps
    # e( G1 z! R  f3 f
  25. Width                                    : 640 pixels# f6 ]/ ?8 p# g# k% |
  26. Height                                   : 384 pixels% \8 E, q6 `* `5 P# A3 V
  27. Display aspect ratio                     : 1.667% `. L$ D1 X: F- h0 }+ F$ ^4 _
  28. Frame rate                               : 23.976 fps1 q5 `, Z0 n8 T
  29. Color space                              : YUV
    * `/ R; K; X) I6 Y' Y
  30. Chroma subsampling                       : 4:2:04 i1 C; X: Z7 b  K/ p
  31. Bit depth                                : 8 bits& ~1 W. ]& R4 s+ {% X
  32. Scan type                                : Progressive
    1 q1 x1 G3 O4 U; l$ F
  33. Compression mode                         : Lossy
    " O' F2 w& ^+ h: b. F: @
  34. Bits/(Pixel*Frame)                       : 0.197
    2 k3 k, c/ O* U9 l7 K
  35. Stream size                              : 602 MiB (86%)/ ~  E3 _; J$ e5 w' \
  36. Writing library                          : XviD 1.1.2 (UTC 2006-11-01)! s7 k* V5 [! O; n

  37. ( h4 P8 r* q* y& @: v
  38. Audio
      f5 W- f( Z$ `5 [  u: q
  39. ID                                       : 1
      e+ N) l- r. i7 E; M
  40. Format                                   : MPEG Audio  F2 h% N6 Y2 ^" G+ L: `. j
  41. Format version                           : Version 1
    2 ]' p+ h3 N( c( `9 X
  42. Format profile                           : Layer 3/ R2 j7 w) t* r
  43. Codec ID                                 : 55
    $ e  X9 p& j( ~; g# Q  d
  44. Codec ID/Hint                            : MP3/ I% K+ b7 V6 v; U9 N/ H
  45. Duration                                 : 1h 19mn1 k' A% P% y) f
  46. Source duration                          : 1h 12mn$ u0 }' V; p3 D6 n. C4 y/ V
  47. Bit rate mode                            : Variable) P/ J. Q" T/ A# D3 p% K& ]
  48. Bit rate                                 : 90.0 Kbps
    2 E% L7 Z( c5 [
  49. Channel(s)                               : 1 channel, ?" |# ?- v6 H$ S- e' i  Q) \" R
  50. Sampling rate                            : 48.0 KHz0 n- o6 R. @8 y/ k
  51. Compression mode                         : Lossy/ I  U/ J0 m6 a2 m3 x; `
  52. Stream size                              : 45.3 MiB (6%)
    2 F/ [5 s) V8 h3 c
  53. Alignment                                : Aligned on interleaves
    0 e1 N- d* W9 Z- r3 Y. D: F2 v
  54. Interleave, duration                     : 24 ms (0.58 video frame)
    - B2 d& ^# s' f# ~
  55. Interleave, preload duration             : 541 ms( |, y5 B: N- O
  56. Writing library                          : LAME3.90.# z0 V0 v) E+ ?6 D% \
  57. Encoding settings                        : -m m -V 4 -q 2 -lowpass 15.4 --abr 909 O1 h0 Z: y( J, r

  58. : P+ C' A3 a4 D, u# H: d$ s3 M* f
  59. General2 a9 c# w1 B5 l" }& D9 x
  60. Complete name                            :A Borrowed Life Part 1.srt
    , m' ~3 L. t6 W6 ^7 V
  61. Format                                   : SubRip- ~5 g2 o) K6 [$ {5 S
  62. File size                                : 55.9 KiB4 n4 F8 X0 u$ C8 `+ m" z$ N# J* F! ], L
  63. + q& ]! ?/ ]$ ~: Q
  64. Text
    ' y. B. ]+ t$ M0 v' z* ~  r# {
  65. Format                                   : SubRip
    3 T$ Z/ }6 L' z2 j) K
  66. Compression mode                         : Lossless) T! M# {* T  G2 O5 t9 s$ s% M
  67. 3 {* a+ V1 l+ G% C9 U4 n, Z
  68. General: }( C: g! D4 k1 c4 S/ h: {
  69. Complete name                            :A Borrowed Life Part 2.avi
      i: x( p3 q- Q4 ^; g% L/ R+ C
  70. Format                                   : AVI4 p, J3 Y, j; p! R6 s( O
  71. Format/Info                              : Audio Video Interleave6 L/ u+ n% V; z6 W
  72. File size                                : 699 MiB) t5 ~! N. |/ e
  73. Duration                                 : 1h 27mn  E2 U: y& ^2 U% J
  74. Overall bit rate mode                    : Variable
    5 |9 M+ e; w& [, R
  75. Overall bit rate                         : 1 116 Kbps5 ^; R4 p/ I* k1 x! j, y
  76. Writing application                      : Nandub v1.0rc23 e$ f# n6 D: i/ ~" T
  77. Writing library                          : Nandub build 1852/release
    ; Y6 Q; d8 M* z

  78. # ?0 |2 K, _$ v8 {
  79. Video
    ) R2 w0 U; p& |- n+ x
  80. ID                                       : 0
    ( ]# S! Z7 H( }. K
  81. Format                                   : MPEG-4 Visual
    $ \; [8 d# @# B& c! m
  82. Format profile                           : Advanced [email protected]2 R3 s. S3 X4 v3 U' K, y5 s" W9 B
  83. Format settings, BVOP                    : No
    6 w6 y1 G: ~/ z# Q6 Z' P; b% j
  84. Format settings, QPel                    : No
    ; X& O1 J# d7 y' Q/ k" E. r5 P9 p
  85. Format settings, GMC                     : No warppoints9 T) L8 U" l4 o1 k
  86. Format settings, Matrix                  : Default (H.263)4 J& H+ }: @3 @* f8 X! @
  87. Codec ID                                 : XVID  D" a  |, m, s2 z1 f3 P
  88. Codec ID/Hint                            : XviD/ q9 U' \1 V- M: s7 ^; M
  89. Duration                                 : 1h 27mn. D5 W7 a) m4 B0 w
  90. Bit rate                                 : 1 016 Kbps% D# d; I' \* n
  91. Width                                    : 640 pixels
    1 M, R9 q) X/ F
  92. Height                                   : 384 pixels
    - r" D0 ]1 z# n( B% p
  93. Display aspect ratio                     : 1.667
    9 U; a  p5 Q; u- t
  94. Frame rate                               : 23.976 fps' _' J8 V* Q) E; S6 O4 M! g
  95. Color space                              : YUV% I* I, q! F: _+ T3 e
  96. Chroma subsampling                       : 4:2:0* Q& U; ~- X) C8 L' C
  97. Bit depth                                : 8 bits% o- ]7 E  p. I3 ]" t' Y
  98. Scan type                                : Progressive* n& W" w- [! P! x2 {9 r
  99. Compression mode                         : Lossy
    ; u3 ]' \/ `! B; |% ]5 _
  100. Bits/(Pixel*Frame)                       : 0.172( q3 t1 `3 P! p# |  i
  101. Stream size                              : 637 MiB (91%)) x& a) l$ ]+ c5 f4 C( _4 l
  102. Writing library                          : XviD 1.1.2 (UTC 2006-11-01)# |6 T6 t: P: g( D2 Z; d& x
  103. - k! a2 }, i; F9 d! g# A% Q7 i
  104. Audio
    1 e9 w/ u1 Q% V. E% p# v
  105. ID                                       : 1' y7 E0 R- o6 Z/ f, s) T
  106. Format                                   : MPEG Audio
    % w5 f% v4 g& u  v* |
  107. Format version                           : Version 15 b$ Y8 d  X, `" s% {! R
  108. Format profile                           : Layer 3/ w; q( s* d/ n. F  z
  109. Codec ID                                 : 55
    ; @9 j9 ^6 m; G; W  H$ z
  110. Codec ID/Hint                            : MP3/ u' J2 h. W( s8 W# G
  111. Duration                                 : 1h 27mn6 F: I# U" t; A& Q7 M! W8 [& i
  112. Bit rate mode                            : Variable: ?* w8 c3 X; F- q) |, I2 j
  113. Bit rate                                 : 87.3 Kbps
    / k8 p5 w- ]8 ?4 ~* ^
  114. Channel(s)                               : 1 channel; S7 v6 s6 v9 H6 w/ |: L7 O& |6 r
  115. Sampling rate                            : 48.0 KHz
      b* S# ]) u6 \# o; a& [' W
  116. Compression mode                         : Lossy
    0 p- c; `( `) A! E
  117. Stream size                              : 54.8 MiB (8%)
    5 X: x/ J# R( [  T5 D) s/ F
  118. Alignment                                : Aligned on interleaves- V  k' I: s2 j& }1 k# W
  119. Interleave, duration                     : 24 ms (0.58 video frame)
    * M4 e) f1 |8 L$ ]. a9 C' t
  120. Interleave, preload duration             : 492 ms5 M5 ^' ?1 D$ i- g  t

  121. 2 v* s7 X0 E3 N7 l8 x$ J0 q" j  t
  122. General
    & v  P* n' Q; {1 v/ K8 W5 J  W
  123. Complete name                            :A Borrowed Life Part 2.srt# k+ a" P* F* l: a
  124. Format                                   : SubRip
    ' d' D1 Z% L/ N3 }1 B1 B
  125. File size                                : 55.4 KiB5 y& }+ p6 i$ f8 z& R9 F

  126. * m* v: k1 t/ B3 ^4 m
  127. Text# c1 g& P2 `0 C6 C3 M2 m
  128. Format                                   : SubRip. Y, O/ n2 X. p$ M
  129. Compression mode                         : Lossless
复制代码
+ c# P1 S8 C# _7 d
4 L5 S8 P( i2 v2 f
OpDK4.png
: K0 p( A: S" B4 {7 [. @6 ]2 U. c# {, e1 V+ L# J: R. C2 \
q01hf.png 1 ^& K' R+ M& j- o
7 `+ ]: c9 S5 U. o* N) S
YnK2M.png + b# @5 Z$ [8 @5 y) K

+ n: k5 P! v, R3 g115网盘:
2 @; u7 q6 t) O7 V" }4 j5 D1 C, d
8 E7 o7 A' Y) h* P: T% q. q
游客,如果您要查看本帖隐藏内容请回复  捐助论坛可免回复查看隐藏内容 详情请点击
最近访问 头像模式 列表模式
HD一条街,身边的一条街。
发表于 2015-2-13 16:48:01 | 显示全部楼层
HD一条街,是我心中的一条街
HD一条街,身边的一条街。
发表于 2015-2-13 23:37:15 | 显示全部楼层
感谢楼主分享啊。
HD一条街,身边的一条街。
发表于 2015-2-14 12:44:04 | 显示全部楼层
这部电影高清的太难找了~~
HD一条街,身边的一条街。
发表于 2015-3-2 14:41:37 | 显示全部楼层
分享高清资源,就来HD一条街!
HD一条街,身边的一条街。
发表于 2015-3-4 14:13:08 | 显示全部楼层
影视资源尽在HD一条街中, 哦也!
HD一条街,身边的一条街。
发表于 2015-3-15 16:14:41 | 显示全部楼层
这个帖子不回对不起自己!
HD一条街,身边的一条街。
发表于 2015-3-31 09:34:57 | 显示全部楼层
台湾有很多不错的小成本片子,多谢楼主分享
HD一条街,身边的一条街。
头像被屏蔽
发表于 2015-4-15 05:57:37 | 显示全部楼层
提示: 作者被禁止或删除 内容自动屏蔽
HD一条街,身边的一条街。
发表于 2015-4-15 08:46:53 来自手机 | 显示全部楼层
分享高清资源,就来HD一条街!
HD一条街,身边的一条街。

手机版|小黑屋|有问题发邮件到admin#(换成@)hd1tj.org|微博|免责申明|HD一条街

GMT+8, 2017-4-26 04:20

Powered by Discuz! X3.1

© 2001-2013 Comsenz Inc.

快速回复 返回顶部 返回列表