开启辅助访问 切换到窄版

HD一条街论坛

 找回密码
 立即注册
查看: 239|回复: 15

[其它] 多桑[豆瓣 8.7分]A Borrowed Life 1994 1.39G

[复制链接]
发表于 2015-2-13 15:09:40 | 显示全部楼层 |阅读模式
Y1yU.jpg
. L+ \2 j& U; n) g8 U6 h
% C" _$ t8 I) O( |* X1 k导演: 吴念真
$ Z  a, [8 u" i编剧: 吴念真$ y; z% A( N) e0 U  k+ G
主演: 蔡振南 / 蔡秋凤 / 梅芳 / 陈淑芳 / 张凤书
2 s6 p' ]2 I, X- \1 S% V类型: 剧情
8 X2 |$ }) I/ n6 @9 ?( E( P2 N制片国家/地区: 台湾
; U! f! [1 }) T& s语言: 日语 / 闽南语 / 汉语普通话  n  u& x; {8 S+ k: M
上映日期: 1994
( q, w& V7 E5 h6 W9 x; q; _2 e9 u" x片长: 167 分钟7 c" L5 v. X' k" B* w( b
又名: A Borrowed Life( Z1 s# L: v- h5 w9 s5 W
IMDb链接:http://www.imdb.com/title/tt0109691- _; u0 q* p/ G3 ]  E+ U& x
5 C  k: v( ]# I4 l- I# ?1 J* L
多桑的剧情简介  ·  ·  ·  ·  ·  ·
3 t( W- a+ y9 I  故事发生在1929年的台湾,那一年,多桑(蔡振南 饰)来到了这个世界。成年之后,多桑结婚成家,并有了三个可爱的孩子。然而,生活对于多桑来说是贫困而艰苦的,他在金矿场工作所得根本无法承担起家中巨大的开支,为此,多桑的妻子不得不外出做木工,以补贴家用。   Z7 I( [7 P9 q, N7 L1 e5 v
  屋漏偏逢连夜雨,金矿场倒闭了,家中失去了最大的经济来源。五年过去,多桑重回职场,当上了一名煤矿工人,并渐渐向上发展,最终成为了山中矿场的村长。人到中年,多桑终于患上了几乎所有煤矿工人都会患上的气喘病,不堪忍受病痛的折磨,多桑只能退休,没过多久,他便被送入了医院,只能依靠器械维生。 ©豆瓣
  1. TECH INFO
    & W8 Z! I8 K1 f) |
  2. General
    % N8 {4 D( }- V. i5 m" _
  3. Format                                   : AVI3 f8 T4 @. Y- J3 L$ X! m
  4. Format/Info                              : Audio Video Interleave# x: `' L  D/ V1 C* I3 V8 O* ]$ u
  5. File size                                : 700 MiB
    $ L1 H2 i$ P( J) }1 g
  6. Duration                                 : 1h 19mn
    " x( \: v5 N1 b
  7. Overall bit rate mode                    : Variable' U; t5 F7 k( h  j0 w
  8. Overall bit rate                         : 1 231 Kbps
    + t! ]6 R# q4 t. U2 s
  9. Writing application                      : VirtualDubMod 1.5.10.2 (build 2540/release), |4 s; }1 p3 N' E. M1 q: L- h
  10. Writing library                          : VirtualDubMod build 2540/release
    4 m+ _' U6 f1 x* U, ^

  11. 6 a: k& _+ [2 z$ {
  12. Video
    3 g) `4 ^: K, w  Y# Z( U) x
  13. ID                                       : 0
    4 _" {2 P3 r. N. {
  14. Format                                   : MPEG-4 Visual, }) l! Q; K& \% J, t+ y) S. H
  15. Format profile                           : Advanced [email protected]
    - I4 p4 n. z1 @1 \+ _3 Y
  16. Format settings, BVOP                    : No
    + z2 ~$ y# [3 N& i2 d* R  u
  17. Format settings, QPel                    : No% p. {3 L% S& @% c
  18. Format settings, GMC                     : No warppoints
    . G% u* e$ Z$ n
  19. Format settings, Matrix                  : Default (H.263)  ]* q9 W0 i$ F" Q
  20. Codec ID                                 : XVID
    4 n% y, p# |: P+ ~
  21. Codec ID/Hint                            : XviD  Y& B+ R5 Z7 h& X4 ]& s6 w
  22. Duration                                 : 1h 19mn& Y9 s8 F! n$ ^+ D
  23. Source duration                          : 1h 12mn
    % l* l4 j  R' l: E% S9 {
  24. Bit rate                                 : 1 160 Kbps
      o4 ]2 Z5 _; k
  25. Width                                    : 640 pixels0 C$ s- g- t8 Z  Y
  26. Height                                   : 384 pixels! A) q5 d8 w' _# n
  27. Display aspect ratio                     : 1.667
    9 N/ b1 V; h4 H9 K0 f# L0 r
  28. Frame rate                               : 23.976 fps
    0 o% ?; R0 T2 [
  29. Color space                              : YUV
    , }7 l6 C' v* Y! n+ [
  30. Chroma subsampling                       : 4:2:0
    . p* R; `- c, b5 t( v3 f: I! P
  31. Bit depth                                : 8 bits$ N/ l! Z, Z! X3 t& e
  32. Scan type                                : Progressive3 X# Y9 h( ?4 h2 a* A9 \, t& e
  33. Compression mode                         : Lossy; d% e9 u# h9 U) |4 \" j( H& ~. g
  34. Bits/(Pixel*Frame)                       : 0.197! z+ _) P$ }3 j7 z
  35. Stream size                              : 602 MiB (86%)3 e5 I+ a4 _" Q' L" B
  36. Writing library                          : XviD 1.1.2 (UTC 2006-11-01). A* M& R% L- Y1 }# ~: H8 c
  37. , z2 l4 e/ J( m5 b- w
  38. Audio
    7 \) Q8 {3 p/ X  [. F" i# t
  39. ID                                       : 1
    ( p) g3 A9 x6 ~, ^
  40. Format                                   : MPEG Audio
    + s: p, f" M5 h( y" Z# e( a5 ]
  41. Format version                           : Version 1
    + Q$ t( h1 X0 N) M. ]
  42. Format profile                           : Layer 37 d% K2 W( e# ?& H
  43. Codec ID                                 : 55
    3 j3 G; D" [" e/ B9 `  m# F/ X
  44. Codec ID/Hint                            : MP3
    1 q; ^# @" D4 B# f  b: P
  45. Duration                                 : 1h 19mn
    ! O% f% D" B& R2 y  I! o
  46. Source duration                          : 1h 12mn
      z7 Y: c: |, r
  47. Bit rate mode                            : Variable
    9 l' G& A# [+ h) Z) \
  48. Bit rate                                 : 90.0 Kbps& x- o. F! N: j4 B9 I! w; F
  49. Channel(s)                               : 1 channel- k2 \1 s9 v3 Q5 z* t4 V( l) x+ d
  50. Sampling rate                            : 48.0 KHz9 I7 C' Z$ M5 A9 w
  51. Compression mode                         : Lossy4 D9 }; q$ K# N4 \
  52. Stream size                              : 45.3 MiB (6%)1 I) e( d# J; e9 ~. ]2 h/ @' a* E
  53. Alignment                                : Aligned on interleaves& X5 m, K7 N" r. `( `3 c- c
  54. Interleave, duration                     : 24 ms (0.58 video frame)
    ) j2 Z; W3 I0 c
  55. Interleave, preload duration             : 541 ms* w+ V  X5 e  o$ Q
  56. Writing library                          : LAME3.90.
    : B5 i, g7 o8 `, k8 O3 ]
  57. Encoding settings                        : -m m -V 4 -q 2 -lowpass 15.4 --abr 90- ]- N- ~- Z) Y: v$ u; l

  58. 2 ^+ P, ~  M5 r; K, ~: O; K( N
  59. General
    9 x$ ~0 E1 W2 ]; P% [- g+ o( ]1 Z
  60. Complete name                            :A Borrowed Life Part 1.srt
    ; \+ }. a2 i  D: E6 v
  61. Format                                   : SubRip( l$ Q/ H9 k! w9 S
  62. File size                                : 55.9 KiB
    + m0 B8 |3 ]" g( U5 M1 a
  63. - L1 e0 @; H5 E6 K9 n/ m
  64. Text7 ^. A. S2 q; @# {4 _
  65. Format                                   : SubRip
    # S5 t$ ]3 v" k" V( a1 ]7 k. v
  66. Compression mode                         : Lossless
    0 ^! v% X; M9 g' ~3 Y

  67. 1 z. y4 N9 u6 \8 W( t
  68. General, e+ M- Z2 d5 S8 r5 T( R. W, c8 n1 c
  69. Complete name                            :A Borrowed Life Part 2.avi
    2 J, i; X2 _/ V7 W& E8 F2 K* G, z2 \
  70. Format                                   : AVI& G! H, ^# h# y4 m* [, }
  71. Format/Info                              : Audio Video Interleave
    & O4 T" d- G/ D6 a1 F
  72. File size                                : 699 MiB
    ' \# t6 T$ m  R
  73. Duration                                 : 1h 27mn
    + m5 o: I' P7 |6 \5 `) \
  74. Overall bit rate mode                    : Variable
    ( k/ e0 ]+ S1 T+ i. a7 @4 ]4 H
  75. Overall bit rate                         : 1 116 Kbps/ P5 r+ i/ p9 J  s8 P2 p
  76. Writing application                      : Nandub v1.0rc2$ Y+ V1 `2 }, n
  77. Writing library                          : Nandub build 1852/release
    1 a0 P/ p9 x3 |- _
  78.   p9 G. U1 ]( q+ o% S. j; V
  79. Video* [" w. r8 q* ]
  80. ID                                       : 0
    6 ^/ ?4 o  H' G
  81. Format                                   : MPEG-4 Visual2 _% }: A6 y5 S4 Z) S+ Q. z
  82. Format profile                           : Advanced [email protected]4 D/ m( s- U/ P
  83. Format settings, BVOP                    : No
    ' O& p) r1 S3 Y/ P1 B
  84. Format settings, QPel                    : No
    # ?8 U0 X4 ?4 ^; E
  85. Format settings, GMC                     : No warppoints) a3 i/ T/ Z  j; k4 t
  86. Format settings, Matrix                  : Default (H.263)) J9 \3 W8 V8 ]7 O# Y# ]# @
  87. Codec ID                                 : XVID
    6 z  T/ C: w0 o6 n
  88. Codec ID/Hint                            : XviD
    5 k, d) k/ Q  G6 N/ ^0 Q4 E
  89. Duration                                 : 1h 27mn
    9 Y  V$ l4 u+ q# S: q. m, D- g2 h2 M+ l
  90. Bit rate                                 : 1 016 Kbps& ?- ]! Y, F( V/ S
  91. Width                                    : 640 pixels0 {! z0 w; p( P3 f4 e% X
  92. Height                                   : 384 pixels
    - x7 E4 v# k  \$ p
  93. Display aspect ratio                     : 1.667: }6 s, C& H/ V! i, ]$ w
  94. Frame rate                               : 23.976 fps2 A" V+ V. `* ~+ d' e8 |
  95. Color space                              : YUV* N2 @. t. e* ?( A, y
  96. Chroma subsampling                       : 4:2:0
    8 z& V2 d7 v# b' j/ Y0 ~
  97. Bit depth                                : 8 bits
    ( {) E( |2 @2 ]' k: C
  98. Scan type                                : Progressive& |) h+ i* T( z3 W# F
  99. Compression mode                         : Lossy
    6 k6 a$ t7 @, c
  100. Bits/(Pixel*Frame)                       : 0.172
    3 L1 B& |& M; z3 U- u" ~
  101. Stream size                              : 637 MiB (91%)! R( o7 {2 G/ m
  102. Writing library                          : XviD 1.1.2 (UTC 2006-11-01)3 i, t1 a: h0 W& U8 v$ n
  103. - c& X, g1 D, i" p2 q) _
  104. Audio
    : t" P9 r" M6 c. _
  105. ID                                       : 12 T. ?) h" L- g5 E
  106. Format                                   : MPEG Audio4 L* b, i. w3 W3 s5 u
  107. Format version                           : Version 1
    9 U2 N, p$ H1 \6 C2 C
  108. Format profile                           : Layer 3
    ( }7 u; o7 R7 w9 Q
  109. Codec ID                                 : 55
    0 y4 u7 `5 J" H  y% A- k
  110. Codec ID/Hint                            : MP38 X1 d, p4 |" j4 p5 Q' w0 D& |
  111. Duration                                 : 1h 27mn+ a# e% e/ G+ n3 _. x" G
  112. Bit rate mode                            : Variable6 `5 }2 \  m4 L7 Y& Q3 T; b
  113. Bit rate                                 : 87.3 Kbps! M+ b. A# L9 N" z" {. w+ v' Z" J
  114. Channel(s)                               : 1 channel5 _/ [$ Y: I" I& E) I+ x
  115. Sampling rate                            : 48.0 KHz8 s- K7 A, ~( ^4 p
  116. Compression mode                         : Lossy9 j5 J& B8 c1 l( n" a+ d
  117. Stream size                              : 54.8 MiB (8%)  Q( J4 K/ y  ^2 e# ~: G) _
  118. Alignment                                : Aligned on interleaves# {; i$ f" s! t' z" ?: [8 e
  119. Interleave, duration                     : 24 ms (0.58 video frame)
    ' P+ n6 D: j0 K" ^% ^5 R. _8 |
  120. Interleave, preload duration             : 492 ms
    ! G# W% l% f7 z- K" @8 w
  121. 3 l: X( @: K& a' z( }7 x
  122. General
    1 R" J. J, P" C  t* \- t6 M$ g
  123. Complete name                            :A Borrowed Life Part 2.srt
    8 a( c* r8 K7 i+ O
  124. Format                                   : SubRip1 c/ Q/ \; A9 F+ t; m, r+ \$ f" g
  125. File size                                : 55.4 KiB
    ( ^6 b' d; [2 I( |

  126. , \# m2 _' I4 e' s( X; ?5 K3 q
  127. Text1 ]# }1 o: N! k0 C+ |
  128. Format                                   : SubRip
    9 l4 O, O4 ~+ W
  129. Compression mode                         : Lossless
复制代码
2 _* ?- `) U4 M3 ~1 j
$ Z! F* ~* N+ K% \' z6 l3 K
OpDK4.png 3 m" q) I0 A1 E# u

7 W1 w) M4 r( W' Q  \ q01hf.png * `9 D4 U& O7 k3 @
$ G9 `* Q; S" {
YnK2M.png
0 i% o6 }0 q" M! i9 I5 |+ N& O% e8 o7 t' B$ N5 E
115网盘:
( K  Z* v, t7 U) P: @  I
( X4 ~. `9 b& \# o
游客,如果您要查看本帖隐藏内容请回复  捐助论坛可免回复查看隐藏内容详情请点击
最近访问 头像模式 列表模式
HD一条街,身边的一条街。
发表于 2015-2-13 16:48:01 | 显示全部楼层
HD一条街,是我心中的一条街
HD一条街,身边的一条街。
发表于 2015-2-13 23:37:15 | 显示全部楼层
感谢楼主分享啊。
HD一条街,身边的一条街。
发表于 2015-2-14 12:44:04 | 显示全部楼层
这部电影高清的太难找了~~
HD一条街,身边的一条街。
发表于 2015-3-2 14:41:37 | 显示全部楼层
分享高清资源,就来HD一条街!
HD一条街,身边的一条街。
发表于 2015-3-4 14:13:08 | 显示全部楼层
影视资源尽在HD一条街中, 哦也!
HD一条街,身边的一条街。
发表于 2015-3-15 16:14:41 | 显示全部楼层
这个帖子不回对不起自己!
HD一条街,身边的一条街。
发表于 2015-3-31 09:34:57 | 显示全部楼层
台湾有很多不错的小成本片子,多谢楼主分享
HD一条街,身边的一条街。
头像被屏蔽
发表于 2015-4-15 05:57:37 | 显示全部楼层
提示: 作者被禁止或删除 内容自动屏蔽
HD一条街,身边的一条街。
发表于 2015-4-15 08:46:53 来自手机 | 显示全部楼层
分享高清资源,就来HD一条街!
HD一条街,身边的一条街。
您需要登录后才可以回帖 登录 | 立即注册

本版积分规则

手机版|小黑屋|有问题发邮件到admin#(换成@)hd1tj.org|微博|免责申明|HD一条街

GMT+8, 2016-12-3 23:41

Powered by Discuz! X3.1

© 2001-2013 Comsenz Inc.

快速回复 返回顶部 返回列表