开启辅助访问 切换到窄版

HD一条街论坛

 找回密码
 加入我们
查看: 252|回复: 15

[其它] 多桑[豆瓣 8.7分]A Borrowed Life 1994 1.39G

[复制链接]
发表于 2015-2-13 15:09:40 | 显示全部楼层 |阅读模式
Y1yU.jpg 4 G, \- x# H3 J% I' s: K
# H( ~$ W+ S; Z3 W) h% T
导演: 吴念真
* P6 b! s; {7 e9 L$ U* R编剧: 吴念真4 @: M9 h) j! ^0 `# g
主演: 蔡振南 / 蔡秋凤 / 梅芳 / 陈淑芳 / 张凤书
- y7 T1 U* T! Y8 ]8 u1 E类型: 剧情$ q- I1 [$ t: t3 h+ ?3 u
制片国家/地区: 台湾
0 r; ~' R. R1 A3 v' l; I语言: 日语 / 闽南语 / 汉语普通话  Q- _1 M4 }5 _3 I. f8 K) g
上映日期: 19946 n. p8 d& J( m  A( Y
片长: 167 分钟
3 k7 w# r1 _9 [0 h- k0 O! q9 ]9 ]又名: A Borrowed Life, a% I2 W3 F1 E( x; U; h4 @" ?
IMDb链接:http://www.imdb.com/title/tt0109691
2 X* U& b: t+ w( u( G3 ~* B' y4 ]+ `1 e
多桑的剧情简介  ·  ·  ·  ·  ·  ·, V/ d  b/ }! V( [. @. J, p. W
  故事发生在1929年的台湾,那一年,多桑(蔡振南 饰)来到了这个世界。成年之后,多桑结婚成家,并有了三个可爱的孩子。然而,生活对于多桑来说是贫困而艰苦的,他在金矿场工作所得根本无法承担起家中巨大的开支,为此,多桑的妻子不得不外出做木工,以补贴家用。
7 N: _6 s( o& ~7 U  屋漏偏逢连夜雨,金矿场倒闭了,家中失去了最大的经济来源。五年过去,多桑重回职场,当上了一名煤矿工人,并渐渐向上发展,最终成为了山中矿场的村长。人到中年,多桑终于患上了几乎所有煤矿工人都会患上的气喘病,不堪忍受病痛的折磨,多桑只能退休,没过多久,他便被送入了医院,只能依靠器械维生。 ©豆瓣
  1. TECH INFO
    / Z7 T# C% P/ x) _! c/ [6 `  k
  2. General
    $ ?: A8 `; Q9 E" C* z% `
  3. Format                                   : AVI
    : ?9 y! Z: A- C" h$ m
  4. Format/Info                              : Audio Video Interleave4 f9 S1 Q0 j% `/ d
  5. File size                                : 700 MiB7 ~9 A- @: b$ B, K% `- H. K
  6. Duration                                 : 1h 19mn; @/ l, Z  q3 f! Q/ u; E
  7. Overall bit rate mode                    : Variable
    , U3 U# C% w9 i
  8. Overall bit rate                         : 1 231 Kbps
    & j/ Z2 [; j% u: a) d
  9. Writing application                      : VirtualDubMod 1.5.10.2 (build 2540/release)1 d, h7 H" \. k& o
  10. Writing library                          : VirtualDubMod build 2540/release
    ) f$ b1 ?  r. }5 O- ?2 q- X

  11. 7 \. C0 x: @& B$ N; X. @9 k
  12. Video
    + {7 w( c) F- h7 [
  13. ID                                       : 0% h3 s! `: l( X4 [- Q
  14. Format                                   : MPEG-4 Visual9 S3 D6 `: A2 K& D
  15. Format profile                           : Advanced [email protected]
    3 t! ]" @$ r' @9 b% x# A
  16. Format settings, BVOP                    : No
    1 q; M* }: T& {$ K! L
  17. Format settings, QPel                    : No
    - _8 r7 r  r& _. j/ h3 b8 G
  18. Format settings, GMC                     : No warppoints
    4 V4 c. G) X) Z0 M" S
  19. Format settings, Matrix                  : Default (H.263)2 R/ [  N9 D( l2 ]+ {7 e! C
  20. Codec ID                                 : XVID
    : n0 ~8 O, b7 G' j, v0 `- H/ c
  21. Codec ID/Hint                            : XviD1 i- G# b1 I; Y0 ~
  22. Duration                                 : 1h 19mn1 f/ |1 P/ y8 }. R7 `- V1 P2 D
  23. Source duration                          : 1h 12mn
    % M& y$ ^4 N6 J4 n
  24. Bit rate                                 : 1 160 Kbps
    ' T" e' V7 Y. s1 B8 L3 W( \
  25. Width                                    : 640 pixels- S, _: N- y! x/ m) a9 O2 P; R
  26. Height                                   : 384 pixels, k. C+ H/ M3 v  }  l
  27. Display aspect ratio                     : 1.6671 I% P3 [0 ^4 L5 c& H( q
  28. Frame rate                               : 23.976 fps
    - y' T  ?2 d0 L2 O9 L0 H5 K
  29. Color space                              : YUV6 t3 U8 Q% i& J+ f  A) R
  30. Chroma subsampling                       : 4:2:0: j" B! r# @/ l; S
  31. Bit depth                                : 8 bits
    ! N: H, p8 u  ^& \* ?! b# D- w7 m
  32. Scan type                                : Progressive, |% t0 H6 R& V9 z5 _
  33. Compression mode                         : Lossy) f+ X& Y5 }  r. W5 `2 P; ?
  34. Bits/(Pixel*Frame)                       : 0.197
    " l! l+ `: ?8 b; R! P2 f
  35. Stream size                              : 602 MiB (86%)
    9 c% f' @9 q! a/ F0 j8 z( D. ]
  36. Writing library                          : XviD 1.1.2 (UTC 2006-11-01)6 `; D4 t( U9 K  o: Z/ e

  37. , B2 L6 A' W6 i$ P
  38. Audio
    & c0 [: R# T- a
  39. ID                                       : 1
    & k* B7 j0 s; U( g6 |
  40. Format                                   : MPEG Audio, T. v1 A2 j" X
  41. Format version                           : Version 1
    0 |6 K7 R0 L% C' I( `9 T- g$ }
  42. Format profile                           : Layer 37 D: o1 h$ I2 O: `5 R4 t
  43. Codec ID                                 : 55
    # Y6 E( |; C: x9 l
  44. Codec ID/Hint                            : MP3
    $ o* K9 V$ J" x8 v( r( V1 e
  45. Duration                                 : 1h 19mn) |: N$ K1 g0 w6 x# v
  46. Source duration                          : 1h 12mn- V* d' w/ l6 }$ e: L8 b) J
  47. Bit rate mode                            : Variable
    ( g  X0 Y( ]: {  o8 g7 E& G
  48. Bit rate                                 : 90.0 Kbps
    ! c% ^/ t( t& }' }
  49. Channel(s)                               : 1 channel5 M) i+ x7 B8 a* W
  50. Sampling rate                            : 48.0 KHz
    9 F. g0 I3 t' Q; H1 T
  51. Compression mode                         : Lossy7 Y% F/ X8 U" K. j. E$ D7 @  a
  52. Stream size                              : 45.3 MiB (6%)
    9 B: M3 |+ @* n, T( r- v+ W5 w' S
  53. Alignment                                : Aligned on interleaves
    ' Y6 l1 Q2 M) t# ]
  54. Interleave, duration                     : 24 ms (0.58 video frame)
    9 F( K7 c2 M. x( D% L0 r8 ^
  55. Interleave, preload duration             : 541 ms
    ' U" |2 }( g: b  J
  56. Writing library                          : LAME3.90.$ Z0 d, ^( L# j0 b0 z
  57. Encoding settings                        : -m m -V 4 -q 2 -lowpass 15.4 --abr 90
    6 b/ e' w! Y# y: N
  58. 7 f: X  Z3 E4 W# }
  59. General# ?4 P  o5 C1 h) o) r- _
  60. Complete name                            :A Borrowed Life Part 1.srt
    ; W& ?3 |. [6 y1 n2 R& y0 b5 W
  61. Format                                   : SubRip
    : b% e; _7 D4 @* o9 \4 ]# L
  62. File size                                : 55.9 KiB; Q, r# F+ t- J3 ^; Z

  63. 8 g8 B; O  b& s9 v: N' K
  64. Text
    ( r  L1 C- J4 i0 Q2 J0 z
  65. Format                                   : SubRip3 C2 U" |' u* `$ {+ D" \
  66. Compression mode                         : Lossless% {. O$ m& s3 [; t: H6 s1 {
  67. 5 B% V" G6 F$ ^" `; `8 @
  68. General
    # W) e$ C  B" T3 j; g6 b
  69. Complete name                            :A Borrowed Life Part 2.avi
    7 Y' ?. k2 W: b1 p0 R! q1 V8 {) c2 K# Q; L
  70. Format                                   : AVI
    * L: C: N  u3 X/ x: o5 X! y! C
  71. Format/Info                              : Audio Video Interleave
    $ {, D0 Y$ B0 z) @
  72. File size                                : 699 MiB
    . E" r8 o, q6 B
  73. Duration                                 : 1h 27mn
    5 M& i/ f( O* o5 r* Q1 {$ W, X
  74. Overall bit rate mode                    : Variable/ k  [6 p: k2 M( Q" _5 X
  75. Overall bit rate                         : 1 116 Kbps
    ; X) a; S/ w2 n1 l$ Y2 Y6 ?; X
  76. Writing application                      : Nandub v1.0rc2
    : q3 O' J/ n/ ^# d* z
  77. Writing library                          : Nandub build 1852/release1 G0 V0 V( Q" n! A
  78. ; n) m9 K1 v1 J+ M- A/ z3 G1 ?
  79. Video
    / ~; d( M9 |5 @* o8 q( t
  80. ID                                       : 0
    % r& N' I# e' a! J7 v: D- V/ H# D; Y
  81. Format                                   : MPEG-4 Visual
    2 c: l* W# u: ^- _8 b, O
  82. Format profile                           : Advanced [email protected]0 l- I3 N3 V) ?
  83. Format settings, BVOP                    : No$ v, O/ ~$ D* v. o6 ^  o
  84. Format settings, QPel                    : No
    . q9 Q% X& M% {8 C. g1 g
  85. Format settings, GMC                     : No warppoints
    7 ^, c, f* V$ {' M
  86. Format settings, Matrix                  : Default (H.263)
    4 i& A0 Q5 u7 o1 T3 K! ~
  87. Codec ID                                 : XVID
    : f; \2 r/ D$ {; _! o! V
  88. Codec ID/Hint                            : XviD
    + ]& S( M, i& W) g2 s
  89. Duration                                 : 1h 27mn
    - k; w7 p# q+ q0 R+ o' I: B
  90. Bit rate                                 : 1 016 Kbps( x0 j8 B. U5 r1 q9 l
  91. Width                                    : 640 pixels
    & z$ X4 k1 @& }/ J* Q/ Z
  92. Height                                   : 384 pixels% r6 F3 P& j2 D0 o3 B
  93. Display aspect ratio                     : 1.667
    0 f) Q3 e4 @; @/ w' @, x
  94. Frame rate                               : 23.976 fps3 |' d$ P. e, a: o; g
  95. Color space                              : YUV8 U  r" z6 _7 E; _, R
  96. Chroma subsampling                       : 4:2:00 |1 f+ w4 N* `9 A' ]6 ?; I9 H
  97. Bit depth                                : 8 bits' k4 c, T% n' t6 |- \
  98. Scan type                                : Progressive+ d: u: k! n% V' u6 L( s% m
  99. Compression mode                         : Lossy
    1 b# y/ g+ U3 p5 k/ _
  100. Bits/(Pixel*Frame)                       : 0.1725 e$ o6 H1 V9 H2 F! ]) w
  101. Stream size                              : 637 MiB (91%)' f- _% P# C! F# [' O$ F
  102. Writing library                          : XviD 1.1.2 (UTC 2006-11-01)- ^! }' l4 a, q8 t: Q

  103. # ]$ C6 E* a7 X& P' r# j1 P
  104. Audio6 P% K0 b8 S, U2 T
  105. ID                                       : 1
    ( p' ^7 I; l4 q1 S4 e
  106. Format                                   : MPEG Audio
    ( ~% F: d( R( T/ o, F& I
  107. Format version                           : Version 1
    - H0 ~! I7 b: S& F% M
  108. Format profile                           : Layer 3/ Z5 q$ V, `1 F
  109. Codec ID                                 : 55
    + @5 m0 D( r3 d0 e0 g0 O0 a
  110. Codec ID/Hint                            : MP3
    7 r, N: o6 P; Q
  111. Duration                                 : 1h 27mn) }$ d% ?5 T  `! y( J+ {. b; u! k
  112. Bit rate mode                            : Variable; s! ]: i$ V- Q8 ?# C
  113. Bit rate                                 : 87.3 Kbps
    $ n; {. y2 x* h( @: ?7 z5 \( P
  114. Channel(s)                               : 1 channel4 J, U% S( ~8 E4 L
  115. Sampling rate                            : 48.0 KHz" [) `9 A, r5 K& w. T4 c! c3 H' e  i
  116. Compression mode                         : Lossy
    ' h/ x; @- t, m: v
  117. Stream size                              : 54.8 MiB (8%)* q: ]( e% p9 G' s9 W
  118. Alignment                                : Aligned on interleaves7 Q$ |# C/ {: G9 v2 Z! H6 N
  119. Interleave, duration                     : 24 ms (0.58 video frame)
    + ~: R; S! |6 Y  }
  120. Interleave, preload duration             : 492 ms, G$ S$ g4 o( {9 ~! g8 a5 v/ H

  121. . ]0 c. a9 F2 w; N, |' W
  122. General  }0 _, U/ f# K: }3 z' {, ]: [
  123. Complete name                            :A Borrowed Life Part 2.srt# h7 h+ j) H* G, N6 Y
  124. Format                                   : SubRip
    7 T$ l+ u; ^  d  x
  125. File size                                : 55.4 KiB
    % B" K* v9 ^) i' ^- y

  126. / o' s* z7 V! ]! \# a# f* p3 S" V: v
  127. Text
    1 x/ B5 I  p' e1 x( u4 O
  128. Format                                   : SubRip( N$ G9 Y1 l+ U8 m( i+ t7 ~
  129. Compression mode                         : Lossless
复制代码
, D9 v% S* p. u3 b# @6 C8 d
2 X9 {6 _/ l4 o- E) A: ]+ {2 N' v6 S- V
OpDK4.png 2 ?- h+ E% u8 N% a! D+ g& x

7 n3 M5 P2 T3 d q01hf.png ' K5 {$ S8 a( A
( P1 b6 `, U# H! P5 W  @! R
YnK2M.png * F8 ~7 V8 S0 R4 u* c2 @

! L4 K, r8 l% U1 ^# o115网盘:, Q% L0 J4 g4 q3 i* t

5 t8 K! D. _5 D  u7 Y4 b
游客,如果您要查看本帖隐藏内容请回复  捐助论坛可免回复查看隐藏内容 详情请点击
最近访问 头像模式 列表模式
HD一条街,身边的一条街。
发表于 2015-2-13 16:48:01 | 显示全部楼层
HD一条街,是我心中的一条街
HD一条街,身边的一条街。
发表于 2015-2-13 23:37:15 | 显示全部楼层
感谢楼主分享啊。
HD一条街,身边的一条街。
发表于 2015-2-14 12:44:04 | 显示全部楼层
这部电影高清的太难找了~~
HD一条街,身边的一条街。
发表于 2015-3-2 14:41:37 | 显示全部楼层
分享高清资源,就来HD一条街!
HD一条街,身边的一条街。
发表于 2015-3-4 14:13:08 | 显示全部楼层
影视资源尽在HD一条街中, 哦也!
HD一条街,身边的一条街。
发表于 2015-3-15 16:14:41 | 显示全部楼层
这个帖子不回对不起自己!
HD一条街,身边的一条街。
发表于 2015-3-31 09:34:57 | 显示全部楼层
台湾有很多不错的小成本片子,多谢楼主分享
HD一条街,身边的一条街。
头像被屏蔽
发表于 2015-4-15 05:57:37 | 显示全部楼层
提示: 作者被禁止或删除 内容自动屏蔽
HD一条街,身边的一条街。
发表于 2015-4-15 08:46:53 来自手机 | 显示全部楼层
分享高清资源,就来HD一条街!
HD一条街,身边的一条街。
您需要登录后才可以回帖 登录 | 加入我们

本版积分规则

手机版|小黑屋|有问题发邮件到admin#(换成@)hd1tj.org|微博|免责申明|HD一条街

GMT+8, 2017-1-23 06:28

Powered by Discuz! X3.1

© 2001-2013 Comsenz Inc.

快速回复 返回顶部 返回列表