开启辅助访问 切换到窄版

HD一条街论坛

 找回密码
 加入我们
查看: 264|回复: 15

[其它] 多桑[豆瓣 8.7分]A Borrowed Life 1994 1.39G

[复制链接]
发表于 2015-2-13 15:09:40 | 显示全部楼层 |阅读模式
Y1yU.jpg
0 Q# Z# `2 W, Q" {$ p. I, S3 P4 U3 i$ k, H& g+ Y0 }
导演: 吴念真! [. w. A* N8 p  D% L% o
编剧: 吴念真+ Y8 ^: N' P6 \2 L
主演: 蔡振南 / 蔡秋凤 / 梅芳 / 陈淑芳 / 张凤书
- I1 [+ _' [; l* T/ |类型: 剧情
, I' {5 z+ {) e: ?' K6 Q. b制片国家/地区: 台湾
3 |: z& O: d4 c& R6 k语言: 日语 / 闽南语 / 汉语普通话
# A* {! M/ k+ j& |- I4 `" t' v* V上映日期: 1994
! G' S6 _3 h. H' c7 S片长: 167 分钟- Y5 U$ y, ]. ^6 V3 ~( \/ O# o1 S
又名: A Borrowed Life
: @8 O% D9 f0 M: |/ jIMDb链接:http://www.imdb.com/title/tt01096910 O) e2 F6 K; M  w) f( M: L) i

2 x" c: c6 P& X2 E; M多桑的剧情简介  ·  ·  ·  ·  ·  ·' B! C* V% @( w! ?& l4 ^3 m
  故事发生在1929年的台湾,那一年,多桑(蔡振南 饰)来到了这个世界。成年之后,多桑结婚成家,并有了三个可爱的孩子。然而,生活对于多桑来说是贫困而艰苦的,他在金矿场工作所得根本无法承担起家中巨大的开支,为此,多桑的妻子不得不外出做木工,以补贴家用。
: F) E6 K# @8 B4 {  屋漏偏逢连夜雨,金矿场倒闭了,家中失去了最大的经济来源。五年过去,多桑重回职场,当上了一名煤矿工人,并渐渐向上发展,最终成为了山中矿场的村长。人到中年,多桑终于患上了几乎所有煤矿工人都会患上的气喘病,不堪忍受病痛的折磨,多桑只能退休,没过多久,他便被送入了医院,只能依靠器械维生。 ©豆瓣
  1. TECH INFO5 |1 O. c( K" t7 x. \& H. x3 ^2 }/ c5 \
  2. General; {: w4 O( y5 D! ?* M0 @& ?
  3. Format                                   : AVI9 S2 ?# c( u1 T1 a( ]5 v+ U
  4. Format/Info                              : Audio Video Interleave' O8 D# w! A! Z; r/ q' ?( Z
  5. File size                                : 700 MiB
    ( k. r0 v2 i) t; u# r
  6. Duration                                 : 1h 19mn
    % x  {9 y  h4 g# k' \* Y/ f7 r
  7. Overall bit rate mode                    : Variable
    ! k$ `' y) \5 n6 [) p2 b6 [# E: S, \
  8. Overall bit rate                         : 1 231 Kbps4 q) @% ^1 s  b* w
  9. Writing application                      : VirtualDubMod 1.5.10.2 (build 2540/release)3 K" I" Y, {$ E* \% a
  10. Writing library                          : VirtualDubMod build 2540/release/ h9 t& b. u" Q, v$ \
  11. 3 u3 H7 ~- J9 f% h- G% [; h
  12. Video% _& V7 v; H8 M7 [
  13. ID                                       : 0! @5 o4 b# j2 i- ^: C" J
  14. Format                                   : MPEG-4 Visual
    " k) }# y6 N. |; s4 Z
  15. Format profile                           : Advanced [email protected]
    . H8 I7 H1 F2 G# T" J
  16. Format settings, BVOP                    : No
    9 [0 ]4 p5 y. I5 ^  ^
  17. Format settings, QPel                    : No
    : j# T/ K: Q" t& [" F& y# O
  18. Format settings, GMC                     : No warppoints
    & W- u( l( `3 o* F% m
  19. Format settings, Matrix                  : Default (H.263)/ y& U- F" R/ {4 N9 D
  20. Codec ID                                 : XVID
    8 C  |0 x+ `" u! ~" C" ?
  21. Codec ID/Hint                            : XviD! {/ }" [0 n0 C4 R+ J& U
  22. Duration                                 : 1h 19mn
    ( m9 \8 E# L4 F) K- Z6 x" G$ w/ r
  23. Source duration                          : 1h 12mn
    2 N8 k6 l- C& E, p) [
  24. Bit rate                                 : 1 160 Kbps
    6 r8 z5 X2 u5 U  V5 m2 |5 q' Y
  25. Width                                    : 640 pixels+ x: X( r( z6 M  S$ b" O
  26. Height                                   : 384 pixels' @/ z# g9 M/ W, r" A4 }# U
  27. Display aspect ratio                     : 1.667( h* z: q# `: k
  28. Frame rate                               : 23.976 fps
    ! d) Y; v3 C' r- e+ q0 w* `
  29. Color space                              : YUV& ^! j5 e! w, k( [# n5 g  A
  30. Chroma subsampling                       : 4:2:0& d; M4 S4 H1 F9 ~
  31. Bit depth                                : 8 bits
    2 _$ Z: C" w5 l- E. Z
  32. Scan type                                : Progressive
    ) h6 d) t3 A  y" U
  33. Compression mode                         : Lossy/ X7 t! U4 F$ t0 I
  34. Bits/(Pixel*Frame)                       : 0.197
    - y: z# w8 l  C1 Z" d! ~0 _% v% w
  35. Stream size                              : 602 MiB (86%)
    ( ]2 O. `, U  s/ R0 Z! t6 F
  36. Writing library                          : XviD 1.1.2 (UTC 2006-11-01)( {" r+ Y) N7 Y; X- H0 r
  37. 0 }5 t, H' Z3 j3 B6 K! I  k
  38. Audio
    , l5 Z! ^- U$ A; A% c9 F
  39. ID                                       : 1
    # W+ y) {4 D. y$ ]% \
  40. Format                                   : MPEG Audio
    - O& @5 x+ L; a. m/ s9 c2 j
  41. Format version                           : Version 1
    3 ?; w/ A" z6 ^/ `( E5 W
  42. Format profile                           : Layer 3
    ' b7 U1 I0 N6 J2 b# w9 Q: Z; r
  43. Codec ID                                 : 55
    3 b' N. H+ z. U5 A
  44. Codec ID/Hint                            : MP3
    : b$ ]' v8 e+ _
  45. Duration                                 : 1h 19mn
    5 y+ U  j: e$ |( U# j' ^* k2 I  [
  46. Source duration                          : 1h 12mn
    % D: n& M3 X4 {5 [
  47. Bit rate mode                            : Variable
      Q# p' l) W* y) P
  48. Bit rate                                 : 90.0 Kbps
    $ @% C9 s. e) P8 @- ^! B, G
  49. Channel(s)                               : 1 channel
    $ R( D7 p# a# W; W3 ~9 G5 }# M
  50. Sampling rate                            : 48.0 KHz' e3 s- e5 l+ K; O0 y
  51. Compression mode                         : Lossy
    % Q# K! D* {5 v) y
  52. Stream size                              : 45.3 MiB (6%)' H8 A5 T& L- @4 F$ x* N! e" X) c
  53. Alignment                                : Aligned on interleaves
    ; P, B/ q2 a& K, I
  54. Interleave, duration                     : 24 ms (0.58 video frame)- |; p; b4 @6 }! M1 `+ F2 P
  55. Interleave, preload duration             : 541 ms
      z7 K& t1 [! @6 }2 {+ y
  56. Writing library                          : LAME3.90.
    2 g) L; ^) Q6 B7 p
  57. Encoding settings                        : -m m -V 4 -q 2 -lowpass 15.4 --abr 901 p/ d" M3 c: a  F( a

  58. % z1 C: J9 e6 k" n
  59. General
    8 T7 r+ q$ P4 T
  60. Complete name                            :A Borrowed Life Part 1.srt$ E  H" A" S8 l; Y) F8 q
  61. Format                                   : SubRip" q0 J. u  P% x  [/ j
  62. File size                                : 55.9 KiB
    * ]+ ?6 f% W1 S3 w
  63. + U. z6 x7 M. W! V0 u
  64. Text
    8 V( c- U( W. M6 C5 ~
  65. Format                                   : SubRip2 H* x! M$ y& K8 s3 R! @/ c
  66. Compression mode                         : Lossless2 S' s: J% J/ m' C* F/ `5 |
  67. . u  S+ x# B" z2 w( w
  68. General- c  \" V9 i; a; V
  69. Complete name                            :A Borrowed Life Part 2.avi
    6 Q3 @* x7 L* q3 O2 m
  70. Format                                   : AVI
    0 b5 n& r7 J. A
  71. Format/Info                              : Audio Video Interleave/ `8 c; ]. t  h( Y& t
  72. File size                                : 699 MiB6 a6 ^3 K( ~' E( q
  73. Duration                                 : 1h 27mn
    2 }3 F. V# P$ Y* J; N3 U, ]% U
  74. Overall bit rate mode                    : Variable$ [$ K# z, l$ M8 u) W$ X5 Y. \6 \( v
  75. Overall bit rate                         : 1 116 Kbps
    ) f- [5 M3 J! Z2 K! @" a! _7 l
  76. Writing application                      : Nandub v1.0rc2
    7 u' F4 G7 j$ G8 l$ R9 \6 W4 C) E
  77. Writing library                          : Nandub build 1852/release- T- U- U& v- _8 `2 p
  78. $ ?2 F# V2 G- |6 K. ]" m: {
  79. Video* k* D2 l# j3 W, |' }! X
  80. ID                                       : 00 P6 W3 |( m: c7 M/ r" O2 ]
  81. Format                                   : MPEG-4 Visual
    : x* M% v' g- `9 m/ I7 w. l) t+ x
  82. Format profile                           : Advanced [email protected]
    4 ?. z) O, m5 y
  83. Format settings, BVOP                    : No1 S! o' A, f0 i& o
  84. Format settings, QPel                    : No
    $ }/ Y( i" k: p' M& f  {
  85. Format settings, GMC                     : No warppoints
    # N# r9 [. F+ Q) N. h' L$ ~: e6 I$ V
  86. Format settings, Matrix                  : Default (H.263)
    % h& P7 A; E5 |$ ]
  87. Codec ID                                 : XVID+ i- A; o8 T; J/ @$ n
  88. Codec ID/Hint                            : XviD
    3 `# O3 R, T4 w# R
  89. Duration                                 : 1h 27mn: H. |. m/ E, u7 f" }7 V0 f+ E
  90. Bit rate                                 : 1 016 Kbps5 S8 n& J9 g1 J, A, }
  91. Width                                    : 640 pixels
    ) d3 r2 G" h7 |
  92. Height                                   : 384 pixels' P! h5 d3 Q5 P2 N7 [2 A
  93. Display aspect ratio                     : 1.667# [& o# b7 t$ }2 y5 O
  94. Frame rate                               : 23.976 fps# g" U$ b, N4 t  S+ f
  95. Color space                              : YUV
    * ]2 `, N2 b, @9 r& z
  96. Chroma subsampling                       : 4:2:0* O( ?4 L% z( h" q' Y4 ~6 i2 |
  97. Bit depth                                : 8 bits; ^6 ?3 T5 D. I+ b2 d
  98. Scan type                                : Progressive
    3 s5 j, ^. ^$ L8 _" B/ f
  99. Compression mode                         : Lossy, ]7 `/ B( H1 L$ M- U1 E* S
  100. Bits/(Pixel*Frame)                       : 0.1726 v5 `9 j, d( |, w: c
  101. Stream size                              : 637 MiB (91%)
    # e4 @1 m, J. i% u4 m; R
  102. Writing library                          : XviD 1.1.2 (UTC 2006-11-01)% t9 v% l' B  q! b

  103. : _. U* j7 a8 @7 H% v3 F
  104. Audio3 }# H( ]( w: Z
  105. ID                                       : 1
    7 k$ C1 j  `# J$ [
  106. Format                                   : MPEG Audio7 y+ @' c" \. ^- B
  107. Format version                           : Version 1
    ! ^. u# s3 c! A. N
  108. Format profile                           : Layer 33 Z, b" p; T; c0 G# t5 }
  109. Codec ID                                 : 55: a& \& `: K+ s( }
  110. Codec ID/Hint                            : MP31 q# ^  ~  z: b2 s) P! V
  111. Duration                                 : 1h 27mn6 v" R% x  S# m- i. U7 N
  112. Bit rate mode                            : Variable2 m" w9 d+ k" \# Z( v7 k4 |
  113. Bit rate                                 : 87.3 Kbps% s1 h" h4 d/ G0 [
  114. Channel(s)                               : 1 channel' i& \" Q# k+ H4 b/ ?, H( f8 J7 @8 j
  115. Sampling rate                            : 48.0 KHz; n/ U3 w$ p( i: W* ~
  116. Compression mode                         : Lossy
    - q% z# x! _/ l0 j6 |! R
  117. Stream size                              : 54.8 MiB (8%)
    * ]* b! G( v0 y
  118. Alignment                                : Aligned on interleaves
    3 P3 W0 [  H$ |* a8 u3 \
  119. Interleave, duration                     : 24 ms (0.58 video frame)
    * @' J8 E* @& B/ L9 K9 y- i6 ^
  120. Interleave, preload duration             : 492 ms
    4 `; h7 ?+ M8 h6 ?% o3 Z( M
  121. 0 r4 ~4 C" c0 K* a
  122. General+ B& V2 J9 f$ K
  123. Complete name                            :A Borrowed Life Part 2.srt
    / ]" Q0 d* O5 a. A: R- p
  124. Format                                   : SubRip
    5 \; m6 l2 k+ s
  125. File size                                : 55.4 KiB* R3 W8 B1 u; \7 t' t: f) w" z" C; v6 U
  126. ; |6 j+ @( N( o3 n+ |: I
  127. Text/ Y0 u( ?  n& _1 V7 V, R; B) `
  128. Format                                   : SubRip
    $ g/ @& ~$ X' Y5 U
  129. Compression mode                         : Lossless
复制代码

4 u, ?4 {2 _. G! d# {  `; F
: A8 D, F7 W% M2 w6 q) A9 j OpDK4.png
) k5 t/ T1 [3 {4 P/ M
" _: ~9 T0 C( o8 V8 h7 E q01hf.png 0 j  t1 B  L1 t3 {! [7 v

8 ~. l7 c9 U7 I+ L& ^/ a3 g) D YnK2M.png 8 \( P# x: M0 ^" a

$ u" w" t! q; ?% p115网盘:$ P! D+ j8 [- @! b: m1 ?+ ]& z

2 T. t  Z1 q3 j2 k: g) a6 h
游客,如果您要查看本帖隐藏内容请回复  捐助论坛可免回复查看隐藏内容 详情请点击
最近访问 头像模式 列表模式
HD一条街,身边的一条街。
发表于 2015-2-13 16:48:01 | 显示全部楼层
HD一条街,是我心中的一条街
HD一条街,身边的一条街。
发表于 2015-2-13 23:37:15 | 显示全部楼层
感谢楼主分享啊。
HD一条街,身边的一条街。
发表于 2015-2-14 12:44:04 | 显示全部楼层
这部电影高清的太难找了~~
HD一条街,身边的一条街。
发表于 2015-3-2 14:41:37 | 显示全部楼层
分享高清资源,就来HD一条街!
HD一条街,身边的一条街。
发表于 2015-3-4 14:13:08 | 显示全部楼层
影视资源尽在HD一条街中, 哦也!
HD一条街,身边的一条街。
发表于 2015-3-15 16:14:41 | 显示全部楼层
这个帖子不回对不起自己!
HD一条街,身边的一条街。
发表于 2015-3-31 09:34:57 | 显示全部楼层
台湾有很多不错的小成本片子,多谢楼主分享
HD一条街,身边的一条街。
头像被屏蔽
发表于 2015-4-15 05:57:37 | 显示全部楼层
提示: 作者被禁止或删除 内容自动屏蔽
HD一条街,身边的一条街。
发表于 2015-4-15 08:46:53 来自手机 | 显示全部楼层
分享高清资源,就来HD一条街!
HD一条街,身边的一条街。
您需要登录后才可以回帖 登录 | 加入我们

本版积分规则

手机版|小黑屋|有问题发邮件到admin#(换成@)hd1tj.org|微博|免责申明|HD一条街

GMT+8, 2017-2-23 19:46

Powered by Discuz! X3.1

© 2001-2013 Comsenz Inc.

快速回复 返回顶部 返回列表