开启辅助访问 切换到窄版

HD一条街论坛

 找回密码
 加入我们
查看: 279|回复: 15

[其它] 多桑[豆瓣 8.7分]A Borrowed Life 1994 1.39G

[复制链接]
发表于 2015-2-13 15:09:40 | 显示全部楼层 |阅读模式
Y1yU.jpg % R  {& |+ A" t( p$ T1 c8 ^) ~
1 M( y8 ~/ _! Z% `
导演: 吴念真* t$ _) z, h5 d6 M$ `
编剧: 吴念真8 h6 e; {0 r6 d+ r
主演: 蔡振南 / 蔡秋凤 / 梅芳 / 陈淑芳 / 张凤书- ]8 F, u( |, J8 q5 O
类型: 剧情
* [$ w' M9 j5 I: ^# m. `) ]制片国家/地区: 台湾& s4 ~7 J& k# q7 e
语言: 日语 / 闽南语 / 汉语普通话) _' R+ p- F% ?/ m! r
上映日期: 1994& L- u; j) i( j+ G2 }1 H/ [
片长: 167 分钟5 N  B8 w$ c# \. I$ j) G( B
又名: A Borrowed Life
+ V* W" u, ?4 i& YIMDb链接:http://www.imdb.com/title/tt0109691# f* J% p; Q, _/ \0 z6 m) N' D

' ^, T% I2 [! N2 _# v' M6 B8 h多桑的剧情简介  ·  ·  ·  ·  ·  ·& |5 J5 o2 ]) S. \/ N, Z5 _
  故事发生在1929年的台湾,那一年,多桑(蔡振南 饰)来到了这个世界。成年之后,多桑结婚成家,并有了三个可爱的孩子。然而,生活对于多桑来说是贫困而艰苦的,他在金矿场工作所得根本无法承担起家中巨大的开支,为此,多桑的妻子不得不外出做木工,以补贴家用。 " ~+ ?" _6 [- \+ s
  屋漏偏逢连夜雨,金矿场倒闭了,家中失去了最大的经济来源。五年过去,多桑重回职场,当上了一名煤矿工人,并渐渐向上发展,最终成为了山中矿场的村长。人到中年,多桑终于患上了几乎所有煤矿工人都会患上的气喘病,不堪忍受病痛的折磨,多桑只能退休,没过多久,他便被送入了医院,只能依靠器械维生。 ©豆瓣
  1. TECH INFO
    8 Q# J% H& S3 C# @  o- U0 z
  2. General
    $ n' N+ c3 M0 V) n- W" Y) t: @
  3. Format                                   : AVI% D: m; F& V4 K- j4 S% k, U
  4. Format/Info                              : Audio Video Interleave
    ( \7 e. `4 U) [# |
  5. File size                                : 700 MiB. ]& Y0 Q9 i: J# O6 `7 Y
  6. Duration                                 : 1h 19mn
    - ]9 o) A* ^0 v- M
  7. Overall bit rate mode                    : Variable
    % y+ m7 B; h" h& S% p6 V
  8. Overall bit rate                         : 1 231 Kbps! _; \3 d; |$ K% |& R3 _# E
  9. Writing application                      : VirtualDubMod 1.5.10.2 (build 2540/release)
    7 q8 N, w$ x1 \( R1 B. u7 K
  10. Writing library                          : VirtualDubMod build 2540/release
    8 V1 c. p1 L' C+ p1 h" F

  11. ' [5 p! s5 Y$ j4 f, E1 Q
  12. Video
      g8 U9 S: z% k
  13. ID                                       : 0
    7 M% S3 Z0 e. ?* L8 U
  14. Format                                   : MPEG-4 Visual3 d* ^4 b. o6 c7 q& @5 H
  15. Format profile                           : Advanced [email protected]9 X1 F% F% m. \+ i( S4 H
  16. Format settings, BVOP                    : No
    4 X* X9 J0 A" F
  17. Format settings, QPel                    : No( D& h; ~0 G8 S. _6 r* M3 v/ {
  18. Format settings, GMC                     : No warppoints
    ) m$ j/ B3 c' ]1 ?* N4 H
  19. Format settings, Matrix                  : Default (H.263)/ x" }9 N! H. a1 _5 k" ^) T6 W! z
  20. Codec ID                                 : XVID4 [( g# f0 X  x
  21. Codec ID/Hint                            : XviD* Q0 J  q3 S6 M9 A6 T1 n
  22. Duration                                 : 1h 19mn7 M3 l4 i6 Q4 l- T$ f( n
  23. Source duration                          : 1h 12mn! R" l) U8 q6 _6 C, A8 ]# C( t# \
  24. Bit rate                                 : 1 160 Kbps; N" Q0 |3 ~3 Y7 h3 P$ P; r
  25. Width                                    : 640 pixels, Q4 e; q0 q: v$ E3 |
  26. Height                                   : 384 pixels
    " a0 J% C/ f7 I. Q  \  m
  27. Display aspect ratio                     : 1.6672 b. r0 p. E) ]2 E: X- H
  28. Frame rate                               : 23.976 fps
    * K% a; x8 _! Z  C
  29. Color space                              : YUV
    . I6 B% W/ W; d3 K" ~8 m
  30. Chroma subsampling                       : 4:2:0+ ]. k7 R/ `" b3 k9 {
  31. Bit depth                                : 8 bits
    . g1 B* j3 r& V
  32. Scan type                                : Progressive( w: |0 G* J4 }( B
  33. Compression mode                         : Lossy, f8 J, R! W5 `! A% n  D0 k6 ~
  34. Bits/(Pixel*Frame)                       : 0.197
    " b+ L# y, f+ c% T. S( @! z
  35. Stream size                              : 602 MiB (86%)
    . M7 _- L3 e" F$ O1 B7 d
  36. Writing library                          : XviD 1.1.2 (UTC 2006-11-01)
    8 e. V, l5 e  ?" P' a% h
  37. , S7 B  F+ l3 \' p! U1 p+ X+ ~5 Y6 c
  38. Audio7 Z6 Z2 @9 J& D4 N- l
  39. ID                                       : 1. q5 r5 M5 Z( F8 P
  40. Format                                   : MPEG Audio
    ( y$ y7 N5 D+ a4 P
  41. Format version                           : Version 1* v' x$ f( r% J& x
  42. Format profile                           : Layer 3
    2 m7 d3 S; C/ u8 n8 I' s% c! R
  43. Codec ID                                 : 55
    1 M  }3 I: o- s+ p# D& |5 p
  44. Codec ID/Hint                            : MP37 ?( T" F. D2 p4 o7 [' `0 C& l# }/ ?) W
  45. Duration                                 : 1h 19mn7 I* I/ |8 m$ ^; ~9 N
  46. Source duration                          : 1h 12mn
    : d3 E4 X- s/ {1 T, E8 ]  s
  47. Bit rate mode                            : Variable
    / i* }- K* l5 I! F$ k! i6 ?6 A
  48. Bit rate                                 : 90.0 Kbps
    # b2 P) k- b, y
  49. Channel(s)                               : 1 channel4 S) c9 c6 W0 d. [; W
  50. Sampling rate                            : 48.0 KHz/ f$ m: G7 E: O# k. A3 I
  51. Compression mode                         : Lossy3 K) _4 q* G8 K: f5 G: g
  52. Stream size                              : 45.3 MiB (6%): t7 W) c" D+ \& V5 J; K
  53. Alignment                                : Aligned on interleaves/ o, w( Z) U9 n1 M9 d" O
  54. Interleave, duration                     : 24 ms (0.58 video frame)
    ) q+ |& r3 J! Y; |1 p: n: V, G
  55. Interleave, preload duration             : 541 ms/ o* F+ {1 U- ?0 m. @/ F/ ~
  56. Writing library                          : LAME3.90./ \9 W: Z6 R2 B+ W/ }, ]
  57. Encoding settings                        : -m m -V 4 -q 2 -lowpass 15.4 --abr 90
    ' o# J2 B: Y5 E( a4 @7 Y. i9 ^

  58. ' n  N! f  y7 K
  59. General! C/ X7 W# J4 J' C1 F# }
  60. Complete name                            :A Borrowed Life Part 1.srt
    , Z. t5 S3 K, H" O
  61. Format                                   : SubRip" o) D; ^8 [* T! D
  62. File size                                : 55.9 KiB: n. b' L7 o1 k6 l, S6 c% `% D
  63. ! E* ?, `9 a; D! a% j6 c
  64. Text
    + G- R: x+ ]# B6 x
  65. Format                                   : SubRip
    4 a0 r) l! i( D# w7 d
  66. Compression mode                         : Lossless
    % w" z- ?' S! E# o. a+ ]* z- l
  67. * ~7 n  X  ]# p1 i. Z
  68. General
    9 z8 }  D0 i8 _+ `5 b. E+ `& d
  69. Complete name                            :A Borrowed Life Part 2.avi
    0 U* `% @+ w; {& W. [/ A
  70. Format                                   : AVI6 L4 Y' ~) g5 I) K2 x4 s
  71. Format/Info                              : Audio Video Interleave
    7 R; R$ x! p# K3 C: |8 l; u( [
  72. File size                                : 699 MiB5 x# g# f( }- ]! k" p
  73. Duration                                 : 1h 27mn7 h+ H$ |9 {  b+ V! W8 D- N; u$ s
  74. Overall bit rate mode                    : Variable
    . {8 U0 _5 n4 E( b! `& N
  75. Overall bit rate                         : 1 116 Kbps8 _, v. H, V+ ^; u4 i! ~
  76. Writing application                      : Nandub v1.0rc2
    2 ^: ]+ B% F$ A4 L. \
  77. Writing library                          : Nandub build 1852/release& A/ B  y: {; ]# b% N; C; h1 a0 C
  78. 9 n7 k$ U" a. z) z
  79. Video
    2 ~% S+ q) D1 y* @2 B
  80. ID                                       : 0
    + `1 t% B' Q' U6 G) @( x) }, f
  81. Format                                   : MPEG-4 Visual
    : v! L, U0 t2 ]( H- d+ O
  82. Format profile                           : Advanced [email protected]
    0 g) Q% D" ]5 p7 Y& E; p# f
  83. Format settings, BVOP                    : No
    $ i, R( J0 H: F! `- v5 N0 x# Y
  84. Format settings, QPel                    : No
    ' n) N7 i& b. o) g$ q. r5 @
  85. Format settings, GMC                     : No warppoints
    ( F3 u! ^' a, r8 S' P7 v- x. V
  86. Format settings, Matrix                  : Default (H.263)
    , X" t4 h; G3 r( N3 o
  87. Codec ID                                 : XVID; z" [9 z* O  \! G
  88. Codec ID/Hint                            : XviD
    / n  O: ~: B- O
  89. Duration                                 : 1h 27mn
    8 _3 x9 b8 J8 _! Q& t
  90. Bit rate                                 : 1 016 Kbps/ C/ `+ m5 J, l/ T0 L% O
  91. Width                                    : 640 pixels
    , T& u: x3 w! F7 k- G
  92. Height                                   : 384 pixels
    ) a( ~/ z6 l) H( O4 ?/ j8 R/ J$ w
  93. Display aspect ratio                     : 1.667
    & z: ?1 G8 m& j3 F; ~: l
  94. Frame rate                               : 23.976 fps3 X8 Z5 a. b# h4 w  z9 V5 Q
  95. Color space                              : YUV
    8 K+ ~6 B; {. y
  96. Chroma subsampling                       : 4:2:0
    1 X" G1 e; l' S; p5 i
  97. Bit depth                                : 8 bits. `) E+ T! G2 ]# }* z$ J! j
  98. Scan type                                : Progressive" @7 R+ g9 k$ P1 u3 U; o# \! h
  99. Compression mode                         : Lossy4 V4 w. p; x+ P3 o# m
  100. Bits/(Pixel*Frame)                       : 0.172
    $ _* v  @* l& _
  101. Stream size                              : 637 MiB (91%)
    : b! p- t. @- l0 I3 B8 \5 X
  102. Writing library                          : XviD 1.1.2 (UTC 2006-11-01)
    4 E( m8 b4 I: s% s

  103. 6 t1 G% _* e) E/ c8 u
  104. Audio
    " F  X+ N' D3 o4 S
  105. ID                                       : 17 ?/ Z+ d: I5 Z
  106. Format                                   : MPEG Audio2 U, S) Z* H, {5 p( S- k) @% d
  107. Format version                           : Version 19 f7 y' x" x. T; V
  108. Format profile                           : Layer 3
    ; c, k% o7 j: X1 ]$ {2 Y5 \
  109. Codec ID                                 : 55
    ( o3 q3 }* j( Y. W& g- o
  110. Codec ID/Hint                            : MP3" N5 W/ T0 y, d$ M6 d& b+ l8 I
  111. Duration                                 : 1h 27mn; J5 P  e" `: Z  _
  112. Bit rate mode                            : Variable! m& u" O- X" b6 q9 o6 \6 ^( I
  113. Bit rate                                 : 87.3 Kbps
    4 h. a1 L# h4 c; V
  114. Channel(s)                               : 1 channel
    3 g6 z* Y- Q0 h! f  a
  115. Sampling rate                            : 48.0 KHz
    & E* y, E% y+ x9 k
  116. Compression mode                         : Lossy
    8 v/ T4 Q* n, t0 ]
  117. Stream size                              : 54.8 MiB (8%)
    ! w2 \9 N8 P6 o1 ?
  118. Alignment                                : Aligned on interleaves) r& K# e& c# z8 `& o, U
  119. Interleave, duration                     : 24 ms (0.58 video frame)
      S/ a2 J- q, a4 f' H
  120. Interleave, preload duration             : 492 ms
    8 K0 ^" B; n( v/ L
  121. ) n& ]9 B2 h% y
  122. General
    $ W6 u4 \1 u+ t
  123. Complete name                            :A Borrowed Life Part 2.srt
    : L6 V: e* O8 C8 A3 a- X  d
  124. Format                                   : SubRip# J$ j5 u. U9 [$ ]0 t0 \/ d
  125. File size                                : 55.4 KiB
    1 N& ^+ l2 V8 F2 a; g

  126. 0 {5 e$ \* ]3 U0 k6 N( B) b! g, G
  127. Text
    5 X5 v+ h8 X2 e) {5 E6 F
  128. Format                                   : SubRip4 ]. s: p0 ?: t9 F
  129. Compression mode                         : Lossless
复制代码
% W) c7 Y8 ^  |! e/ X; `

6 C& d# W4 }( p9 v* K' E( o3 P OpDK4.png 7 A, P0 y  F. q* B* A! F( k( a
" e7 i( v4 X' `$ l/ a: B( N2 J
q01hf.png ; D9 D- j+ F* H5 d" R" w& j' p$ d
( z9 Y5 c7 v5 h) @
YnK2M.png
8 ]+ L9 u3 n% [, n' \/ P; v$ t
& Y* I" c$ t( M9 P2 F115网盘:
# \, Z% _- k- Z! _3 K) `# N. Y0 I
7 h0 E. c' Z/ ]7 ~- y
游客,如果您要查看本帖隐藏内容请回复  捐助论坛可免回复查看隐藏内容 详情请点击
最近访问 头像模式 列表模式
HD一条街,身边的一条街。
发表于 2015-2-13 16:48:01 | 显示全部楼层
HD一条街,是我心中的一条街
HD一条街,身边的一条街。
发表于 2015-2-13 23:37:15 | 显示全部楼层
感谢楼主分享啊。
HD一条街,身边的一条街。
发表于 2015-2-14 12:44:04 | 显示全部楼层
这部电影高清的太难找了~~
HD一条街,身边的一条街。
发表于 2015-3-2 14:41:37 | 显示全部楼层
分享高清资源,就来HD一条街!
HD一条街,身边的一条街。
发表于 2015-3-4 14:13:08 | 显示全部楼层
影视资源尽在HD一条街中, 哦也!
HD一条街,身边的一条街。
发表于 2015-3-15 16:14:41 | 显示全部楼层
这个帖子不回对不起自己!
HD一条街,身边的一条街。
发表于 2015-3-31 09:34:57 | 显示全部楼层
台湾有很多不错的小成本片子,多谢楼主分享
HD一条街,身边的一条街。
头像被屏蔽
发表于 2015-4-15 05:57:37 | 显示全部楼层
提示: 作者被禁止或删除 内容自动屏蔽
HD一条街,身边的一条街。
发表于 2015-4-15 08:46:53 来自手机 | 显示全部楼层
分享高清资源,就来HD一条街!
HD一条街,身边的一条街。

手机版|小黑屋|有问题发邮件到admin#(换成@)hd1tj.org|微博|免责申明|HD一条街

GMT+8, 2017-3-26 05:46

Powered by Discuz! X3.1

© 2001-2013 Comsenz Inc.

快速回复 返回顶部 返回列表