开启辅助访问 切换到窄版

HD一条街论坛

 找回密码
 立即注册
查看: 282|回复: 12

[其它] 牛皮[豆瓣7.9分 国语 英文字幕]Oxhide.DVDRip.x264.1.39G

[复制链接]
发表于 2015-2-11 23:18:23 | 显示全部楼层 |阅读模式
p1221631748.jpg
! E) Z$ J! I. E" A" l! V) C' D; H! |

1 W5 h$ y  z# _3 k; _+ ?/ |) ~导演: 刘伽茵
9 t# E; L# n5 Q% G% h& O: ?主演: 刘伽茵 / 刘在平 / 贾惠芬
. M/ B: A; i! d" v* ~制片国家/地区: 中国大陆
0 M& [; e8 `% A( _. y5 ^, y语言: 汉语普通话
2 x0 x0 L7 b8 o. K: o上映日期: 2005-02-13$ L8 f% I3 y/ n6 U  d1 M! c. d, \# K
片长: Germany: 110 分钟(24 fps)( q4 y( M, q; d' j- ~- f0 w6 R! K
又名: Oxhide/ J0 K0 F0 b( P! y# c& ?
IMDb链接: http://www.imdb.com/title/tt0453795+ n, P, L7 v/ I1 y
% [3 [2 \& h2 e5 B+ ?) }
牛皮的剧情简介  ·  ·  ·  ·  ·  ·/ z' p+ p" A8 u# i! N& O
  父亲经营着一家皮艺店,母亲则在工厂负责皮包的设计和制作,他们对这门生意倾注了极大的感情和心力,却仍是经营惨淡,债主会不期而至。父亲决定以全店皮具五折的方式促销,起初似乎还挺有效,慢慢地作用却不再明显。母亲开始责怪父亲的经营方式和能力,平时在别处总是有一套套道理的父亲,此时却无言以对,懊恼地抽自己的嘴巴。家里家外的波折低落总是会过去,父亲和母亲还是满心祈愿:从明天,也许就能慢慢好起来吧。平淡甚至细碎的生活细节缓缓铺展:父亲想尽一切办法希望女儿长高,母女为店里收成不错的一天鼓掌欢呼,狭窄的过道里女儿为新的皮包充当模特……生活似乎总是艰难局促,而三个人的家庭里,一种难以名状的情感,却在这个过程里捉紧人们的呼吸。3 J% [& S( i8 x+ Y& J3 ^4 v
  1. VIDEO; T5 d& p- o8 q. e
  2. ID :0
    9 F; w- E2 a( @# ]8 P
  3. Format :MPEG-4 Visual
    # T* k1 s2 U9 q- B9 l; x/ D7 @
  4. Format profile :Advanced [email protected]
    4 w% {) X$ {9 J# }" z6 ]
  5. Format settings, BVOP :12 @2 @& [# o" x% `' k* J
  6. Format settings, QPel :No) _, M) z" g) J7 U8 U
  7. Format settings, GMC :No warppoints
    ; L9 t- J% ]6 r( ~7 f7 d# s2 |( i7 Y
  8. Format settings, Matrix : Default (MPEG)
    : M/ C; b  t; y* d, h
  9. Codec ID :XVID
    - r7 F/ d2 r3 c
  10. Codec ID/Hint :XviD. q) I5 R/ c7 ]$ ^2 O1 L
  11. Duration :1h 49mn
    # l' @1 a  M2 }+ P
  12. Bit rate :1 615 Kbps+ e: q8 [- D# o% R
  13. Width :672 pixels
    * L! M" u( h; O! G
  14. Height :288 pixels4 V1 \2 M# _2 E( U
  15. Display aspect ratio :2.35:1
    + N. A1 U5 F0 B9 R( [# m7 t  F
  16. Frame rate: 23.976 fps
      a  ^6 I+ r. P, J2 {6 T* r$ W9 J
  17. Color space: YUV1 \2 H! H9 \- J8 B; |
  18. Chroma subsampling :4:2:04 W' `* P" M2 R
  19. Bit depth: 8 bits
    " |: v/ w$ [, B. i
  20. Scan type: Progressive2 p# i$ U& A2 o% B/ A& p( ~
  21. Compression mode: Lossy3 w& n- v+ ~# q6 o7 F5 M
  22. Bits/(Pixel*Frame) :0.3488 q( Z5 L, z; ^. a4 A$ K
  23. Stream size :1.23 GiB (89%)8 Z, q; ?6 z# a- ]
  24. Writing library :XviD 1.2.1 (UTC 2008-12-04)% w3 L& ]. V$ g! G
  25. 9 G$ V3 [/ e/ y% C$ M" K! q1 `) i
  26. AUDIO
    # P1 \1 m" i5 N/ \
  27. ID :1& j3 M0 {  Z4 X8 ]
  28. Format :AC-3
    8 h5 k9 T: e! l' [2 F0 }& j+ z
  29. Format/Info :Audio Coding 3
    # ]: ~% K0 @; r6 {: F8 D
  30. Mode extension :CM (complete main)% |/ k  l- H8 O  f8 T
  31. Format settings, Endianness :Big
    - n# i: g4 J* S0 k# P  p' _5 g
  32. Codec ID :20005 m4 {! P& _. \9 N) b  I9 E; g, E
  33. Duration :1h 49mn7 X: X/ b3 _' z) k: k- ]
  34. Bit rate mode :Constant
    : w4 R1 q% I  a( S7 b
  35. Bit rate :192 Kbps
    4 G/ ^" G1 F9 [1 [
  36. Channel(s) :2 channels
    9 _+ x/ O) g" t, m4 S- m
  37. Channel positions :Front: L R
    - `+ _; l6 h2 Y+ L
  38. Sampling rate :48.0 KHz
    + M& Y0 }  ?- K6 }0 u$ _# q/ C. `
  39. Bit depth :16 bits7 m* A* \9 K; C. ?5 X& T4 P( v
  40. Compression mode :Lossy5 l9 b% I. h) }
  41. Stream size :150 MiB (11%)
    / [& j. p. Z- y
  42. Alignment :Split accross interleaves% |5 R5 R* P' P4 x9 h5 P- j) l
  43. Interleave, duration :42 ms (1.00 video frame)1 B' Q. {3 T. O( Q" e$ S- E
  44. Interleave, preload duration :500 ms
复制代码

3 u0 S7 Q: N$ X1 _- g! E7 F: {3 l6 M  v) ?$ G
2tCTM.png
" e3 o1 s4 r% k: q$ K; a  _0 Y2 q9 \: s, ?- x: t1 ~
g0RHG.png
1 p& F6 K% i& o) @
8 Z  E5 C& D0 o3 p' H4 B4 J4 R UeScf.png 1 l* S& L( a/ ?3 q

. A7 S$ v8 q# B2 \115网盘:/ N, u5 _, ?7 k5 Z
$ s* A- N  N' q9 D* L- I
游客,如果您要查看本帖隐藏内容请回复  捐助论坛可免回复查看隐藏内容 详情请点击
最近访问 头像模式 列表模式
HD一条街,身边的一条街。
发表于 2015-2-12 04:11:36 | 显示全部楼层
感谢楼主分享啊。
HD一条街,身边的一条街。
发表于 2015-2-12 15:41:44 | 显示全部楼层
感谢楼主的无私分享!
HD一条街,身边的一条街。
发表于 2015-2-12 18:47:50 | 显示全部楼层
楼主太厉害了!楼主,I*老*虎*U!
HD一条街,身边的一条街。
发表于 2015-3-4 14:48:27 | 显示全部楼层
感谢楼主的无私分享!
HD一条街,身边的一条街。
头像被屏蔽
发表于 2015-3-4 15:06:34 | 显示全部楼层
提示: 作者被禁止或删除 内容自动屏蔽
HD一条街,身边的一条街。
发表于 2015-3-15 16:15:40 | 显示全部楼层
在HD一条街找到好多东西
HD一条街,身边的一条街。
头像被屏蔽
发表于 2015-4-15 06:00:42 | 显示全部楼层
提示: 作者被禁止或删除 内容自动屏蔽
HD一条街,身边的一条街。
发表于 2015-4-15 08:43:54 来自手机 | 显示全部楼层
HD一条街,是我心中的一条街
HD一条街,身边的一条街。
发表于 2015-4-15 13:02:34 | 显示全部楼层
楼主发贴辛苦了,谢谢楼主分享!
HD一条街,身边的一条街。

手机版|小黑屋|有问题发邮件到admin#(换成@)hd1tj.org|微博|免责申明|HD一条街

GMT+8, 2017-3-30 14:51

Powered by Discuz! X3.1

© 2001-2013 Comsenz Inc.

快速回复 返回顶部 返回列表