开启辅助访问 切换到窄版

HD一条街论坛

 找回密码
 立即注册
搜索
查看: 295|回复: 12

[其它] 牛皮[豆瓣7.9分 国语 英文字幕]Oxhide.DVDRip.x264.1.39G

[复制链接]
发表于 2015-2-11 23:18:23 | 显示全部楼层 |阅读模式
p1221631748.jpg
! u% z( a1 t9 O" G/ Z
8 |3 H) b6 x7 \& b
" }2 [8 s; z& Z, a+ K4 X4 Z导演: 刘伽茵
. g& ?. X! a' S5 X( u1 a! m0 k  f主演: 刘伽茵 / 刘在平 / 贾惠芬3 D$ I# w9 F0 ]* u  y
制片国家/地区: 中国大陆6 k. [/ `6 E+ Q7 ?% o+ Y, V
语言: 汉语普通话
$ h/ O# n- Q0 H# W& a; e; |, Z8 `上映日期: 2005-02-13
- ^) U6 |; P, i( d0 s7 x5 R& q片长: Germany: 110 分钟(24 fps)
6 A/ y9 W. J7 K  X又名: Oxhide+ N4 Z# m# r# L
IMDb链接: http://www.imdb.com/title/tt0453795) h" [6 C. W" k

! T- B/ t! d/ G% }# w2 [牛皮的剧情简介  ·  ·  ·  ·  ·  ·0 M3 h5 G& ]7 L3 \7 t# d: i
  父亲经营着一家皮艺店,母亲则在工厂负责皮包的设计和制作,他们对这门生意倾注了极大的感情和心力,却仍是经营惨淡,债主会不期而至。父亲决定以全店皮具五折的方式促销,起初似乎还挺有效,慢慢地作用却不再明显。母亲开始责怪父亲的经营方式和能力,平时在别处总是有一套套道理的父亲,此时却无言以对,懊恼地抽自己的嘴巴。家里家外的波折低落总是会过去,父亲和母亲还是满心祈愿:从明天,也许就能慢慢好起来吧。平淡甚至细碎的生活细节缓缓铺展:父亲想尽一切办法希望女儿长高,母女为店里收成不错的一天鼓掌欢呼,狭窄的过道里女儿为新的皮包充当模特……生活似乎总是艰难局促,而三个人的家庭里,一种难以名状的情感,却在这个过程里捉紧人们的呼吸。
. W  {. ]2 h; S2 l- Y
  1. VIDEO
    9 [2 r- e* s; k: r4 ~5 n3 c3 O
  2. ID :0% p+ x, c# a1 n! \* P
  3. Format :MPEG-4 Visual7 i2 J: j8 ]% B8 D! g
  4. Format profile :Advanced [email protected]8 J& a4 _8 c, D0 h* m
  5. Format settings, BVOP :1
    % n7 M1 n& Z* N" }4 w
  6. Format settings, QPel :No& k  m* o1 k: w% ?; x* U& R: x
  7. Format settings, GMC :No warppoints' M8 b6 O, [. A
  8. Format settings, Matrix : Default (MPEG)
    # J$ V  y" _$ M9 d$ [
  9. Codec ID :XVID+ }. R' A' l2 Z: u
  10. Codec ID/Hint :XviD
    5 C+ G( F/ s4 g3 |$ Z' N
  11. Duration :1h 49mn! \( O- F2 {4 H# l  ^4 B. z- H" H& v
  12. Bit rate :1 615 Kbps0 r6 _; b) m2 m1 c: Z+ N
  13. Width :672 pixels* t/ w$ z- M: J, s
  14. Height :288 pixels" G% P' i6 P+ V& a2 M! s) d
  15. Display aspect ratio :2.35:17 O: e5 E& {1 q! c* H0 i, |/ f
  16. Frame rate: 23.976 fps
    . W1 @6 J/ ?2 d1 S6 ]& _9 L+ w! P
  17. Color space: YUV# {- A. ~6 t  r9 u2 A; I
  18. Chroma subsampling :4:2:0* R) o5 W3 R+ I7 ?5 w
  19. Bit depth: 8 bits' v# L* N+ A* R1 J
  20. Scan type: Progressive0 l3 u: u; c. N. E
  21. Compression mode: Lossy
    , X* r( h8 V' v: h+ H4 M2 p
  22. Bits/(Pixel*Frame) :0.348
    & X! G+ n. Z! c
  23. Stream size :1.23 GiB (89%)
    : X8 q5 i3 N+ R$ w$ j& g
  24. Writing library :XviD 1.2.1 (UTC 2008-12-04)5 g( k/ y2 j( i7 c: Q5 B; F$ `* [4 \. [

  25. * E& K- s- L% R
  26. AUDIO
    % z9 M; A$ K& e. H2 n# O* x
  27. ID :1
    ; B# ^; d% m0 w7 `! }* t
  28. Format :AC-3
    + m& T* _/ s& }5 a
  29. Format/Info :Audio Coding 3
    " p4 s, k8 D5 B3 S1 D% H  c
  30. Mode extension :CM (complete main)* T! N& U  H+ i3 G) f+ J
  31. Format settings, Endianness :Big' C0 j+ D( P. n$ |1 o
  32. Codec ID :2000
    " l+ e+ [$ `, \: i% m3 L
  33. Duration :1h 49mn  N* ?1 D) ]1 N( v, `
  34. Bit rate mode :Constant7 N4 T2 N+ J9 N
  35. Bit rate :192 Kbps
    * ~/ Q" n' @$ Y* a  T
  36. Channel(s) :2 channels
    9 A# T0 B* W5 T- n6 p
  37. Channel positions :Front: L R1 ?7 i7 P( e  N2 W& T1 F
  38. Sampling rate :48.0 KHz
    3 ]1 k- a! U% x! D+ M1 o
  39. Bit depth :16 bits
    2 i. A$ {- Z+ d( C4 V
  40. Compression mode :Lossy
    $ M5 }* q, L. }; i. G) N
  41. Stream size :150 MiB (11%)! a8 f& v4 \3 O6 C+ N
  42. Alignment :Split accross interleaves4 V8 q2 D) {. G4 B/ y, r3 G
  43. Interleave, duration :42 ms (1.00 video frame)
    * a( h8 o0 V6 h) H* w6 P2 D
  44. Interleave, preload duration :500 ms
复制代码
' N3 v6 V( X& Q6 K
* b1 Z3 @1 S3 B$ [. {1 |
2tCTM.png
9 K; l' W. ?, d' P$ I$ {7 q9 Y  E
" [# D! \0 m" H/ F& }3 a g0RHG.png
5 d$ J" u! w5 X5 h( }% K6 c8 q4 A! t. x) h9 a7 u$ Q2 U$ {
UeScf.png # f" E. K! s& R9 j/ g0 R3 s) m
. N' C# m, A% R% H. l2 }: V- e: g, ]
115网盘:
6 [9 H0 p9 t2 o. g! W2 ?" C
/ O+ t3 P2 r! e7 Q5 k- w9 Z
游客,如果您要查看本帖隐藏内容请回复  捐助论坛可免回复查看隐藏内容 详情请点击
最近访问 头像模式 列表模式
HD一条街,身边的一条街。
发表于 2015-2-12 04:11:36 | 显示全部楼层
感谢楼主分享啊。
HD一条街,身边的一条街。
发表于 2015-2-12 15:41:44 | 显示全部楼层
感谢楼主的无私分享!
HD一条街,身边的一条街。
发表于 2015-2-12 18:47:50 | 显示全部楼层
楼主太厉害了!楼主,I*老*虎*U!
HD一条街,身边的一条街。
发表于 2015-3-4 14:48:27 | 显示全部楼层
感谢楼主的无私分享!
HD一条街,身边的一条街。
头像被屏蔽
发表于 2015-3-4 15:06:34 | 显示全部楼层
提示: 作者被禁止或删除 内容自动屏蔽
HD一条街,身边的一条街。
发表于 2015-3-15 16:15:40 | 显示全部楼层
在HD一条街找到好多东西
HD一条街,身边的一条街。
头像被屏蔽
发表于 2015-4-15 06:00:42 | 显示全部楼层
提示: 作者被禁止或删除 内容自动屏蔽
HD一条街,身边的一条街。
发表于 2015-4-15 08:43:54 来自手机 | 显示全部楼层
HD一条街,是我心中的一条街
HD一条街,身边的一条街。
发表于 2015-4-15 13:02:34 | 显示全部楼层
楼主发贴辛苦了,谢谢楼主分享!
HD一条街,身边的一条街。

手机版|小黑屋|有问题发邮件到admin#(换成@)hd1tj.org|微博|免责申明|HD一条街

GMT+8, 2017-4-29 21:34

Powered by Discuz! X3.1

© 2001-2013 Comsenz Inc.

快速回复 返回顶部 返回列表