开启辅助访问 切换到窄版

HD一条街论坛

 找回密码
 立即注册
查看: 227|回复: 12

[其它] 牛皮[豆瓣7.9分 国语 英文字幕]Oxhide.DVDRip.x264.1.39G

[复制链接]
发表于 2015-2-11 23:18:23 | 显示全部楼层 |阅读模式
p1221631748.jpg : Q: Y( U$ U0 v

' b6 q( [, b: r- v, |/ Z
7 `9 }& m& L* m' ]% H( a导演: 刘伽茵
2 H( `" I9 g1 \3 y主演: 刘伽茵 / 刘在平 / 贾惠芬" u# \) ]/ m6 V7 r! Z' Y! A+ _
制片国家/地区: 中国大陆( x, o9 c3 a9 v" w4 N8 x+ t6 |
语言: 汉语普通话
* B4 l. N* Z: z2 k& ?, g( I上映日期: 2005-02-134 U0 A( A. l" g, E# ~) Z
片长: Germany: 110 分钟(24 fps)/ P) W0 t! c( k0 `& q# s
又名: Oxhide
% z, @( X: A# _% TIMDb链接: http://www.imdb.com/title/tt0453795
2 Q2 B; P7 D; Y; K1 b, k/ ~) k: T) }! v& i$ E9 Y
牛皮的剧情简介  ·  ·  ·  ·  ·  ·% M7 i+ c0 V% t% l! n
  父亲经营着一家皮艺店,母亲则在工厂负责皮包的设计和制作,他们对这门生意倾注了极大的感情和心力,却仍是经营惨淡,债主会不期而至。父亲决定以全店皮具五折的方式促销,起初似乎还挺有效,慢慢地作用却不再明显。母亲开始责怪父亲的经营方式和能力,平时在别处总是有一套套道理的父亲,此时却无言以对,懊恼地抽自己的嘴巴。家里家外的波折低落总是会过去,父亲和母亲还是满心祈愿:从明天,也许就能慢慢好起来吧。平淡甚至细碎的生活细节缓缓铺展:父亲想尽一切办法希望女儿长高,母女为店里收成不错的一天鼓掌欢呼,狭窄的过道里女儿为新的皮包充当模特……生活似乎总是艰难局促,而三个人的家庭里,一种难以名状的情感,却在这个过程里捉紧人们的呼吸。
+ L" a- @1 E! F4 W( \
  1. VIDEO4 [; g2 J) y5 a3 P. @
  2. ID :0
    % l8 L% X0 s+ B
  3. Format :MPEG-4 Visual9 C0 @9 C8 U, i' g0 m; }
  4. Format profile :Advanced [email protected]
    0 O3 n5 L9 |! N5 \7 B, |; |
  5. Format settings, BVOP :1
    8 @3 K1 x- {. b/ a4 t1 l7 i4 ]: _$ q
  6. Format settings, QPel :No; i& P% D9 f5 |* L5 p
  7. Format settings, GMC :No warppoints
    ' L) P7 K0 U* v+ \& Y
  8. Format settings, Matrix : Default (MPEG)" ~+ ~5 M& {4 i
  9. Codec ID :XVID$ ^; V6 h% v; a( e: ]
  10. Codec ID/Hint :XviD
    . J9 N6 D0 L5 ?$ |
  11. Duration :1h 49mn# \3 }2 y% a( E2 E" T+ Y
  12. Bit rate :1 615 Kbps( g2 m& }0 Q" M7 m
  13. Width :672 pixels! d5 [3 p/ t' E
  14. Height :288 pixels
    1 ]6 H% |& q7 H8 @* I
  15. Display aspect ratio :2.35:1
      f6 t! z7 X% X7 O) d
  16. Frame rate: 23.976 fps
    ) ~0 }9 {0 M* p9 Z8 m9 a2 X
  17. Color space: YUV
    6 |, ?1 t8 {4 ?" ?
  18. Chroma subsampling :4:2:0
    : s; b2 W9 K6 G
  19. Bit depth: 8 bits3 r* P2 o& s; D1 D
  20. Scan type: Progressive
    6 B! }, [+ q8 }" M" M& R
  21. Compression mode: Lossy$ F& q5 Z8 T% ^4 R
  22. Bits/(Pixel*Frame) :0.348- D  G5 g* |- a' E$ [
  23. Stream size :1.23 GiB (89%)
    ' D* v4 P, i$ s- ?  _1 l! f6 Q
  24. Writing library :XviD 1.2.1 (UTC 2008-12-04)
    + y# y( \5 _+ c# N4 z

  25. * e5 r5 y  O6 }- x7 e8 X; F
  26. AUDIO
      U4 A7 f  B0 l- c9 `6 ~4 I
  27. ID :1
    8 P, P  M: {* t& s1 L( U2 G% B
  28. Format :AC-34 ], ]- ]- r' h$ Y6 T- v! B
  29. Format/Info :Audio Coding 3! R; q9 p8 Y. V. O2 o
  30. Mode extension :CM (complete main)
    0 h/ \) i' k% `: z. I1 }# f
  31. Format settings, Endianness :Big
    * t$ p) P9 U; E" ?$ F
  32. Codec ID :2000. g8 q( |* |2 r. _; X# Z
  33. Duration :1h 49mn
    : V- n4 @, ^; A1 T# L
  34. Bit rate mode :Constant+ o3 t  q" R# S! _
  35. Bit rate :192 Kbps
    % X( L) U: |9 g7 i/ {7 l
  36. Channel(s) :2 channels9 F, L, V( T/ J/ T3 y
  37. Channel positions :Front: L R9 ^- q5 P8 Q/ T' s2 }; P
  38. Sampling rate :48.0 KHz5 y' ^( P' [: H' g
  39. Bit depth :16 bits5 R3 P2 \0 v; ?% I
  40. Compression mode :Lossy, B3 O* @; n; u4 V
  41. Stream size :150 MiB (11%)7 l" D+ b9 K; P- P; c) Y. o
  42. Alignment :Split accross interleaves
    . i' ?9 ?7 c; t8 y0 {
  43. Interleave, duration :42 ms (1.00 video frame)0 L% Q# J) A+ s) h
  44. Interleave, preload duration :500 ms
复制代码
8 m5 O. a9 z5 s# z% D' K8 W
+ s, A9 B1 K' \# r6 C
2tCTM.png % `8 ^6 C+ }& J" Q* k$ ]9 l
- m0 t; a) N0 A3 @: F
g0RHG.png : E6 ]% m% o, h! M2 v4 J
/ ^( a  i, B" ^8 n! g" o8 S
UeScf.png
  v3 D9 [4 Q  E- P/ n& Q0 I9 M) G/ t# C. Q- Q
115网盘:# r1 C5 @0 t) N

2 w) _" {- N* [- d) {& O# ]
游客,如果您要查看本帖隐藏内容请回复  捐助论坛可免回复查看隐藏内容详情请点击
最近访问 头像模式 列表模式
HD一条街,身边的一条街。
发表于 2015-2-12 04:11:36 | 显示全部楼层
感谢楼主分享啊。
HD一条街,身边的一条街。
发表于 2015-2-12 15:41:44 | 显示全部楼层
感谢楼主的无私分享!
HD一条街,身边的一条街。
发表于 2015-2-12 18:47:50 | 显示全部楼层
楼主太厉害了!楼主,I*老*虎*U!
HD一条街,身边的一条街。
发表于 2015-3-4 14:48:27 | 显示全部楼层
感谢楼主的无私分享!
HD一条街,身边的一条街。
头像被屏蔽
发表于 2015-3-4 15:06:34 | 显示全部楼层
提示: 作者被禁止或删除 内容自动屏蔽
HD一条街,身边的一条街。
发表于 2015-3-15 16:15:40 | 显示全部楼层
在HD一条街找到好多东西
HD一条街,身边的一条街。
头像被屏蔽
发表于 2015-4-15 06:00:42 | 显示全部楼层
提示: 作者被禁止或删除 内容自动屏蔽
HD一条街,身边的一条街。
发表于 2015-4-15 08:43:54 来自手机 | 显示全部楼层
HD一条街,是我心中的一条街
HD一条街,身边的一条街。
发表于 2015-4-15 13:02:34 | 显示全部楼层
楼主发贴辛苦了,谢谢楼主分享!
HD一条街,身边的一条街。
您需要登录后才可以回帖 登录 | 立即注册

本版积分规则

手机版|小黑屋|有问题发邮件到admin#(换成@)hd1tj.org|微博|免责申明|HD一条街

GMT+8, 2016-12-6 13:45

Powered by Discuz! X3.1

© 2001-2013 Comsenz Inc.

快速回复 返回顶部 返回列表