开启辅助访问 切换到窄版

HD一条街论坛

 找回密码
 加入我们
查看: 251|回复: 12

[其它] 牛皮[豆瓣7.9分 国语 英文字幕]Oxhide.DVDRip.x264.1.39G

[复制链接]
发表于 2015-2-11 23:18:23 | 显示全部楼层 |阅读模式
p1221631748.jpg : K" p# ~1 H, J$ S; r. {% a8 W& u. B8 S
) a) [  V) A" L% L. j1 u
, Y  Z; Z7 s8 K1 k) h% ^
导演: 刘伽茵
* A6 \  A0 x8 g* b; h4 o: q: s主演: 刘伽茵 / 刘在平 / 贾惠芬* F/ x2 u+ q4 c9 u$ f3 z$ P
制片国家/地区: 中国大陆
( r8 L, U' Z& d% C& {8 G语言: 汉语普通话: _$ C1 c) Q$ l8 @5 h3 ~- ^
上映日期: 2005-02-13
1 w& Y- S5 U! J9 c片长: Germany: 110 分钟(24 fps)
2 ]# k% S% D/ ]6 a7 g# q又名: Oxhide
2 F! a, d+ I$ t) s; p+ E) _IMDb链接: http://www.imdb.com/title/tt0453795
  \7 c" B6 M$ I& |: T# [# r
! N# F0 q3 o) z9 j! _牛皮的剧情简介  ·  ·  ·  ·  ·  ·
0 d1 T' j, G1 L1 k. o1 u0 |/ S  父亲经营着一家皮艺店,母亲则在工厂负责皮包的设计和制作,他们对这门生意倾注了极大的感情和心力,却仍是经营惨淡,债主会不期而至。父亲决定以全店皮具五折的方式促销,起初似乎还挺有效,慢慢地作用却不再明显。母亲开始责怪父亲的经营方式和能力,平时在别处总是有一套套道理的父亲,此时却无言以对,懊恼地抽自己的嘴巴。家里家外的波折低落总是会过去,父亲和母亲还是满心祈愿:从明天,也许就能慢慢好起来吧。平淡甚至细碎的生活细节缓缓铺展:父亲想尽一切办法希望女儿长高,母女为店里收成不错的一天鼓掌欢呼,狭窄的过道里女儿为新的皮包充当模特……生活似乎总是艰难局促,而三个人的家庭里,一种难以名状的情感,却在这个过程里捉紧人们的呼吸。
6 Z1 G8 I& j! O2 R$ e: m
  1. VIDEO" I  y6 ~8 P6 `  O2 z# p
  2. ID :0
    % @$ U2 h1 n, M& A
  3. Format :MPEG-4 Visual
    % w; X6 [( W* ?# T; X) o* S
  4. Format profile :Advanced [email protected]2 x% x* U+ W/ N/ F
  5. Format settings, BVOP :1- }) ]6 V2 o" }: E& ], [4 N3 s/ O9 a
  6. Format settings, QPel :No* w5 |* E5 x; O  \# ~
  7. Format settings, GMC :No warppoints1 ~6 X" R# D( w- N
  8. Format settings, Matrix : Default (MPEG); M+ X1 _6 V% _# ?$ w/ n7 {; d* \
  9. Codec ID :XVID! r% F; T9 u, o! f: M7 K* _2 L
  10. Codec ID/Hint :XviD* V) l& L, O. w! N, N" ?4 Z2 P; C
  11. Duration :1h 49mn
    ( ~) \, k4 b, }; T
  12. Bit rate :1 615 Kbps6 y" e, @$ g% A# N& w4 b
  13. Width :672 pixels: O$ R: Z- f5 p8 F% G4 a
  14. Height :288 pixels2 R8 W0 c1 X7 f  v
  15. Display aspect ratio :2.35:17 g, o. u5 ?: E
  16. Frame rate: 23.976 fps
    6 K8 k) _+ f% w# U9 A
  17. Color space: YUV
    ; v- e) @# j' K; w' E/ ]
  18. Chroma subsampling :4:2:0
    ! o/ \8 v5 Q1 |; I/ ]7 M
  19. Bit depth: 8 bits9 J" L. l) T7 x0 k
  20. Scan type: Progressive- p: j2 @7 a/ T3 a( ^
  21. Compression mode: Lossy: Y  }9 L$ u& ^* a! C
  22. Bits/(Pixel*Frame) :0.348: x* w+ [6 h) Z/ ?2 H" c+ w
  23. Stream size :1.23 GiB (89%)
    / ^! a/ u3 Z$ ]( i
  24. Writing library :XviD 1.2.1 (UTC 2008-12-04)
    # v* C) P7 P' ~

  25.   g/ B: R( b* m3 r
  26. AUDIO
    # L6 i9 @" A3 q/ X6 c% @
  27. ID :1: h8 w. _( ?: X$ k& A% v2 f
  28. Format :AC-3
    % h( H& m7 c/ X0 q
  29. Format/Info :Audio Coding 3. D8 u2 B/ m. T9 u" _
  30. Mode extension :CM (complete main)5 K: Q1 D' H8 Z
  31. Format settings, Endianness :Big& @1 i7 d+ h3 k7 [4 s# z, [7 U
  32. Codec ID :20004 R! Z8 h! o! w& A" G
  33. Duration :1h 49mn
    : U1 R% q7 {9 @5 g2 w" \. P$ w
  34. Bit rate mode :Constant) D* \% G5 ~' U9 G8 j: f1 ~
  35. Bit rate :192 Kbps, [- O: a0 t1 C6 d3 N( d4 o2 ^
  36. Channel(s) :2 channels
    * |. R! t' B! H# Q) b. H
  37. Channel positions :Front: L R! a+ ?! [6 h! B5 {3 ]  G* j3 j4 X
  38. Sampling rate :48.0 KHz
    0 _4 `9 d9 F! t2 j$ H& v& [9 t3 ~
  39. Bit depth :16 bits, A( ]! h/ I2 o  X
  40. Compression mode :Lossy; s1 T0 ?3 a7 ]
  41. Stream size :150 MiB (11%)3 `% x; D) ^  b6 N7 D; H
  42. Alignment :Split accross interleaves- z( u4 [: ?! \1 o* n3 L3 m
  43. Interleave, duration :42 ms (1.00 video frame)9 A0 _; _2 ^( z: T  M  E
  44. Interleave, preload duration :500 ms
复制代码
5 w# b# b! d$ P- {3 |# F
+ j% n! o& f: P& [
2tCTM.png ( P' H3 n$ w0 l

/ i1 R' ~: z$ z9 |7 s/ c, g g0RHG.png 8 I- }( Z. X5 p8 c" {

2 H: t5 [7 U1 I; z UeScf.png
& R, _% i' Q+ `& n4 m  P! @- y/ q
8 A. H! x0 }! J  F7 C/ X115网盘:' h0 G4 Z$ v& M7 ^
" S6 U4 V7 w; S" G( T1 H
游客,如果您要查看本帖隐藏内容请回复  捐助论坛可免回复查看隐藏内容 详情请点击
最近访问 头像模式 列表模式
HD一条街,身边的一条街。
发表于 2015-2-12 04:11:36 | 显示全部楼层
感谢楼主分享啊。
HD一条街,身边的一条街。
发表于 2015-2-12 15:41:44 | 显示全部楼层
感谢楼主的无私分享!
HD一条街,身边的一条街。
发表于 2015-2-12 18:47:50 | 显示全部楼层
楼主太厉害了!楼主,I*老*虎*U!
HD一条街,身边的一条街。
发表于 2015-3-4 14:48:27 | 显示全部楼层
感谢楼主的无私分享!
HD一条街,身边的一条街。
头像被屏蔽
发表于 2015-3-4 15:06:34 | 显示全部楼层
提示: 作者被禁止或删除 内容自动屏蔽
HD一条街,身边的一条街。
发表于 2015-3-15 16:15:40 | 显示全部楼层
在HD一条街找到好多东西
HD一条街,身边的一条街。
头像被屏蔽
发表于 2015-4-15 06:00:42 | 显示全部楼层
提示: 作者被禁止或删除 内容自动屏蔽
HD一条街,身边的一条街。
发表于 2015-4-15 08:43:54 来自手机 | 显示全部楼层
HD一条街,是我心中的一条街
HD一条街,身边的一条街。
发表于 2015-4-15 13:02:34 | 显示全部楼层
楼主发贴辛苦了,谢谢楼主分享!
HD一条街,身边的一条街。
您需要登录后才可以回帖 登录 | 加入我们

本版积分规则

手机版|小黑屋|有问题发邮件到admin#(换成@)hd1tj.org|微博|免责申明|HD一条街

GMT+8, 2017-1-20 13:46

Powered by Discuz! X3.1

© 2001-2013 Comsenz Inc.

快速回复 返回顶部 返回列表