开启辅助访问 切换到窄版

HD一条街论坛

 找回密码
 加入我们
查看: 269|回复: 12

[其它] 牛皮[豆瓣7.9分 国语 英文字幕]Oxhide.DVDRip.x264.1.39G

[复制链接]
发表于 2015-2-11 23:18:23 | 显示全部楼层 |阅读模式
p1221631748.jpg * l! Y, D) O' f3 \- U
3 W" r0 h' s) [+ ^

/ G$ M. M' W# k5 W导演: 刘伽茵7 [& Y; e/ |4 W
主演: 刘伽茵 / 刘在平 / 贾惠芬
" ~4 j7 J; s) N制片国家/地区: 中国大陆
4 R) e& M. J! K% s' w3 x; |语言: 汉语普通话- n! B& i) H0 q2 @0 A$ Q& a
上映日期: 2005-02-13
+ q0 E( ]8 o2 S. i# t+ u片长: Germany: 110 分钟(24 fps)  p/ K3 w5 t# r
又名: Oxhide
! l  X% c4 A3 m2 s. P- RIMDb链接: http://www.imdb.com/title/tt0453795# c5 R) t) }( ]! a- h9 }2 q0 R* w
" N, [6 l: I. d: z
牛皮的剧情简介  ·  ·  ·  ·  ·  ·6 d$ s$ N8 S; ]+ L% G
  父亲经营着一家皮艺店,母亲则在工厂负责皮包的设计和制作,他们对这门生意倾注了极大的感情和心力,却仍是经营惨淡,债主会不期而至。父亲决定以全店皮具五折的方式促销,起初似乎还挺有效,慢慢地作用却不再明显。母亲开始责怪父亲的经营方式和能力,平时在别处总是有一套套道理的父亲,此时却无言以对,懊恼地抽自己的嘴巴。家里家外的波折低落总是会过去,父亲和母亲还是满心祈愿:从明天,也许就能慢慢好起来吧。平淡甚至细碎的生活细节缓缓铺展:父亲想尽一切办法希望女儿长高,母女为店里收成不错的一天鼓掌欢呼,狭窄的过道里女儿为新的皮包充当模特……生活似乎总是艰难局促,而三个人的家庭里,一种难以名状的情感,却在这个过程里捉紧人们的呼吸。/ h, Q. Q0 G. u7 j, p- G4 @
  1. VIDEO
    ) m( \' |$ }! N# S  [
  2. ID :0; G' w) N2 T# P* h, i
  3. Format :MPEG-4 Visual
    & A$ E$ l8 K# t8 O! X) d
  4. Format profile :Advanced [email protected]5 e+ t: o6 b6 @% c7 [
  5. Format settings, BVOP :1$ K* o; T( U6 f
  6. Format settings, QPel :No; C3 [. o5 Q5 k
  7. Format settings, GMC :No warppoints' P9 H3 _; O% V8 q3 v
  8. Format settings, Matrix : Default (MPEG)- N! o! E" V/ e) G9 w
  9. Codec ID :XVID* m- l! U2 r7 _
  10. Codec ID/Hint :XviD" \$ e0 \$ c0 p! r, p
  11. Duration :1h 49mn3 G& R% N  H( h6 k' \
  12. Bit rate :1 615 Kbps0 a+ d% g# E4 w3 w7 y
  13. Width :672 pixels
    & c7 w" t2 k( I5 H% y
  14. Height :288 pixels
    3 G( Z6 `4 {$ \0 Y9 `
  15. Display aspect ratio :2.35:1
    1 s& A3 Z- x* u* e6 S
  16. Frame rate: 23.976 fps
    ( h$ s( o8 X# S# [6 w4 e7 s+ A
  17. Color space: YUV  i8 V. X3 f/ I6 X
  18. Chroma subsampling :4:2:0
    , b4 e5 A; {' i, y! z/ x
  19. Bit depth: 8 bits
    - V' w; @% e& v7 ?5 _3 |
  20. Scan type: Progressive* ]- N/ @* h! k1 _% a& e, Z* Q
  21. Compression mode: Lossy
    ( Z# R- s% E. M1 Y* n3 [1 [& c5 H' G
  22. Bits/(Pixel*Frame) :0.348
    + ]9 I5 H- S( v: J
  23. Stream size :1.23 GiB (89%)( ]' Y9 ]; |) R- v( V( D+ E) A
  24. Writing library :XviD 1.2.1 (UTC 2008-12-04)
    ! A/ m' }8 e" g
  25. 2 x1 d' q7 K( h7 U! b, F
  26. AUDIO
    1 v0 D* C% i5 }( {' N: F$ }$ W0 p
  27. ID :1
    * `( n0 A* l% b' H5 n6 R! g
  28. Format :AC-3
    ' A8 m8 _  j$ [/ O
  29. Format/Info :Audio Coding 3
    , U/ b  [* U' _
  30. Mode extension :CM (complete main)
    5 X( a1 v4 v4 G7 r
  31. Format settings, Endianness :Big# w( {  h7 ]% F+ H6 q% E
  32. Codec ID :2000
    # K' j* r9 C& b, y  b+ V" r2 g
  33. Duration :1h 49mn
    # p; _; S+ E9 r! K; Q; K
  34. Bit rate mode :Constant
    3 U3 H+ n6 ~) j. v; u/ _) s
  35. Bit rate :192 Kbps
    3 ?0 J" b# ^& _  a$ `% v# y
  36. Channel(s) :2 channels
    4 w8 Y/ ~0 J. E' ^
  37. Channel positions :Front: L R
    - S) _/ k8 a: ^6 w- n
  38. Sampling rate :48.0 KHz
    3 T- m- y' x+ d" R
  39. Bit depth :16 bits( w, [1 ^- t1 f
  40. Compression mode :Lossy
    ; t  n/ r$ h8 s4 A& U+ k6 N
  41. Stream size :150 MiB (11%)
    5 Q3 ]  r& ~& ^' C& h1 q9 m
  42. Alignment :Split accross interleaves
    ; ^+ _3 X6 _( V& e( u5 j
  43. Interleave, duration :42 ms (1.00 video frame)  ?- M% S8 C3 F
  44. Interleave, preload duration :500 ms
复制代码
! N6 R% h5 w1 k  @4 f* n) y

! E) T6 m) f9 n8 q+ A! a; R 2tCTM.png # y( x2 s3 \0 Q% d3 e, h, @  e
5 v( \# R: {) k6 o% f% n) U
g0RHG.png
; X5 H$ X' ]  u8 O! d% O/ t- R3 B# m4 @6 |9 p  ^
UeScf.png
1 n& k" e  S! g- r3 A0 H6 [( k. g4 S
( W# k3 Y& @4 N0 \  Y0 P  }* S115网盘:$ k0 i+ m) @  n6 U4 E

: l5 F) S: B# [1 ^+ S1 [* @' V" |
游客,如果您要查看本帖隐藏内容请回复  捐助论坛可免回复查看隐藏内容 详情请点击
最近访问 头像模式 列表模式
HD一条街,身边的一条街。
发表于 2015-2-12 04:11:36 | 显示全部楼层
感谢楼主分享啊。
HD一条街,身边的一条街。
发表于 2015-2-12 15:41:44 | 显示全部楼层
感谢楼主的无私分享!
HD一条街,身边的一条街。
发表于 2015-2-12 18:47:50 | 显示全部楼层
楼主太厉害了!楼主,I*老*虎*U!
HD一条街,身边的一条街。
发表于 2015-3-4 14:48:27 | 显示全部楼层
感谢楼主的无私分享!
HD一条街,身边的一条街。
头像被屏蔽
发表于 2015-3-4 15:06:34 | 显示全部楼层
提示: 作者被禁止或删除 内容自动屏蔽
HD一条街,身边的一条街。
发表于 2015-3-15 16:15:40 | 显示全部楼层
在HD一条街找到好多东西
HD一条街,身边的一条街。
头像被屏蔽
发表于 2015-4-15 06:00:42 | 显示全部楼层
提示: 作者被禁止或删除 内容自动屏蔽
HD一条街,身边的一条街。
发表于 2015-4-15 08:43:54 来自手机 | 显示全部楼层
HD一条街,是我心中的一条街
HD一条街,身边的一条街。
发表于 2015-4-15 13:02:34 | 显示全部楼层
楼主发贴辛苦了,谢谢楼主分享!
HD一条街,身边的一条街。
您需要登录后才可以回帖 登录 | 加入我们

本版积分规则

手机版|小黑屋|有问题发邮件到admin#(换成@)hd1tj.org|微博|免责申明|HD一条街

GMT+8, 2017-2-26 22:38

Powered by Discuz! X3.1

© 2001-2013 Comsenz Inc.

快速回复 返回顶部 返回列表