开启辅助访问 切换到窄版

HD一条街论坛

 找回密码
 加入我们
查看: 231|回复: 11

[其它] 日日夜夜[刘磊/王澜/王铮]Day.And.Night.[Ri.ri.ye.ye].2004.DVDRip.x264-QAD 1.46G

[复制链接]
发表于 2015-2-8 21:42:34 | 显示全部楼层 |阅读模式
cFzs.jpg * F+ b! ]) O6 c7 Y& _: C6 f6 l
1 K$ @8 A4 z8 {' p! p
2 l" O5 T9 {" @
导演: 王超1 }; {/ V& D' A, k7 b! v6 c
主演: 刘磊 / 王澜 / 王铮
2 q! S9 @7 x+ [) a类型: 剧情
& j5 ^8 f! _1 e6 o: O制片国家/地区: 中国大陆 / 法国% O9 Y) u, z4 k5 ]! @. s
语言: 汉语普通话
' |5 v& P+ Y( K0 f0 m上映日期: 2005-03-27
/ j$ H7 l1 ?1 h7 y" f片长: France: 85 分钟 / Argentina: 89 分钟. n* o- F3 v# y# o" e
又名: Night and Day/ X, L$ Q- j, a" o8 k2 h1 q
IMDb链接: http://www.imdb.com/title/tt0436721
0 J" x# p  j2 b) U
+ a+ L. c0 j6 d( g( K日日夜夜的剧情简介  ·  ·  ·  ·  ·  ·5 Y8 [( O- c* S& H" q
  黄河中部某煤矿。矿工广生(刘磊 饰)与师父日日下井,暗中却与师母(王澜 饰)维持着关系,师父胖大的傻儿子阿福(肖明 饰)与一头毛驴感情甚笃,即便撞破了广生与母亲之事也不明就里。不久矿山发生事故,师父生死,广生为自己本可救出师父却选择独自逃生而深深自责,他终止了同师母的关系,劝其离开。广生将残破的煤矿承包独自经营,阿福返回煤矿一同劳动。随着煤矿的经营转入正轨,广生的经济状况有所好转,他向师父的幻影承诺:为阿福找到媳妇儿。相亲的姑娘们络绎不绝的来到矿上,广生在小店的按摩房里邂逅了背井离乡的红梅,他克制自己对红梅的爱意将她许配给了阿福…… ©豆瓣
  1. Video) G, b# z' E9 {: `0 G& w. Q
  2. ID                          : 1
    6 k8 U7 a3 M! w
  3. Format                      : AVC
    $ i* o4 E) F& L6 Q3 {* C& \: J
  4. Format/Info                 : Advanced Video Codec8 I0 ?1 Q; q8 K
  5. Format profile              : High@L4.1
    - m: H& t( Q1 z! n# L
  6. Format settings, CABAC      : Yes
    % j6 O/ l5 g; I& W8 {. p* f# ]- b
  7. Format settings, ReFrames   : 16 frames9 |: F6 S: b+ A( b: n0 j
  8. Codec ID                    : V_MPEG4/ISO/AVC; R( x$ u+ h6 U
  9. Duration                    : 1h 29mn
    4 f* h1 X" A/ v
  10. Bit rate                    : 2 115 Kbps
    " x1 n! t, W# x  ^
  11. Width                       : 720 pixels0 K* h: F6 G6 ^8 f
  12. Height                      : 404 pixels. M  }; h) o7 Q
  13. Display aspect ratio        : 16:9
    : _3 i" g7 V6 o, t9 X6 G& |( I
  14. Frame rate mode             : Constant/ F# G- r( }: a3 y8 G5 c
  15. Frame rate                  : 23.976 fps" J* @7 x5 `- s- a
  16. Color space                 : YUV1 g& I% B- b- s0 s- r2 T. W1 P
  17. Chroma subsampling          : 4:2:0
    , Y8 D! W0 X4 ?8 H- b
  18. Bit depth                   : 8 bits
    4 h1 g. h  g" u/ F5 Y. R! g
  19. Scan type                   : Progressive
    % ?- j* V) O( v3 Y
  20. Bits/(Pixel*Frame)          : 0.3038 B7 G* X* [& `+ d1 L
  21. Stream size                 : 1.29 GiB (88%)7 y; n  T  N) y2 e
  22. Writing library             : x264 core 144 r2525 40bb568
    2 G5 B2 v% f  z
  23. Encoding settings           : cabac=1 / ref=16 / deblock=1:0:0 / analyse=0x3:0x133 / me=umh / subme=10 / psy=1 / psy_rd=1.00:0.00 / mixed_ref=1 / me_range=24 / chroma_me=1 / trellis=2 / 8x8dct=1 / cqm=0 / deadzone=21,11 / fast_pskip=1 / chroma_qp_offset=-2 / threads=6 / lookahead_threads=1 / sliced_threads=0 / nr=0 / decimate=1 / interlaced=0 / bluray_compat=0 / constrained_intra=0 / bframes=8 / b_pyramid=2 / b_adapt=2 / b_bias=0 / direct=3 / weightb=1 / open_gop=0 / weightp=2 / keyint=240 / keyint_min=23 / scenecut=40 / intra_refresh=0 / rc_lookahead=60 / rc=2pass / mbtree=1 / bitrate=2115 / ratetol=1.0 / qcomp=0.60 / qpmin=0 / qpmax=69 / qpstep=4 / cplxblur=20.0 / qblur=0.5 / vbv_maxrate=62500 / vbv_bufsize=78125 / nal_hrd=none / filler=0 / ip_ratio=1.40 / aq=1:1.00. J3 _& ?, M8 Y- z- M
  24. Language                    : Chinese
    1 J3 n+ Z1 M% [1 [
  25. Default                     : Yes
    & L6 \5 l! B1 A! ?0 Q
  26. Forced                      : No  o& Y3 \  V8 _# {

  27. . C! i* h" O# z
  28. Audio4 N* C6 s/ s; A% l% l) l
  29. ID                          : 2
    ; k7 C. V+ d/ ]+ u' q, Y
  30. Format                      : AC-3# D( }( d7 |) B7 y* z
  31. Format/Info                 : Audio Coding 3+ N" a( H7 c; M# l3 a' X5 N
  32. Mode extension              : CM (complete main)  o. M3 D# D. P2 R6 I4 w
  33. Format settings, Endianness : Big4 N- n( m9 \$ ?9 |0 A7 W. l; ?
  34. Codec ID                    : A_AC3* k" g) W4 u" V' z) s
  35. Duration                    : 1h 29mn
    ! S7 d( L6 X; y* o2 i
  36. Bit rate mode               : Constant/ b5 w" w' `) ^) h' }: L0 G5 t
  37. Bit rate                    : 224 Kbps
    ) Z% `2 V4 j3 Y% G$ j
  38. Channel(s)                  : 2 channels
    9 m% P  ]0 t1 I6 O2 x+ M
  39. Channel positions           : Front: L R, ~# W/ j- Z9 o8 |, M+ T, f  q# l
  40. Sampling rate               : 48.0 KHz
      k( J" W" c) y7 V. @. W: @
  41. Bit depth                   : 16 bits
    1 L5 U" ~( ?) Q: g
  42. Compression mode            : Lossy
    ' u1 c4 h* v8 p8 T
  43. Stream size                 : 143 MiB (10%)
    3 p  j: W- @! N) F4 n0 l7 N
  44. Language                    : Chinese
    ; l1 m! G7 O' }
  45. Default                     : Yes9 f) j9 h2 e9 n% G/ S( J! ]! }4 w
  46. Forced                      : No
    & {' s! m+ W, X( x. e1 F

  47. / x& K7 k) a9 f. c+ h
  48. Menu
    6 g6 E3 M# a1 T. W  X! Z! ]
  49. 00:00:00.000                : zh:Chapter 012 ~! j# O8 y8 A1 ~
  50. 00:13:37.100                : zh:Chapter 02
    5 g/ R4 c/ _# D# U# ]# l; r* Z$ @
  51. 00:26:05.834                : zh:Chapter 03- L& r# q; H9 g" U
  52. 00:40:41.702                : zh:Chapter 04
    6 u- Y4 l- @+ E. ~2 R, B) S8 c
  53. 00:55:42.436                : zh:Chapter 05
    1 I8 {* n/ y8 k8 O$ v6 x& j
  54. 01:06:24.003                : zh:Chapter 063 @" [/ k, S$ \# N
  55. 01:19:23.170                : zh:Chapter 07
    * A+ e" ?. Z2 \
  56. 01:25:55.437                : zh:Chapter 087 A( Z; Y; s# ~: R+ C
  57. 01:29:05.305                : zh:Chapter 09
复制代码
郑重声明:0 M: |' K& I1 e( k1 \
本站提供的所有影视作品均是在网上搜集任何涉及商业盈利目的均不得使用,否则产生的一切后果将由您自己承担!本站将不对本站的任何内容负任何法律责任!该下载内容仅做宽带测试使用,请在下载后24小时内删除。请购买正版!
* F2 o" Z+ {/ K3 n* t

8 H8 c! I  j1 h9 J, u/ @ 3lgJ1.jpg
# Z* t7 S* o# {0 H$ f9 O; t# v* L- R dDZPu.jpg
& u- W# y0 n# Z, q6 P9 X: T; E, R EG9kV.jpg
- D4 \5 P) B* B9 g& v9 c% A/ E) b G2Sv3.jpg 9 y4 s! g% s& Z  o4 @: p
u8P6h.jpg ( e" V. M1 w. v! L; J/ I% v
+ j( N: ?' Q* g2 k/ _7 }$ r
115网盘:/ z/ Z+ H4 s8 T* D* y
- i% A& r) z3 p  _
游客,如果您要查看本帖隐藏内容请回复  捐助论坛可免回复查看隐藏内容 详情请点击
最近访问 头像模式 列表模式
HD一条街,身边的一条街。
头像被屏蔽
发表于 2015-2-8 22:57:44 | 显示全部楼层
提示: 作者被禁止或删除 内容自动屏蔽
HD一条街,身边的一条街。
ddna 该用户已被删除
发表于 2015-2-9 01:35:14 | 显示全部楼层
提示: 作者被禁止或删除 内容自动屏蔽
HD一条街,身边的一条街。
发表于 2015-2-9 11:41:59 | 显示全部楼层
好像没看过这个电影!
HD一条街,身边的一条街。
LEON1116 该用户已被删除
发表于 2015-2-9 15:42:07 | 显示全部楼层
提示: 作者被禁止或删除 内容自动屏蔽
HD一条街,身边的一条街。
发表于 2015-2-9 22:51:20 | 显示全部楼层
怎么要会员才能下载
HD一条街,身边的一条街。
发表于 2015-2-10 09:14:39 | 显示全部楼层
这东西我收了!谢谢楼主!
HD一条街,身边的一条街。
发表于 2015-2-10 10:44:48 | 显示全部楼层
为什么是网盘呢啊,为什么点回复没反映啊
HD一条街,身边的一条街。
发表于 2015-3-20 15:33:48 | 显示全部楼层
感谢楼主分享。
HD一条街,身边的一条街。
发表于 2015-3-30 14:28:04 | 显示全部楼层
既然你诚信诚意的推荐了,那我就勉为其难的看看吧!
HD一条街,身边的一条街。
您需要登录后才可以回帖 登录 | 加入我们

本版积分规则

手机版|小黑屋|有问题发邮件到admin#(换成@)hd1tj.org|微博|免责申明|HD一条街

GMT+8, 2017-2-21 02:04

Powered by Discuz! X3.1

© 2001-2013 Comsenz Inc.

快速回复 返回顶部 返回列表