开启辅助访问 切换到窄版

HD一条街论坛

 找回密码
 立即注册
搜索
查看: 260|回复: 11

[其它] 日日夜夜[刘磊/王澜/王铮]Day.And.Night.[Ri.ri.ye.ye].2004.DVDRip.x264-QAD 1.46G

[复制链接]
发表于 2015-2-8 21:42:34 | 显示全部楼层 |阅读模式
cFzs.jpg / V: @7 }3 D0 g( U8 I0 F( F
% G* D0 c/ W3 v
3 c2 k- h9 ^" }* E% @8 d* S/ u
导演: 王超6 q" ~2 k# r. Y
主演: 刘磊 / 王澜 / 王铮/ A6 z! W6 g. X% K; p
类型: 剧情- ~$ c$ O& D5 J9 L' A4 `, F
制片国家/地区: 中国大陆 / 法国9 N" W5 i8 z: D% ~
语言: 汉语普通话; }( v! A! Y1 T' e  ]( {3 C* r
上映日期: 2005-03-27$ q' S1 L; o+ S: @: K/ a1 O' H
片长: France: 85 分钟 / Argentina: 89 分钟
/ o$ r2 M- c1 X- z5 x0 |/ p0 p) z又名: Night and Day- D2 b+ K8 o( s; d6 s% i4 T
IMDb链接: http://www.imdb.com/title/tt0436721
7 ^( A( B6 D$ ~3 ]) U8 Y( ^; |/ y# v
日日夜夜的剧情简介  ·  ·  ·  ·  ·  ·
0 e  o. w+ G3 G5 N" c$ s5 @% ~  黄河中部某煤矿。矿工广生(刘磊 饰)与师父日日下井,暗中却与师母(王澜 饰)维持着关系,师父胖大的傻儿子阿福(肖明 饰)与一头毛驴感情甚笃,即便撞破了广生与母亲之事也不明就里。不久矿山发生事故,师父生死,广生为自己本可救出师父却选择独自逃生而深深自责,他终止了同师母的关系,劝其离开。广生将残破的煤矿承包独自经营,阿福返回煤矿一同劳动。随着煤矿的经营转入正轨,广生的经济状况有所好转,他向师父的幻影承诺:为阿福找到媳妇儿。相亲的姑娘们络绎不绝的来到矿上,广生在小店的按摩房里邂逅了背井离乡的红梅,他克制自己对红梅的爱意将她许配给了阿福…… ©豆瓣
  1. Video
    - m; a  N3 d1 x$ Y/ t
  2. ID                          : 1% b  M/ e- T, V- A
  3. Format                      : AVC
    ' v/ {/ W3 |/ |* `3 z
  4. Format/Info                 : Advanced Video Codec/ }/ m$ X* |. _' f- B
  5. Format profile              : [email protected]
    " @' T3 s4 n+ @- U% x. s2 D' d
  6. Format settings, CABAC      : Yes& P5 J# O( i4 F0 N2 |4 a8 U' h" v
  7. Format settings, ReFrames   : 16 frames- i4 E% r) C8 Q; x' z
  8. Codec ID                    : V_MPEG4/ISO/AVC
    $ @! Y) }  |6 B7 ^4 K) z
  9. Duration                    : 1h 29mn
    & G* t! M0 }. |0 B! ]
  10. Bit rate                    : 2 115 Kbps
    3 U$ M( s* f; ?  |9 @& v( Y
  11. Width                       : 720 pixels5 X6 k- D- G: A' B
  12. Height                      : 404 pixels7 G+ L! p6 z" {, }, Y
  13. Display aspect ratio        : 16:95 s/ g- @' u+ ?! k6 {
  14. Frame rate mode             : Constant9 O0 Z/ u& i$ Y$ w% o5 @9 Q: X+ M+ Z
  15. Frame rate                  : 23.976 fps  ^4 N4 L* Y$ t3 e( n. m0 M$ N# R
  16. Color space                 : YUV1 \2 e+ q7 }7 {9 S' u
  17. Chroma subsampling          : 4:2:0  u1 G; B7 e0 I& n" f  L
  18. Bit depth                   : 8 bits
    # n5 ^" [: W- S9 f9 D; K7 R$ \( m
  19. Scan type                   : Progressive
    7 I/ R1 s$ S9 W$ G( K. K
  20. Bits/(Pixel*Frame)          : 0.303  J: _/ Y0 l- ?4 E. V- S
  21. Stream size                 : 1.29 GiB (88%)
    2 p4 }" G2 G" T) I$ U
  22. Writing library             : x264 core 144 r2525 40bb568
    ) ~/ h" p$ ^" l) I
  23. Encoding settings           : cabac=1 / ref=16 / deblock=1:0:0 / analyse=0x3:0x133 / me=umh / subme=10 / psy=1 / psy_rd=1.00:0.00 / mixed_ref=1 / me_range=24 / chroma_me=1 / trellis=2 / 8x8dct=1 / cqm=0 / deadzone=21,11 / fast_pskip=1 / chroma_qp_offset=-2 / threads=6 / lookahead_threads=1 / sliced_threads=0 / nr=0 / decimate=1 / interlaced=0 / bluray_compat=0 / constrained_intra=0 / bframes=8 / b_pyramid=2 / b_adapt=2 / b_bias=0 / direct=3 / weightb=1 / open_gop=0 / weightp=2 / keyint=240 / keyint_min=23 / scenecut=40 / intra_refresh=0 / rc_lookahead=60 / rc=2pass / mbtree=1 / bitrate=2115 / ratetol=1.0 / qcomp=0.60 / qpmin=0 / qpmax=69 / qpstep=4 / cplxblur=20.0 / qblur=0.5 / vbv_maxrate=62500 / vbv_bufsize=78125 / nal_hrd=none / filler=0 / ip_ratio=1.40 / aq=1:1.00
    % q) R( ?; d! C4 M4 h  k
  24. Language                    : Chinese
    ; s% S( I/ |' C  T8 X/ C
  25. Default                     : Yes
    2 ^: d- A+ g0 m/ w9 ]
  26. Forced                      : No
    " ^" A" |% H( i  H( r6 k3 M# d# g: o) ]

  27. $ n9 Q- Z. D2 \3 V. K
  28. Audio& K! S2 r1 u- x/ G6 u* R
  29. ID                          : 2; k* q" O# l) E9 A
  30. Format                      : AC-3" J, ^( W9 q+ z2 y9 P$ A
  31. Format/Info                 : Audio Coding 36 H% d6 ^* M" Z& s3 v
  32. Mode extension              : CM (complete main), c9 ]2 e5 v  N+ n/ ~8 L  K5 Y* c
  33. Format settings, Endianness : Big
    - y* i) n: U+ c
  34. Codec ID                    : A_AC3
    ( k' E8 s3 C" q' L2 t) U" k7 u8 a
  35. Duration                    : 1h 29mn+ C  H# w( Z& l
  36. Bit rate mode               : Constant
    # _2 s2 J; I8 Y. }4 h8 R4 z# K
  37. Bit rate                    : 224 Kbps
    $ \1 T! B- j0 T) Z
  38. Channel(s)                  : 2 channels' k* k/ `4 ~" l% s3 q& C8 N. R9 H+ H
  39. Channel positions           : Front: L R. a# {/ j8 N9 K+ T
  40. Sampling rate               : 48.0 KHz8 ^8 B( q0 h1 n9 z; I
  41. Bit depth                   : 16 bits$ z% J5 J1 _0 ^
  42. Compression mode            : Lossy* U# u8 e& O" @* G
  43. Stream size                 : 143 MiB (10%)
    7 w: [  U5 s. c# M! v" e# G8 |1 c
  44. Language                    : Chinese; ?: Z8 j0 d  N# j9 h) j
  45. Default                     : Yes
    6 F9 y. t7 G5 y2 H- R
  46. Forced                      : No
    : S! @6 i% \. z6 B- d! Z

  47. 9 I7 p! K' S' \' W3 _, {: A
  48. Menu
    5 U* K! g: @& {2 s: J  `; G1 R
  49. 00:00:00.000                : zh:Chapter 01
    - y0 B3 b* R6 T
  50. 00:13:37.100                : zh:Chapter 02
      ?! T. f* g; u. e7 b
  51. 00:26:05.834                : zh:Chapter 03/ y; S! v! E7 ]- l0 H% i+ E' U( U
  52. 00:40:41.702                : zh:Chapter 04* @: N5 z& H4 Z3 I2 S/ \
  53. 00:55:42.436                : zh:Chapter 05+ F( ^& f4 E0 I: X" T2 ?
  54. 01:06:24.003                : zh:Chapter 060 _7 ~' p5 M0 }3 y
  55. 01:19:23.170                : zh:Chapter 077 p  S- O/ ^: Z0 w7 K# E
  56. 01:25:55.437                : zh:Chapter 083 J$ m* u* \* m  O
  57. 01:29:05.305                : zh:Chapter 09
复制代码
郑重声明:
& a/ ]. U' F4 y; Q) t本站提供的所有影视作品均是在网上搜集任何涉及商业盈利目的均不得使用,否则产生的一切后果将由您自己承担!本站将不对本站的任何内容负任何法律责任!该下载内容仅做宽带测试使用,请在下载后24小时内删除。请购买正版!
/ b% J2 U1 t+ f+ W6 h% ]; F
; j" W- V, c3 g2 e& [4 g4 Q4 V* u
3lgJ1.jpg 8 k, v; r. D( W, A* M" z: G9 Y1 ~, q
dDZPu.jpg
6 Y: V8 b0 ~! T EG9kV.jpg
" S0 a9 ?6 T6 b' q G2Sv3.jpg + e: N/ t: p: r7 ?1 m  F  M
u8P6h.jpg   u1 {2 e' H2 o5 C6 i9 \

9 k, e) l2 |$ }! q4 T7 y115网盘:# _( F: |5 S! B& ^9 B

+ F( V% X7 E8 M4 b- b
游客,如果您要查看本帖隐藏内容请回复  捐助论坛可免回复查看隐藏内容 详情请点击
最近访问 头像模式 列表模式
HD一条街,身边的一条街。
头像被屏蔽
发表于 2015-2-8 22:57:44 | 显示全部楼层
提示: 作者被禁止或删除 内容自动屏蔽
HD一条街,身边的一条街。
ddna 该用户已被删除
发表于 2015-2-9 01:35:14 | 显示全部楼层
提示: 作者被禁止或删除 内容自动屏蔽
HD一条街,身边的一条街。
发表于 2015-2-9 11:41:59 | 显示全部楼层
好像没看过这个电影!
HD一条街,身边的一条街。
LEON1116 该用户已被删除
发表于 2015-2-9 15:42:07 | 显示全部楼层
提示: 作者被禁止或删除 内容自动屏蔽
HD一条街,身边的一条街。
发表于 2015-2-9 22:51:20 | 显示全部楼层
怎么要会员才能下载
HD一条街,身边的一条街。
发表于 2015-2-10 09:14:39 | 显示全部楼层
这东西我收了!谢谢楼主!
HD一条街,身边的一条街。
发表于 2015-2-10 10:44:48 | 显示全部楼层
为什么是网盘呢啊,为什么点回复没反映啊
HD一条街,身边的一条街。
发表于 2015-3-20 15:33:48 | 显示全部楼层
感谢楼主分享。
HD一条街,身边的一条街。
发表于 2015-3-30 14:28:04 | 显示全部楼层
既然你诚信诚意的推荐了,那我就勉为其难的看看吧!
HD一条街,身边的一条街。

手机版|小黑屋|有问题发邮件到admin#(换成@)hd1tj.org|微博|免责申明|HD一条街

GMT+8, 2017-4-28 20:03

Powered by Discuz! X3.1

© 2001-2013 Comsenz Inc.

快速回复 返回顶部 返回列表