HD一条街

 找回密码
 立即注册
搜索
查看: 1305|回复: 34

[日韩] 第16届中韩歌会 141214 KBS 16th Korea-China Music Festival.HDTV.H264.720p-HEAD 2.06G

[复制链接]
发表于 2014-12-17 19:44:58 | 显示全部楼层 |阅读模式

马上注册,结交更多好友,享用更多功能,让你轻松玩转社区。

您需要 登录 才可以下载或查看,没有帐号?立即注册

x
i79Ho.png 9 x+ u4 r3 [) y

, a$ k1 Y( t# S' R9 JGeneral
. A" Q, b. B# U0 Z7 y5 C& DFormat                                   : AVI
" p! o+ j% n) iFormat/Info                              : Audio Video Interleave" W7 L+ g5 Q9 S4 j
Format profile                           : OpenDML
9 H0 Q! V  \' g# m( z% `File size                                : 2.06 GiB! p$ X0 [) S/ F  f9 J: a
Duration                                 : 1h 48mn
8 D/ t5 `. r- x* A8 q8 C+ I/ q$ K% kOverall bit rate                         : 2 708 Kbps
- j# ^3 S& p; k( D% n) rWriting application                      : PotEncoder
! @5 j8 C4 g! w! h: x5 @7 G' `* ~) E% V
Video, d. W( p1 h, ?4 |. }  j* R
ID                                       : 04 ^" O; b$ J0 x2 z9 {1 \
Format                                   : AVC
: x# r1 L. b. J0 AFormat/Info                              : Advanced Video Codec: x- S# D4 y& Z! y! B& i4 J
Format profile                           : High@L4.13 f' E1 u& t: Y6 d* R! w. }% T
Format settings, CABAC                   : Yes
$ @- V/ V5 y( a1 J5 ?3 K$ B9 N- SFormat settings, ReFrames                : 2 frames$ z  R! T4 D$ g' i5 `4 D, g( j, l
Codec ID                                 : H264" l6 }0 }* y! x1 ]7 f
Duration                                 : 1h 48mn, T% [  H" \; |
Bit rate                                 : 2 502 Kbps
6 I/ M* `, M, g( [$ {Width                                    : 1 280 pixels. m* E  |1 c6 h( N* S0 B
Height                                   : 720 pixels2 B/ _# Z6 [' l; t+ @7 K$ d
Display aspect ratio                     : 16:93 O+ f" }' V+ Z3 u# u
Frame rate mode                          : Variable
% q2 G5 o  i5 G* g2 lFrame rate                               : 29.970 fps! B( Z. [' f& q- `. k
Color space                              : YUV: c" u0 w& w9 R2 e" k1 p0 I) {
Chroma subsampling                       : 4:2:07 O2 y5 _9 J3 t  S: f0 y- t
Bit depth                                : 8 bits
, r5 B: w5 d" [% HScan type                                : Progressive! ]2 `" ]$ F! M- B% k
Bits/(Pixel*Frame)                       : 0.091) p4 ^8 w  d6 V' O3 {
Stream size                              : 1.90 GiB (92%)
% Q1 r( E9 f$ s2 p8 K% e* O/ s3 Y7 P5 V4 a4 I
Audio4 T5 M) b% `) _. ^6 f" F2 n
ID                                       : 1- D4 K0 v/ y) L% x, j) T  N" Y
Format                                   : MPEG Audio
0 Z4 I- {9 ]6 [8 C% Z/ F' I% NFormat version                           : Version 1( O& Z0 p3 F# _! ?" S
Format profile                           : Layer 3
/ r% g' Q6 S+ S4 Y) S% d. xMode                                     : Joint stereo
- s! C3 F- H2 t3 K9 S3 p. b) a% q' KMode extension                           : MS Stereo
$ z2 N6 x' |9 rCodec ID                                 : 55
7 I, S, |9 x: `- i: QCodec ID/Hint                            : MP3
$ _1 c6 u3 S5 YDuration                                 : 1h 48mn
) \5 s1 \3 Q& N* S+ o4 X1 ?; vBit rate mode                            : Constant
, b# ~3 B# q& p, bBit rate                                 : 192 Kbps5 v' [. v  x0 R6 c- k- K
Channel(s)                               : 2 channels6 s3 q8 v1 ?$ g6 T, w, n: O
Sampling rate                            : 48.0 KHz4 x1 Q, Q8 j- a! y! k
Compression mode                         : Lossy
" x2 F9 d8 T2 v" UStream size                              : 149 MiB (7%)
7 S2 u, O8 ?& Y% U4 o5 ^Alignment                                : Aligned on interleaves* R/ V. X% q5 d3 H& l! Q
Interleave, duration                     : 24 ms (0.72 video frame)
, ~- Y! |! L( HWriting library                          : LAME3.98.2, ?5 P4 U/ ?4 c7 |$ ~
6 f/ }' {7 _: {0 l7 ]
cQRal.png " m& v  @# g7 c7 x' v) ?6 {
1 I! A' L% P9 z& a9 G3 U
FMiKm.png
" L% o8 r+ O5 H
# [' u. g) W! w: l9 q
游客,如果您要查看本帖隐藏内容请回复  VIP可免回复查看隐藏内容 详情请点击
发表于 2014-12-17 20:44:39 | 显示全部楼层
不错,又占了一个沙发!
发表于 2014-12-17 20:54:12 | 显示全部楼层
为了维护HD一条街的和平,我必须打满这些字,拒绝灌水,拒绝广告,争做论坛良好公民!
发表于 2014-12-17 21:48:15 | 显示全部楼层
看了LZ的帖子,我只想说一句很好很强大!
jacky001 该用户已被删除
发表于 2014-12-17 22:14:08 | 显示全部楼层
提示: 作者被禁止或删除 内容自动屏蔽
kai058 该用户已被删除
发表于 2014-12-17 22:34:58 | 显示全部楼层
提示: 作者被禁止或删除 内容自动屏蔽
发表于 2014-12-17 23:18:32 | 显示全部楼层
啥也不说了,楼主就是给力!
user03151 该用户已被删除
发表于 2014-12-17 23:22:32 | 显示全部楼层
提示: 作者被禁止或删除 内容自动屏蔽
发表于 2014-12-18 06:21:57 | 显示全部楼层
值得收藏 谢谢楼主的分享。
lok少 该用户已被删除
发表于 2014-12-18 10:18:32 | 显示全部楼层
提示: 作者被禁止或删除 内容自动屏蔽
您需要登录后才可以回帖 登录 | 立即注册

本版积分规则

QQ|封号公示|有问题发邮件到admin#(换成@)hd1tj.org|微博|免责申明|HD一条街

GMT+8, 2021-4-17 21:43

快速回复 返回顶部 返回列表