HD一条街

 找回密码
 立即注册
搜索
查看: 1363|回复: 30

[内地] 浙江卫视 中国好声音 2014年 第三季 全季 ZJTV The Voice of China S03 720p HDTV x264-HDWTV 52.41G

[复制链接]
发表于 2014-10-10 18:44:57 | 显示全部楼层 |阅读模式

                               
登录/注册后可看大图


中文名称  中国好声音第三季
外文名称  The Voice of China(The third season)
节目类型  励志音乐评论类真人秀
导  演  金磊
播出时间  7月18日起每周五21:10
好声音导师 那英,汪峰,杨坤,齐秦

  《中国好声音(The Voice of China)》是由浙江卫视联合星空传媒旗下灿星制作强力打造的大型励志专业音乐评论节目,源于荷兰一著名电视节目《The Voice of Holland》。

  2014年6月10日星空传媒-第三季中国好声音导师发布会在北京举行,最终第三季好声音导师汪峰、那英、杨坤、齐秦亮相。第三季《中国好声音》仍然将在浙江卫视播出,将于2014年7月18日播出。


                               
登录/注册后可看大图


Quote:
General
Unique ID                      : 205986260247819622073137097405056138822 (0x9AF782BB8E12CF288ACD5E959F43BE46)
Complete name                  : D:\PT\ZJTV.The.Voice.of.China.S03.720p.HDTV.x264-HDWTV\ZJTV.The.Voice.of.China.S03E12.20140926.RePack.720p.HDTV.x264-HDWTV.mkv
Format                         : Matroska
Format version                 : Version 2
File size                      : 3.28 GiB
Duration                       : 1h 41mn
Overall bit rate               : 4 634 Kbps
Movie name                     : Encoded By HDWTV Team
Encoded date                   : UTC 2014-09-28 02:21:49
Writing application            : mkvmerge v3.3.0 (‘Language‘) built on Mar 24 2010 14:59:24
Writing library                : libebml v0.8.0 + libmatroska v0.9.0

Video
ID                             : 1
Format                         : AVC
Format/Info                    : Advanced Video Codec
Format profile                 : High@L3.1
Format settings, CABAC         : Yes
Format settings, ReFrames      : 5 frames
Codec ID                       : V_MPEG4/ISO/AVC
Duration                       : 1h 41mn
Bit rate                       : 4 184 Kbps
Width                          : 1 280 pixels
Height                         : 720 pixels
Display aspect ratio           : 16:9
Frame rate mode                : Constant
Frame rate                     : 25.000 fps
Color space                    : YUV
Chroma subsampling             : 4:2:0
Bit depth                      : 8 bits
Scan type                      : Progressive
Bits/(Pixel*Frame)             : 0.182
Stream size                    : 2.89 GiB (88%)
Title                          : noldlearn@HDWTV
Writing library                : x264 core 133 r2334 a3ac64b
Encoding settings              : cabac=1 / ref=5 / deblock=1:-3:-3 / analyse=0x3:0x113 / me=umh / subme=7 / psy=1 / psy_rd=1.00:0.00 / mixed_ref=1 / me_range=16 / chroma_me=1 / trellis=1 / 8x8dct=1 / cqm=0 / deadzone=21,11 / fast_pskip=0 / chroma_qp_offset=-2 / threads=6 / lookahead_threads=1 / sliced_threads=0 / nr=0 / decimate=0 / interlaced=0 / bluray_compat=0 / constrained_intra=0 / bframes=6 / b_pyramid=2 / b_adapt=1 / b_bias=0 / direct=3 / weightb=1 / open_gop=0 / weightp=2 / keyint=250 / keyint_min=25 / scenecut=40 / intra_refresh=0 / rc_lookahead=40 / rc=2pass / mbtree=1 / bitrate=4184 / ratetol=1.0 / qcomp=0.60 / qpmin=0 / qpmax=69 / qpstep=4 / cplxblur=20.0 / qblur=0.5 / vbv_maxrate=14000 / vbv_bufsize=14000 / nal_hrd=none / ip_ratio=1.40 / aq=1:1.00
Language                       : Chinese
Default                        : Yes
Forced                         : No

Audio
ID                             : 2
Format                         : AC-3
Format/Info                    : Audio Coding 3
Mode extension                 : CM (complete main)
Format settings, Endianness    : Big
Codec ID                       : A_AC3
Duration                       : 1h 41mn
Bit rate mode                  : Constant
Bit rate                       : 448 Kbps
Channel(s)                     : 2 channels
Channel positions              : Front: L R
Sampling rate                  : 48.0 KHz
Bit depth                      : 16 bits
Compression mode               : Lossy
Delay relative to video        : 62ms
Stream size                    : 324 MiB (10%)
Title                          : Mandarin
Language                       : Chinese
Default                        : Yes
Forced                         : No




115网盘:
购买主题 已有 26 人购买  本主题需向作者支付 20 金币 才能浏览 VIP+用户组可免费查看,详情请点击
ynot333 该用户已被删除
发表于 2014-10-10 19:29:47 | 显示全部楼层
提示: 作者被禁止或删除 内容自动屏蔽
Neofalcon 该用户已被删除
发表于 2014-10-10 21:06:48 | 显示全部楼层
提示: 作者被禁止或删除 内容自动屏蔽
a7679 该用户已被删除
发表于 2014-10-11 00:09:51 | 显示全部楼层
提示: 作者被禁止或删除 内容自动屏蔽
人生挫折鸡 该用户已被删除
发表于 2014-10-11 02:44:34 | 显示全部楼层
提示: 作者被禁止或删除 内容自动屏蔽
xmwujc 该用户已被删除
发表于 2014-10-11 09:39:31 | 显示全部楼层
提示: 作者被禁止或删除 内容自动屏蔽
xmwujc 该用户已被删除
发表于 2014-10-11 09:45:55 | 显示全部楼层
提示: 作者被禁止或删除 内容自动屏蔽
风之舞者 该用户已被删除
发表于 2014-10-11 11:20:23 | 显示全部楼层
提示: 作者被禁止或删除 内容自动屏蔽
memosel 该用户已被删除
发表于 2014-10-11 13:48:38 | 显示全部楼层
提示: 作者被禁止或删除 内容自动屏蔽
lingding 该用户已被删除
发表于 2014-10-11 19:13:59 | 显示全部楼层
提示: 作者被禁止或删除 内容自动屏蔽
您需要登录后才可以回帖 登录 | 立即注册

本版积分规则

QQ|封号公示|有问题发邮件到admin#(换成@)hd1tj.org|微博|免责申明|HD一条街

GMT+8, 2021-4-17 22:40

快速回复 返回顶部 返回列表