开启辅助访问 切换到窄版

HD一条街论坛

 找回密码
 立即注册
查看: 485|回复: 31

[其它] 超时空要爱[国粤双语 中英字幕]Timeless.Romance.1998.2Audio.DVDRip.XVID.AC3.iNT-HKDY 1.36G

[复制链接]
发表于 2014-9-25 23:09:41 | 显示全部楼层 |阅读模式
本帖最后由 让心灵去旅行 于 2014-9-25 23:11 编辑
$ {. k' h" D* U% B- A4 b* K. `7 k$ u" X( X7 O) d9 r) c! [
TjoUy.jpg
6 s1 ^' @1 {" u% T' X6 l. Z  \/ |+ R/ P, R' w  @4 l

1 W( b2 o+ m5 a! d5 h导演: 黎大炜
, m1 k2 d4 j3 R! Z1 M1 g4 L/ w: B编剧: 刘镇伟% |- J" B% V# ^. V  n0 z
主演: 梁朝伟 / 李绮虹 / 刘以达 / 林尚义 / 赵银淑 / 八两金 / 李枫
1 l( B" t4 B7 K8 C7 S类型: 喜剧 / 动作 / 犯罪 / 奇幻& a1 K, P" F/ L# @6 P
制片国家/地区: 香港
8 M/ q0 |$ ^2 A  K2 }语言: 粤语/国语* c/ X7 p9 a) w5 k0 f
上映日期: 1998-03-05(香港), K3 I; y0 Z0 d( U9 r3 w5 E
片长: 95分钟
$ t7 Z3 F5 G+ _) @' Y' s* b+ ]又名: Timeless Romance / Chiu si hung yiu oi / Beyond Time Space Want Love. Z# o$ I. E1 p( o
IMDb链接: http://www.imdb.com/title/tt01635817 E- l" \4 m" l

6 x! `8 r: g6 T9 {: r6 o# j7 [
: p, \2 k) K) H# S超时空要爱的剧情简介  ·  ·  ·  ·  ·  ·" N4 `3 ?! m, Y  i
  警察刘一路(梁朝伟饰)某天在路上突然接到一个电话,告诉他千万要劝阻“那个”女孩自杀,因为女孩的生死会成为他人生的转折点。刘一路对这通电话感到莫名无比,而就在这时,两个流氓Gigi(李绮虹饰)大飞(刘以达饰)在街上枪战,刘一路喉部误中大飞子弹。
% w+ J( c; D9 @1 w  被送到医院抢救后,刘一路灵魂出窍,遇上了一个身无寸缕的少女,一番言语后,刘一路却突然重返人间,但刚才的少女已经躺在他身边死了。刘回想起之前的奇怪电话,突然觉得这也许就是上帝的启示,于是,他决定仔细调查少女的死因。
; u5 i/ O5 _% s  原来,少女是被富豪曹强奸后割腕自杀,而重要的证人Gigi和大飞也欲为富豪所灭口,开始了逃亡生涯。刘一路为了追随两人,居然回到了三国时代?
  1. Format                                   : AVI2 z  V' C( I' m
  2. Format/Info                              : Audio Video Interleave& a2 Y8 q$ F+ H0 |0 B" I  H7 b4 \( y
  3. File size                                : 1.36 GiB
      _0 i5 n4 z, I! u5 q( C# R
  4. Duration                                 : 1h 34mn6 D0 w4 K! d$ b; U; T) ]; i
  5. Overall bit rate                         : 2 060 Kbps" V; e, ~% J' u
  6. Writing application                      : VirtualDubMod 1.5.10.2 (build 2540/release)
    / h) Y2 R3 p: }8 D0 A0 U
  7. Writing library                          : VirtualDubMod build 2540/release
    ) ^6 R0 z1 X: w* o

  8. 7 l  j9 q1 t* P2 \% z' e. }1 G! J
  9. Video
    4 e0 o: Y9 x/ l6 \* V3 f4 t
  10. ID                                       : 0  Q+ ?) }: w6 u( |( x. d
  11. Format                                   : MPEG-4 Visual
    ) R1 {) L4 Q. t4 {3 I7 W
  12. Format profile                           : Advanced [email protected]% t- \) J; e; ^1 U! l$ o
  13. Format settings, BVOP                    : 2
    ) C2 v4 U' g3 y4 y. S7 J2 U) U
  14. Format settings, QPel                    : No+ H; ~! h& `+ W5 N* ?8 S- d
  15. Format settings, GMC                     : No warppoints5 T# v0 M0 u. G. \' D+ @
  16. Format settings, Matrix                  : Default (H.263)
    ( E& p5 w+ m1 U4 V. v+ ]
  17. Muxing mode                              : Packed bitstream
    5 h% R) i! p; O, j* d* ^
  18. Codec ID                                 : XVID$ t6 Y5 ~! c" f) p6 Y( _
  19. Codec ID/Hint                            : XviD
    3 W- C' D9 O) G: Q
  20. Duration                                 : 1h 34mn
    + ^$ W& c/ Y5 V  u
  21. Bit rate                                 : 1 470 Kbps: h$ n2 V% z. [
  22. Width                                    : 640 pixels4 Z. a) w7 ^  _( i2 d, t2 T/ p
  23. Height                                   : 352 pixels3 v! G3 x* @- x
  24. Display aspect ratio                     : 16:9
    * c/ @' a  q# K: ?5 a& P) b/ |
  25. Frame rate                               : 23.976 fps" ]$ g: B/ |  g- e0 g
  26. Color space                              : YUV" @3 Z7 w! ^9 [, A# h3 W5 A! A
  27. Chroma subsampling                       : 4:2:0; A2 s* _2 {' c/ @" Q3 w. ?
  28. Bit depth                                : 8 bits
    8 H+ `- C+ D: [. w; j) d
  29. Scan type                                : Progressive
    + s: y9 `' j  ]6 T" n* |
  30. Compression mode                         : Lossy: s# Z7 S1 f9 Z) e" i
  31. Bits/(Pixel*Frame)                       : 0.272# W; N% ~' U) }% W, K9 V
  32. Stream size                              : 997 MiB (71%)6 J! l) T  R. R8 W9 H5 Y
  33. Writing library                          : XviD 1.2.1 (UTC 2008-12-04)
    ! u. [7 H/ V3 b# C/ p' y
  34. 7 p( r% C, w/ O1 w" {
  35. Audio #1
    % H0 k% g! Y5 V% D$ H0 O
  36. ID                                       : 1
    6 ]; t8 m/ e2 Q, R1 Y- L
  37. Format                                   : AC-3$ w( B6 o9 W' A! G: y( H
  38. Format/Info                              : Audio Coding 3
    $ T' d& z: n. ?; N+ ~
  39. Mode extension                           : CM (complete main)
    9 z8 z; q/ p/ F9 U
  40. Format settings, Endianness              : Big+ k1 C" l, {2 o5 ]# Y# p" E8 g
  41. Codec ID                                 : 20006 e' n9 P: e1 w+ k4 |
  42. Duration                                 : 1h 34mn5 l; r5 `+ v/ P* y' c/ H4 V
  43. Bit rate mode                            : Constant7 Y( I- e$ x5 N6 ~& b  a+ {
  44. Bit rate                                 : 384 Kbps
    , J  u! q  Y; \8 D, ]7 f
  45. Channel(s)                               : 3 channels
    7 q: b, y. \4 y3 o- N
  46. Channel positions                        : Front: L R, LFE* t  T6 P$ s: Y- h
  47. Sampling rate                            : 48.0 KHz) H. r+ a, W' ]9 m+ U. B3 ]+ U* {/ b2 P
  48. Bit depth                                : 16 bits/ B0 d" s: V# x( J+ V5 A
  49. Compression mode                         : Lossy/ ?* c# K: V0 h4 ?' Y+ `
  50. Stream size                              : 260 MiB (19%)7 R% d6 D5 O5 q3 ~* q; [( g
  51. Alignment                                : Split accross interleaves
    * Z+ ^+ j8 i5 n8 E( [$ p; N3 G$ A& V
  52. Interleave, duration                     : 42 ms (1.00 video frame)
    8 E; d) \! @- w0 U" H( r5 y) B
  53. Interleave, preload duration             : 500 ms
    $ O' P, @7 l) G
  54. ! q. a$ a0 m4 g) B  x7 W& @2 T+ V
  55. Audio #25 g# M3 o: I- T; K0 ^( O
  56. ID                                       : 2; _2 p& c( ]/ O
  57. Format                                   : AC-3! k5 L/ a; t! H# m
  58. Format/Info                              : Audio Coding 3# s0 {5 c; L! [0 t' R
  59. Mode extension                           : CM (complete main)" T+ P% \6 s+ }5 s( o' }' B
  60. Format settings, Endianness              : Big
    + t& `# g& B0 C9 l% k' e- J, c1 M. g
  61. Codec ID                                 : 2000  j3 I1 i- N5 C2 z! x; {) r. Y3 C
  62. Duration                                 : 1h 34mn
    $ Z2 E  z; Y% A- w) [+ ~( P
  63. Bit rate mode                            : Constant/ p" `: z8 q7 t. W. M7 U$ c+ o
  64. Bit rate                                 : 192 Kbps, g5 z' }" q, q' H* ^
  65. Channel(s)                               : 3 channels
    - t3 _* u5 [1 d
  66. Channel positions                        : Front: L R,   Side: C6 Y* K5 I; Z6 l9 i2 M0 W
  67. Sampling rate                            : 48.0 KHz  r4 k( y+ N0 y0 z1 z
  68. Bit depth                                : 16 bits8 I  d9 }; j, t; e
  69. Compression mode                         : Lossy3 {/ o- Z. _2 O4 G; A5 t$ n2 u
  70. Stream size                              : 130 MiB (9%)( Z* R8 R; z2 h6 ?. q, w# H5 f
  71. Alignment                                : Split accross interleaves
    7 j9 m+ Y4 p3 ^- ?/ r. ~1 I& W
  72. Interleave, duration                     : 42 ms (1.00 video frame)' [0 F3 ^/ f( R5 g% m9 I) T
  73. Interleave, preload duration             : 500 ms
复制代码

+ d) |- F4 w7 G# O. P" {7 j7 I! m& k) K4 M( i4 @7 ~. ]

" v6 Y$ m& s& E 4sdIi.png
3 i& C) o6 |! ~0 J$ K 8GIjK.png
! G) p, q) Z5 l( A& W; H2 [% P& Q 9saLm.png ( E' w/ o5 u4 Q' f, M( |: z) V
iETIq.png
" v1 f" W# h) Q- K JBhaF.png ) v3 _% S; i7 {+ N$ @$ \
KXiDB.png 5 [! z4 y$ c" k- a
mLPt5.png
' [( n! J7 h: [! p& C( a pk87O.png 0 w5 ]3 d1 u* V5 K/ v" U: T) ~
publ.png
0 n" S& j5 N3 K' T& ]% X% ~4 i9 E SK0bc.png , D% W' M! z' G1 w' \. E
vwDqK.png / R  n0 ?3 d( X2 ]) {
XajK.png # e. t$ ?) b/ u$ G& u+ k9 ^- I5 R5 Y
Y2HcE.png
, Y5 S6 ]9 c/ O* r  _
5 C+ E- u3 H7 ?* b- z! Y/ N5 T5 n% B& ?( Y6 {% S1 o
游客,如果您要查看本帖隐藏内容请回复  捐助论坛可免回复查看隐藏内容详情请点击

) Z' a3 b) i# Y/ b1 ?  Q' [6 Z
中英字幕
; ^* W) v, j( @% c& J- H3 E
" I/ I: @+ |9 x9 e$ H8 L
游客,如果您要查看本帖隐藏内容请回复  捐助论坛可免回复查看隐藏内容详情请点击
最近访问 头像模式 列表模式
HD一条街,身边的一条街。
发表于 2014-9-25 23:36:10 | 显示全部楼层
不错,又占了一个沙发!
HD一条街,身边的一条街。
发表于 2014-9-25 23:39:38 | 显示全部楼层
为了维护HD一条街的和平,我必须打满这些字,拒绝灌水,拒绝广告,争做论坛良好公民!
HD一条街,身边的一条街。
发表于 2014-9-25 23:47:06 | 显示全部楼层
啥也不说了,楼主就是给力!
HD一条街,身边的一条街。
发表于 2014-9-26 00:09:08 | 显示全部楼层
为了维护HD一条街的和平,我必须打满这些字,拒绝灌水,拒绝广告,争做论坛良好公民!
HD一条街,身边的一条街。
发表于 2014-9-26 00:30:59 | 显示全部楼层
影视资源尽在HD一条街中, 哦也!
HD一条街,身边的一条街。
发表于 2014-9-26 00:42:36 | 显示全部楼层
多谢版主分享好电影,喜欢的类型
HD一条街,身边的一条街。
发表于 2014-9-26 01:22:15 | 显示全部楼层
看了LZ的帖子,我只想说一句很好很强大!
HD一条街,身边的一条街。
tkphilip 该用户已被删除
发表于 2014-9-26 01:41:30 | 显示全部楼层
提示: 作者被禁止或删除 内容自动屏蔽
HD一条街,身边的一条街。
发表于 2014-9-26 02:12:36 | 显示全部楼层
貌似是值得支持的好东西
HD一条街,身边的一条街。
您需要登录后才可以回帖 登录 | 立即注册

本版积分规则

手机版|小黑屋|有问题发邮件到admin#(换成@)hd1tj.org|微博|免责申明|HD一条街

GMT+8, 2016-12-9 08:00

Powered by Discuz! X3.1

© 2001-2013 Comsenz Inc.

快速回复 返回顶部 返回列表