开启辅助访问 切换到窄版

HD一条街论坛

 找回密码
 加入我们
查看: 520|回复: 31

[其它] 超时空要爱[国粤双语 中英字幕]Timeless.Romance.1998.2Audio.DVDRip.XVID.AC3.iNT-HKDY 1.36G

[复制链接]
发表于 2014-9-25 23:09:41 | 显示全部楼层 |阅读模式
本帖最后由 让心灵去旅行 于 2014-9-25 23:11 编辑
+ i- t- o2 D* |& U- s3 a! J+ b& p5 a- l: j* V& ~
TjoUy.jpg - ~7 N* P" p' N; z: P
+ N. i2 ~1 a' o
9 |2 m: B# E/ x; _/ a
导演: 黎大炜( R  b* }: }, h7 q( f) W# b
编剧: 刘镇伟3 L4 j: }& |6 {- P% N# l: J
主演: 梁朝伟 / 李绮虹 / 刘以达 / 林尚义 / 赵银淑 / 八两金 / 李枫& F* P; C8 R" w! S/ T- _1 ~; E1 X# W
类型: 喜剧 / 动作 / 犯罪 / 奇幻" l, v4 ~2 g* S$ B3 V1 G; Q. l
制片国家/地区: 香港
0 _- Z1 w/ y/ \4 P4 Y& _- c语言: 粤语/国语" g9 @% b+ U) }# _$ N/ Q" J
上映日期: 1998-03-05(香港)$ x6 ~: [9 `9 [. W1 v
片长: 95分钟. f6 w; W) q" W7 E8 Q5 a$ v! l
又名: Timeless Romance / Chiu si hung yiu oi / Beyond Time Space Want Love
$ Z$ I8 L: ~2 _* MIMDb链接: http://www.imdb.com/title/tt0163581
1 z; n/ `5 V2 w) W% P1 H1 j3 L+ [! m2 C3 {4 g5 V# e+ ]5 }4 z
5 y9 ^  \' W+ b, p& |8 I* x* \
超时空要爱的剧情简介  ·  ·  ·  ·  ·  ·
5 {8 i2 S% X3 C  警察刘一路(梁朝伟饰)某天在路上突然接到一个电话,告诉他千万要劝阻“那个”女孩自杀,因为女孩的生死会成为他人生的转折点。刘一路对这通电话感到莫名无比,而就在这时,两个流氓Gigi(李绮虹饰)大飞(刘以达饰)在街上枪战,刘一路喉部误中大飞子弹。 ( ~' e, j: L6 F9 p* b* ~2 n8 X
  被送到医院抢救后,刘一路灵魂出窍,遇上了一个身无寸缕的少女,一番言语后,刘一路却突然重返人间,但刚才的少女已经躺在他身边死了。刘回想起之前的奇怪电话,突然觉得这也许就是上帝的启示,于是,他决定仔细调查少女的死因。
; j, d  I" B6 u) y( Z- H4 z  原来,少女是被富豪曹强奸后割腕自杀,而重要的证人Gigi和大飞也欲为富豪所灭口,开始了逃亡生涯。刘一路为了追随两人,居然回到了三国时代?
  1. Format                                   : AVI6 U+ ]! r) `) t$ t+ _
  2. Format/Info                              : Audio Video Interleave7 p: v" r# Y" x* X3 F7 g
  3. File size                                : 1.36 GiB
    2 v( X% Y  q; U# i
  4. Duration                                 : 1h 34mn
    4 o: W3 w& v0 B  {! x/ t* h$ {
  5. Overall bit rate                         : 2 060 Kbps' K/ ~( W3 X: V' k4 u9 ~
  6. Writing application                      : VirtualDubMod 1.5.10.2 (build 2540/release)8 `+ z0 n* u  ~3 x: v0 e$ I
  7. Writing library                          : VirtualDubMod build 2540/release& o% H2 u4 B/ I7 E

  8. ) M/ N, o$ ~; A# f
  9. Video8 ?/ C' b$ q' _0 J+ O( a, j& [
  10. ID                                       : 0" K2 w' N5 C  i! C; G
  11. Format                                   : MPEG-4 Visual' X# _( i# d7 Y- T, l
  12. Format profile                           : Advanced [email protected]- K' z7 A& c* {
  13. Format settings, BVOP                    : 2/ i. \3 b2 e3 s
  14. Format settings, QPel                    : No
    6 p) \' g) }# o
  15. Format settings, GMC                     : No warppoints
    0 H, n) E' R0 R, ]3 {
  16. Format settings, Matrix                  : Default (H.263)
    8 ?9 c1 C7 A6 p" M  g# |  i4 }1 |1 i
  17. Muxing mode                              : Packed bitstream
    ; y$ ~; C2 n' }: i' I6 r& ^3 }% a
  18. Codec ID                                 : XVID
    ; w. P2 z2 E, g9 K/ T+ K
  19. Codec ID/Hint                            : XviD6 z) Z( V$ _9 S! H' b
  20. Duration                                 : 1h 34mn
    5 K/ K5 ^( S4 H' F
  21. Bit rate                                 : 1 470 Kbps# P2 ]: B; Z9 t+ ~  R* O
  22. Width                                    : 640 pixels
    ! L) ^, U7 a4 W" b2 H% ^1 L, s& l
  23. Height                                   : 352 pixels' }& y/ y. y! R% K% S+ Q
  24. Display aspect ratio                     : 16:9. A1 F/ r/ }7 ]( F) m: W5 \8 N' E  x
  25. Frame rate                               : 23.976 fps
    . i+ N9 W: M) }2 n2 t+ E9 p
  26. Color space                              : YUV
    - a" w: {  R9 ~7 y+ t1 N8 Z
  27. Chroma subsampling                       : 4:2:0
    7 T. P: C9 B  t0 }
  28. Bit depth                                : 8 bits
    0 P: o; G0 H' p/ u) H* O
  29. Scan type                                : Progressive3 Z/ ~, Q3 {* m' I3 F; U! I
  30. Compression mode                         : Lossy# J2 e6 G8 x7 P- S
  31. Bits/(Pixel*Frame)                       : 0.272
    & K; t+ D4 q. X- _% U
  32. Stream size                              : 997 MiB (71%)
    # e7 a5 U! P: d: [2 N0 b2 _, j* J
  33. Writing library                          : XviD 1.2.1 (UTC 2008-12-04)
    " Y/ _* f5 Z1 `! ?
  34. ) t1 _" |% F1 q8 u$ l
  35. Audio #1
    0 B$ D3 N5 F: @  e
  36. ID                                       : 1
    6 i) {6 p, f6 ~, q0 I; C
  37. Format                                   : AC-3
    3 [4 ^- s/ [2 Y1 B/ g" }0 W
  38. Format/Info                              : Audio Coding 3% ?' x) H0 H8 U& X1 Q1 x
  39. Mode extension                           : CM (complete main)3 B- F) c& p3 [
  40. Format settings, Endianness              : Big
    & G+ r! V" W, W" E* j( R4 o
  41. Codec ID                                 : 2000
    9 M$ p# R+ S: E; h/ t, `  q
  42. Duration                                 : 1h 34mn6 x5 J# f* r. p# T) g
  43. Bit rate mode                            : Constant, X3 P8 Q: I5 D: A5 s5 |; n
  44. Bit rate                                 : 384 Kbps
    # u5 k) l5 M# i  ^+ w# S! E
  45. Channel(s)                               : 3 channels5 ~* u' u7 H+ B3 T! D! I( |
  46. Channel positions                        : Front: L R, LFE: v, o* K& I& i
  47. Sampling rate                            : 48.0 KHz
    ' p" k+ r9 G9 U5 ]' g# R
  48. Bit depth                                : 16 bits4 |7 b- y  w( R7 K$ H6 F& ]0 |& r! V5 u
  49. Compression mode                         : Lossy
    . C) w- g. m6 S9 F, W8 ]
  50. Stream size                              : 260 MiB (19%)
    5 X7 z  g3 o0 u' d4 z$ f9 i
  51. Alignment                                : Split accross interleaves$ O, W" u( r9 \2 Q0 v# k4 P. E
  52. Interleave, duration                     : 42 ms (1.00 video frame)( K: E% c; d$ X5 A* E+ l( S
  53. Interleave, preload duration             : 500 ms
    1 l( a/ D. S9 ]

  54. " O# r9 S7 ^. Y7 Z' H
  55. Audio #27 W% J3 W4 ^/ ?5 J) V. m
  56. ID                                       : 2
    4 ~- p& n# v9 `1 p" u5 F
  57. Format                                   : AC-3( T4 q: i- C- c
  58. Format/Info                              : Audio Coding 3) T  f9 s7 W( D4 p# p! Z( S. @
  59. Mode extension                           : CM (complete main). i+ A( r+ }+ Z' w! M- Q3 L6 {( S" {3 T3 m
  60. Format settings, Endianness              : Big: m8 f4 [/ q! r6 S. J  H
  61. Codec ID                                 : 2000/ g. w2 J: i" z+ Y
  62. Duration                                 : 1h 34mn! O7 \4 ^- w, y( F& t; H
  63. Bit rate mode                            : Constant7 [6 [: c% |0 ~, \* K' q( r
  64. Bit rate                                 : 192 Kbps
    ' V) G6 n7 ?4 O$ {, f' b
  65. Channel(s)                               : 3 channels
    2 C4 M( [' d4 w
  66. Channel positions                        : Front: L R,   Side: C
    % h% H: ^4 S# E
  67. Sampling rate                            : 48.0 KHz. {2 G+ S+ v1 [$ H
  68. Bit depth                                : 16 bits* d2 }6 d- H; n, M. g
  69. Compression mode                         : Lossy7 W( z  Z5 `3 y- t
  70. Stream size                              : 130 MiB (9%)1 J$ V# F- t) X* v- `
  71. Alignment                                : Split accross interleaves
    , M0 h8 J) y; l
  72. Interleave, duration                     : 42 ms (1.00 video frame)
    - }/ c9 j' Z. N% V2 z1 M
  73. Interleave, preload duration             : 500 ms
复制代码

) W1 Z: q0 Z" L  L+ Q
! m: r- L  y! }6 M: H. f& K6 K1 u( E$ ]) T% w
4sdIi.png
1 N5 e) B' s- z, E  G 8GIjK.png 8 @' U1 X9 [% H$ f% I, m0 ]# x/ v
9saLm.png # e" w  q# F1 P4 l+ G- M) e. }
iETIq.png   m2 T+ k! a6 {
JBhaF.png
5 E/ {8 v' U* ]& k! }+ P KXiDB.png
* N$ L( Q  t4 n# U+ D# W+ X mLPt5.png , F) ]' d" x- T
pk87O.png
5 t2 I. h# @" o1 o; P publ.png
  R2 K  j, }; v/ p SK0bc.png ( ~* g8 ~% v5 ]  O1 j# r
vwDqK.png
. T  k  L3 t# ^ XajK.png % {3 o6 p" c, I) i
Y2HcE.png
+ y9 D! d' b/ j1 u$ `: i; y4 g$ I" L( h- D3 v

( g5 P* H7 }% F7 c* t
游客,如果您要查看本帖隐藏内容请回复  捐助论坛可免回复查看隐藏内容 详情请点击

5 {+ Q1 Y8 [  f0 [
9 N& h, L( G% @" ~中英字幕
/ g( _8 H* m5 b
0 G) C7 o% B' O' d! p7 m; Y. p& O
游客,如果您要查看本帖隐藏内容请回复  捐助论坛可免回复查看隐藏内容 详情请点击
最近访问 头像模式 列表模式
HD一条街,身边的一条街。
发表于 2014-9-25 23:36:10 | 显示全部楼层
不错,又占了一个沙发!
HD一条街,身边的一条街。
发表于 2014-9-25 23:39:38 | 显示全部楼层
为了维护HD一条街的和平,我必须打满这些字,拒绝灌水,拒绝广告,争做论坛良好公民!
HD一条街,身边的一条街。
发表于 2014-9-25 23:47:06 | 显示全部楼层
啥也不说了,楼主就是给力!
HD一条街,身边的一条街。
发表于 2014-9-26 00:09:08 | 显示全部楼层
为了维护HD一条街的和平,我必须打满这些字,拒绝灌水,拒绝广告,争做论坛良好公民!
HD一条街,身边的一条街。
发表于 2014-9-26 00:30:59 | 显示全部楼层
影视资源尽在HD一条街中, 哦也!
HD一条街,身边的一条街。
发表于 2014-9-26 00:42:36 | 显示全部楼层
多谢版主分享好电影,喜欢的类型
HD一条街,身边的一条街。
发表于 2014-9-26 01:22:15 | 显示全部楼层
看了LZ的帖子,我只想说一句很好很强大!
HD一条街,身边的一条街。
tkphilip 该用户已被删除
发表于 2014-9-26 01:41:30 | 显示全部楼层
提示: 作者被禁止或删除 内容自动屏蔽
HD一条街,身边的一条街。
发表于 2014-9-26 02:12:36 | 显示全部楼层
貌似是值得支持的好东西
HD一条街,身边的一条街。
您需要登录后才可以回帖 登录 | 加入我们

本版积分规则

手机版|小黑屋|有问题发邮件到admin#(换成@)hd1tj.org|微博|免责申明|HD一条街

GMT+8, 2017-1-19 16:45

Powered by Discuz! X3.1

© 2001-2013 Comsenz Inc.

快速回复 返回顶部 返回列表