开启辅助访问 切换到窄版

HD一条街论坛

 找回密码
 立即注册
搜索
查看: 548|回复: 26

[720p] 玩具总动员之派对恐龙/玩具总动员之恐龙雷克斯/玩具总动员之抱抱龙大英雄 [国英3音轨] [原盘简繁英SUP字幕]Toy.Story.Toons.Partysaurus.Rex.2012.BluRay.720P.AC3.3Audio.x264-[email protected] 282M

[复制链接]
发表于 2014-8-18 11:31:41 | 显示全部楼层 |阅读模式
$ c/ [1 H, r9 s. K6 {2 z
                               
登录/注册后可看大图
4 h* ~& n% x7 n3 }

: y' o8 Q4 P; T) X& j8 g" N1 a6 Z
: A* z# v+ K# q% b1 r
本影片封装有五条SUP字幕:原盘英文一条,原盘简体中文、原盘繁体中文各两条。其中一条简体中文对应国语1与一条繁体中文对应国语2。关于SUP字幕的播放,如有需要,下载后请参考文件夹中的“SUP字幕简单播放方法”。
/ V& f4 H) m2 u
! k$ g  r  }: v9 m; U4 v
封装的SUP字幕,主要目的是让大家观影时多一个选择,但是如果你由于某种原因不满意,请无视它的存在。就当该影片没有封装任何字幕。你可以等待其他会员上传srt或ssa或ass字幕或自己制作字幕即可。

  _9 z0 j  Z. C8 O" Q- s  Y5 _  g. J& S$ n  M3 h* F

# l5 C! u2 [9 j7 l9 w※※※※※※※ 影片信息 ※※※※※※※
: h& c( @8 G. [- {) l! v# S% o3 {
; t. ~2 \5 M" f% e6 |5 ~. Z% X◎片    名: Partysaurus Rex
/ T, Z5 M  T  k, ^# \◎译    名: 派对恐龙/恐龙雷克斯/抱抱龙大英雄
9 p3 V- g$ O) m◎类    型: 喜剧 / 动画 / 短片& {9 K: z$ {3 k* d2 c
◎制片国家/地区: 美国. i% b2 R: q1 r3 i
◎语    言: 英语/普通话, b5 c; ?( F3 F% ?
◎字    幕:英文/简体中文/繁体中文/) }' ^/ e5 [) ~: ^# ]% \/ T, z8 t
◎上映日期: 2012-09-14(美国). P' u) x: ^5 N- t- A! o2 ^
◎片    长: 7分钟
, i* E* T0 v8 D& ]' l7 |◎IMDb链接: http://www.imdb.com/title/tt2340678
2 }  P/ I% M7 [0 u* j5 K$ m8 n◎IMDB评分:7.7/10 (1513 votes)6 w$ Y; `& u) m: l
◎导    演: Mark A. Walsh9 b0 s& G- w2 I. g  x8 n
◎主    演: 汤姆·汉克斯 / Corey Burton / Tony Cox / 华莱士·肖恩 / Emily Hahn
/ i  d7 Q: K/ w9 f' ]9 a
1 A( S( n0 t$ E! |$ A
6 L7 O! p% f7 O! l2 U! h  s0 H◎简  介/ _# g2 @: d) R) B/ J

$ [; u& }6 s4 @, y5 l- E/ f  与相濡以沫十几个年头的小主人告别后,胡迪、巴斯光年这群《玩具总动员》的好朋友们来到了新的小主人邦妮(艾米丽·哈恩 Emily Hahn 配音)家中继续他们的快乐生活。这一日,他们正在房间内游戏,可是笨乎乎的恐龙雷克斯(沃伦斯·肖恩 Wallace Shawn 配音)突然出现,搞砸了一切,蛋头先生气急败坏,甚至称它为“搞砸派对的雷克斯”。就在这时,邦妮决定找个玩具去洗澡,躲闪不及的雷克斯被她带入了浴室中。在邦妮的搜索游戏中,雷克斯扮演了一个冰海大恐龙,同时还结识了橡皮鸭、船长这群平常只待在浴室中的新朋友。 : W4 |8 O, C: ~/ y

) Z, {9 O; x4 @4 ]0 K" p- y! m  邦妮走后,浴缸的水渐渐抽空,橡皮鸭们倍感无趣。自称派对之王的雷克斯决定打开水龙头,为新朋友们开一个超级大派对,但是派对却朝着失控的方向发展……8 \9 ], c/ o! q- c

; ?/ e5 e/ Y3 c2 ]& }, J% D
* F- }! x" V5 b: \※※※※※※※ 参数信息 ※※※※※※※
  1. General
    3 }0 H8 \" s  C: I4 V
  2. Unique ID                                : 191394934768184597415480279018762269780 (0x8FFD52D7EF65B58C91068762D0A1F454)" ]2 ]3 g3 j# D
  3. Complete name                            : O:\Partysaurus.Rex.2012.BluRay.720p.AC3.3Audio.x264-CMCT\Partysaurus.Rex.2012.BluRay.720P.AC3.3Audio.x264-CMCT.mkv9 ?9 s. {/ W2 A, I
  4. Format                                   : Matroska
    ' v% P+ t' G$ T' Y" M
  5. Format version                           : Version 4 / Version 2' a4 h3 R* k$ ^5 V; P$ e) v5 s% P
  6. File size                                : 282 MiB
    " }/ @, Z# ~6 o
  7. Duration                                 : 6mn 34s( g% R2 w- U# ?3 |
  8. Overall bit rate                         : 6 003 Kbps
    ( }  t* S2 t7 w& }8 k
  9. Encoded date                             : UTC 2014-08-16 13:33:20
    5 B4 i* K- s$ a+ n# q' e/ l
  10. Writing application                      : mkvmerge v6.6.0 ('The Edge Of The In Between') built on Dec  1 2013 17:55:00
    ! P$ {' K% Q: c- h9 O  G3 k, A, l
  11. Writing library                          : libebml v1.3.0 + libmatroska v1.4.1; _- B$ C' i. |0 i

  12. , |. b# r8 {1 k; _! j. f* a
  13. Video1 V7 Y3 ]9 a& h$ ]
  14. ID                                       : 1! t7 k: u" q0 o3 u
  15. Format                                   : AVC
    7 D: M) F/ n/ v1 ]/ T) |( h# {
  16. Format/Info                              : Advanced Video Codec: c- o" T! _; U. O1 ^9 z- ?
  17. Format profile                           : [email protected]
    ( G2 o. q0 N4 L/ `: o
  18. Format settings, CABAC                   : Yes! D6 ]0 l8 r5 @+ \$ h
  19. Format settings, ReFrames                : 9 frames1 n9 K$ P0 Z2 D% ], a& ?+ Y
  20. Codec ID                                 : V_MPEG4/ISO/AVC' Q  ]9 {+ t) m) P% s9 d
  21. Duration                                 : 6mn 34s
    " w# [. D6 l7 e
  22. Bit rate                                 : 4 000 Kbps
    ( L. h' v, z7 B: V
  23. Width                                    : 1 280 pixels
    : e0 k8 p* c1 A9 K6 x
  24. Height                                   : 720 pixels
    - @( T5 b+ _+ U- S
  25. Display aspect ratio                     : 16:9% A0 n6 H1 ?4 |8 q& m5 l
  26. Frame rate mode                          : Constant
    : v7 h5 p7 }; F1 D/ Q8 b
  27. Frame rate                               : 23.976 fps8 h$ s/ d& o, S) |9 @  c% `
  28. Color space                              : YUV) b1 [0 \( _8 Y: j7 e# @* X3 }
  29. Chroma subsampling                       : 4:2:0) ]; {& F0 M' q5 m0 H" G
  30. Bit depth                                : 8 bits
    0 `& M) I1 ]) N* L
  31. Scan type                                : Progressive5 h; G$ U; r* a& x# C( m
  32. Bits/(Pixel*Frame)                       : 0.1818 c7 N: m6 l7 M2 r1 k
  33. Stream size                              : 186 MiB (66%)# e4 c9 m5 S5 M6 S, m
  34. Title                                    : Partysaurus Rex
    8 C8 }1 Y* T  o0 E  W
  35. Writing library                          : x264 core 142 r2431 ac76440
    8 J  B# N5 c6 d" X. g
  36. Encoding settings                        : cabac=1 / ref=9 / deblock=1:-1:-1 / analyse=0x3:0x113 / me=umh / subme=11 / psy=1 / psy_rd=1.10:0.15 / mixed_ref=1 / me_range=48 / chroma_me=1 / trellis=2 / 8x8dct=1 / cqm=0 / deadzone=21,11 / fast_pskip=0 / chroma_qp_offset=-3 / threads=16 / lookahead_threads=1 / sliced_threads=0 / nr=0 / decimate=1 / interlaced=0 / bluray_compat=0 / constrained_intra=0 / bframes=6 / b_pyramid=2 / b_adapt=2 / b_bias=0 / direct=3 / weightb=1 / open_gop=0 / weightp=2 / keyint=240 / keyint_min=23 / scenecut=40 / intra_refresh=0 / rc_lookahead=60 / rc=2pass / mbtree=1 / bitrate=4000 / ratetol=1.0 / qcomp=0.60 / qpmin=10 / qpmax=51 / qpstep=4 / cplxblur=20.0 / qblur=0.5 / vbv_maxrate=40000 / vbv_bufsize=30000 / nal_hrd=none / filler=0 / ip_ratio=1.40 / aq=1:1.00
    9 K. K0 Q5 R6 _; j' s* A
  37. Default                                  : Yes# _. Z# m' l7 J& Q8 D( w0 w
  38. Forced                                   : No1 E1 o9 ~. f( F7 H% ~: l& \

  39. ) w7 f0 i. l5 ^  V: g  G
  40. Audio #1
    ) P1 y0 |, r! d$ q
  41. ID                                       : 29 F6 }! J7 }" S/ l# U) w3 S2 O
  42. Format                                   : AC-3
    ( I6 B- a3 n% t% n. _& l
  43. Format/Info                              : Audio Coding 3
    - t  [& {. O( b& v
  44. Mode extension                           : CM (complete main)0 e& S  Y! Z3 |1 U/ E
  45. Format settings, Endianness              : Big) B* r, u# B+ W: t
  46. Codec ID                                 : A_AC3% a, u9 W; l- B% V7 `& b& D
  47. Duration                                 : 6mn 34s4 u4 u! K9 N& [, k# R
  48. Bit rate mode                            : Constant
    . o2 z3 t* y3 s  F, M2 v
  49. Bit rate                                 : 640 Kbps) c- S: t% S8 @8 _
  50. Channel(s)                               : 6 channels
    " M3 D- p3 x' T0 }* d1 l$ ^9 S; p
  51. Channel positions                        : Front: L C R, Side: L R, LFE- X( `3 U/ i% j( k" `5 e6 ]6 m
  52. Sampling rate                            : 48.0 KHz5 M4 k5 U  F3 u% h
  53. Bit depth                                : 16 bits
    ' v5 E( V2 F4 ~0 y) z- R
  54. Compression mode                         : Lossy4 t+ P( e4 E6 [' p' Z0 y# W: A, _
  55. Stream size                              : 30.1 MiB (11%)
    ! |& ?9 c3 E+ p
  56. Title                                    : DD5.1 640Kbps
    1 i: F3 E; Q# N3 ^
  57. Language                                 : English( V  m& t+ B, ^# G
  58. Default                                  : Yes& z3 ~) E( [* v1 S! F" X
  59. Forced                                   : No
    # U1 ^  S; p+ k3 z4 F8 A* m
  60. 9 g' K% O$ P$ r! W
  61. Audio #2/ U9 r& T/ g, v/ ]
  62. ID                                       : 3
    0 ^6 ~: Q& U$ V0 ], n& j% O
  63. Format                                   : AC-3* f( k9 n( `& \9 u
  64. Format/Info                              : Audio Coding 3. c' O9 ?: [% p
  65. Mode extension                           : CM (complete main)8 r! e: Y; A% W: l1 t$ h
  66. Format settings, Endianness              : Big
    . w# N! m' K6 b* B! s$ D
  67. Codec ID                                 : A_AC3
    * I$ h" N; z8 t; y
  68. Duration                                 : 6mn 34s, i+ @$ K5 L. V5 K
  69. Bit rate mode                            : Constant
    1 `- x8 Y7 Q0 c9 ~. l  @
  70. Bit rate                                 : 640 Kbps  O& a: I& N: ^$ b+ y
  71. Channel(s)                               : 6 channels
    ! I& I5 a8 H9 N( O( ]3 b
  72. Channel positions                        : Front: L C R, Side: L R, LFE# _& r  O' \0 R9 R/ P; n1 }( l0 E- g
  73. Sampling rate                            : 48.0 KHz
    ) O8 j, _' L1 E4 H+ H
  74. Bit depth                                : 16 bits: \. |, ]; F1 g( S/ p7 Y) d
  75. Compression mode                         : Lossy8 }1 [8 Q7 {4 g4 l
  76. Stream size                              : 30.1 MiB (11%)
    % Y. |( v) j% r& f; O
  77. Title                                    : DD5.1 640Kbps(国语1)
    . M5 a& D) P/ l1 E- Z! S* S& ]
  78. Language                                 : Chinese$ C& D7 _' x" z* G
  79. Default                                  : No7 v5 g$ [+ y) ^2 k5 a
  80. Forced                                   : No5 S0 L9 K. d% @8 n8 R3 [

  81. ( Q. l7 k. g% T. i
  82. Audio #3  t4 O7 f6 d1 f+ A: ~/ }- b
  83. ID                                       : 4
    9 r) w: |* K+ [1 O
  84. Format                                   : AC-3
    1 t0 j  r) X: g* V4 K5 w, R
  85. Format/Info                              : Audio Coding 3
    ( f1 [& K: y2 H- j% R0 |
  86. Mode extension                           : CM (complete main)
    3 \0 E- a& g' B4 }/ q
  87. Format settings, Endianness              : Big
    ) U) P, u2 n7 k1 u% }. Q7 b
  88. Codec ID                                 : A_AC3" u) Z8 }% W( B6 K* H* ~, p
  89. Duration                                 : 6mn 34s+ d0 m1 _3 p5 U0 k. y! S1 [6 I
  90. Bit rate mode                            : Constant
    ; q5 b) @0 A; @6 }; m6 ~6 y& Y
  91. Bit rate                                 : 640 Kbps
    , m- m+ c7 \; W3 b  b; `+ u' F% A6 j
  92. Channel(s)                               : 6 channels  g1 Y" `) L. ]
  93. Channel positions                        : Front: L C R, Side: L R, LFE# b5 E3 M" @1 U) M, H: X2 _
  94. Sampling rate                            : 48.0 KHz! V, h) B7 l" `- ^4 Z0 }* {) Q' |
  95. Bit depth                                : 16 bits3 s; i* m1 _  C# B  u8 M3 K+ f1 Q
  96. Compression mode                         : Lossy! K  N+ g$ t$ `$ u3 A' f9 T$ F# C
  97. Stream size                              : 30.1 MiB (11%)
    ) J% E; V0 t! y, F
  98. Title                                    : DD5.1 640Kbps(国语2)! S3 y% O! V+ P! h& k
  99. Language                                 : Chinese/ H% O/ X3 k0 \) v# P  ~
  100. Default                                  : No
    8 E5 z6 D& ?  ^. w) y7 f* w) `
  101. Forced                                   : No. _; c' z8 E1 u. ]
  102. ( n4 {& V2 L  Z% g
  103. Text #1  B' g/ n8 ]2 k: f- z/ K
  104. ID                                       : 5
    ' o: B8 q8 v5 P5 X
  105. Format                                   : PGS6 s2 Y1 W/ T' S6 o; [" V
  106. Muxing mode                              : zlib
    ( w+ {9 {1 g# G
  107. Codec ID                                 : S_HDMV/PGS9 J; X) B0 u( ]% J
  108. Codec ID/Info                            : The same subtitle format used on BDs/HD-DVDs
    ' X  d+ V: l8 ^  y/ z4 X5 q
  109. Title                                    : 原盘英文
    6 J% ]6 V/ T! Q- a
  110. Language                                 : English: K$ U* t7 K6 ]/ o3 [* e  q
  111. Default                                  : No" A/ @# c, r+ L# c& a  y
  112. Forced                                   : No
    : Y2 d4 x% ?+ j" C. [

  113. ; Z2 v" W: z1 j" b' Q4 m! ]
  114. Text #2
    $ Y7 j; o2 g5 G- u5 \  Z
  115. ID                                       : 60 o& X. t# h4 L( X- o
  116. Format                                   : PGS
    : p; b6 B7 t- L3 H+ c, D
  117. Muxing mode                              : zlib
    0 N1 R. g. y: R1 a& |1 D5 U2 Y' N
  118. Codec ID                                 : S_HDMV/PGS- Q3 w; L* V& z- `0 K9 V$ o
  119. Codec ID/Info                            : The same subtitle format used on BDs/HD-DVDs& q+ K6 ?' j1 M" B' i
  120. Title                                    : 原盘简体中文
    7 W$ b9 j/ d2 Y
  121. Language                                 : Chinese- b5 i$ d. C8 {. B4 X3 z2 Y' L
  122. Default                                  : Yes
    9 P  \1 i# t: e6 m  e
  123. Forced                                   : No
    2 s6 }- {* E+ x* t
  124. 7 T: W' T6 k5 y5 w8 d
  125. Text #3
    2 |# a+ x; t  I, M3 v/ E1 Z$ l, ]7 D9 a
  126. ID                                       : 73 T7 S0 [! ~* r; L6 C$ n
  127. Format                                   : PGS
    4 t) i" R' c9 u
  128. Muxing mode                              : zlib) D1 L, }$ W* N& G8 G* A1 g, M
  129. Codec ID                                 : S_HDMV/PGS
    . j0 r' z  Z. D. z, K% q
  130. Codec ID/Info                            : The same subtitle format used on BDs/HD-DVDs
    4 R2 [% B# i# s. l  f* I
  131. Title                                    : 原盘简体中文(对应国语1)* G8 I. B% S5 }+ N" K/ O
  132. Language                                 : Chinese. z7 C/ j3 Y& Z, @6 `/ ~" S
  133. Default                                  : No  r0 K  R# f5 g' o3 P
  134. Forced                                   : No( C8 N+ _* y+ z) C2 Y

  135. / r/ ?( Z& r$ m9 y: P
  136. Text #4
    . G0 H  ?3 S! x/ c0 }
  137. ID                                       : 8- i* r$ b3 m% s* ]5 \7 c
  138. Format                                   : PGS& Y/ n1 P" [9 Y2 \$ y. }, m
  139. Muxing mode                              : zlib% a* l& @, f- F
  140. Codec ID                                 : S_HDMV/PGS
    8 [0 |, v& H3 y2 B7 n
  141. Codec ID/Info                            : The same subtitle format used on BDs/HD-DVDs
    ! |) {2 m0 G6 k9 u
  142. Title                                    : 原盘繁体中文(对应国语2)
      t! ~7 r; k' |- L# w/ {
  143. Language                                 : Chinese3 A; T1 A# x* j4 s
  144. Default                                  : No3 L8 |1 m) j0 x! x$ |) O
  145. Forced                                   : No! ?/ d( Y( ~/ B
  146. ; y# R1 S. [$ ]- z) O' u. P
  147. Text #5
    - U- }5 O* a/ r- S
  148. ID                                       : 9# `4 x4 X: T4 J7 Z+ B
  149. Format                                   : PGS& F# |$ c6 m' q, R) b( p
  150. Muxing mode                              : zlib1 B9 |* F- |$ m- }% A
  151. Codec ID                                 : S_HDMV/PGS# H/ }, U% ~" K  v
  152. Codec ID/Info                            : The same subtitle format used on BDs/HD-DVDs
    2 C$ x* ~3 T! g  \; N+ W* N& p8 i
  153. Title                                    : 原盘繁体中文
    9 E" s! ~4 i0 X9 ]! D: A
  154. Language                                 : Chinese# p( c6 f; l0 q! s/ W
  155. Default                                  : No" Q1 s" {" k' _# E4 x9 t4 p
  156. Forced                                   : No
复制代码
/ t1 |0 o- |- u  p/ j5 s8 c" k7 g# E3 C

. u# j$ {; Q) B
" }" z+ w6 {) [- c/ V: @5 n9 `) W. _- D
游客,如果您要查看本帖隐藏内容请回复  捐助论坛可免回复查看隐藏内容 详情请点击
最近访问 头像模式 列表模式
HD一条街,身边的一条街。
netfox2008 该用户已被删除
发表于 2014-8-18 12:04:20 | 显示全部楼层
提示: 作者被禁止或删除 内容自动屏蔽
HD一条街,身边的一条街。
发表于 2014-8-18 12:10:07 | 显示全部楼层
果断回帖,如果沉了就是我弄沉的很有成就感
HD一条街,身边的一条街。
发表于 2014-8-18 12:10:15 | 显示全部楼层
HD一条街,是我心中的一条街
HD一条街,身边的一条街。
发表于 2014-8-18 12:29:35 | 显示全部楼层
又是一部7分钟的小电影,我喜欢,谢谢。
HD一条街,身边的一条街。
发表于 2014-8-18 13:28:05 | 显示全部楼层
进来支持下吧
HD一条街,身边的一条街。
头像被屏蔽
发表于 2014-8-18 13:28:43 | 显示全部楼层
提示: 作者被禁止或删除 内容自动屏蔽
HD一条街,身边的一条街。
huadi 该用户已被删除
发表于 2014-8-18 14:27:49 | 显示全部楼层
提示: 作者被禁止或删除 内容自动屏蔽
HD一条街,身边的一条街。
发表于 2014-8-18 15:33:09 | 显示全部楼层
看看再说吧
HD一条街,身边的一条街。

手机版|小黑屋|有问题发邮件到admin#(换成@)hd1tj.org|微博|免责申明|HD一条街

GMT+8, 2017-4-26 04:26

Powered by Discuz! X3.1

© 2001-2013 Comsenz Inc.

快速回复 返回顶部 返回列表