开启辅助访问 切换到窄版

HD一条街论坛

 找回密码
 立即注册
查看: 432|回复: 26

[720p] 玩具总动员之派对恐龙/玩具总动员之恐龙雷克斯/玩具总动员之抱抱龙大英雄 [国英3音轨] [原盘简繁英SUP字幕]Toy.Story.Toons.Partysaurus.Rex.2012.BluRay.720P.AC3.3Audio.x264-[email protected] 282M

[复制链接]
发表于 2014-8-18 11:31:41 | 显示全部楼层 |阅读模式
$ w' n6 y0 p* `5 E/ y
                               
登录/注册后可看大图
$ s- y7 P, p! ~+ m4 u: p- E
8 o+ M0 p! x: b4 I! A" E5 f
1 q* t8 d, [9 v% ~
本影片封装有五条SUP字幕:原盘英文一条,原盘简体中文、原盘繁体中文各两条。其中一条简体中文对应国语1与一条繁体中文对应国语2。关于SUP字幕的播放,如有需要,下载后请参考文件夹中的“SUP字幕简单播放方法”。

5 ^) ^5 r' s: m
: o2 x6 t. Y4 d  `+ C+ V9 a
封装的SUP字幕,主要目的是让大家观影时多一个选择,但是如果你由于某种原因不满意,请无视它的存在。就当该影片没有封装任何字幕。你可以等待其他会员上传srt或ssa或ass字幕或自己制作字幕即可。

6 _: U; T+ @' p) Y7 p3 b4 G3 X' l" R5 k# \+ E3 |+ a* t
3 }4 ^7 c; Q/ p' q6 O7 [7 {
※※※※※※※ 影片信息 ※※※※※※※
  i( u" h! N( f) j' M0 @( P. @, B8 j9 N3 C
◎片    名: Partysaurus Rex
+ q) k3 S0 K, h! s8 T8 T* \3 {◎译    名: 派对恐龙/恐龙雷克斯/抱抱龙大英雄
% F9 f1 v7 o6 ?' ?! Z5 x* I◎类    型: 喜剧 / 动画 / 短片9 j- k$ l+ F* v# R
◎制片国家/地区: 美国
  d1 [7 D: d6 }3 o  E: q& M◎语    言: 英语/普通话
8 F9 Z, B6 c/ R2 ?5 n/ J3 d◎字    幕:英文/简体中文/繁体中文/
5 u$ S: X$ s7 |1 S4 B! I◎上映日期: 2012-09-14(美国)
8 o. O& E, j" s# P8 V8 v/ D; Q◎片    长: 7分钟
, c1 s, M6 e, U◎IMDb链接: http://www.imdb.com/title/tt2340678
' K" z7 \6 ]0 G0 X◎IMDB评分:7.7/10 (1513 votes)- ~" V2 s! C  `- C# c4 y7 r
◎导    演: Mark A. Walsh" j% _8 D" H4 \; w5 ~- K* ^
◎主    演: 汤姆·汉克斯 / Corey Burton / Tony Cox / 华莱士·肖恩 / Emily Hahn3 z) r0 y) A3 X& g- j
! ?9 P2 t) j# w2 {; q% d% M

2 K( n, p( q+ b* ?$ ]+ F◎简  介& d7 Z  X" K4 P' l) |# F& ]
( e7 r9 q6 p9 ^' s0 O
  与相濡以沫十几个年头的小主人告别后,胡迪、巴斯光年这群《玩具总动员》的好朋友们来到了新的小主人邦妮(艾米丽·哈恩 Emily Hahn 配音)家中继续他们的快乐生活。这一日,他们正在房间内游戏,可是笨乎乎的恐龙雷克斯(沃伦斯·肖恩 Wallace Shawn 配音)突然出现,搞砸了一切,蛋头先生气急败坏,甚至称它为“搞砸派对的雷克斯”。就在这时,邦妮决定找个玩具去洗澡,躲闪不及的雷克斯被她带入了浴室中。在邦妮的搜索游戏中,雷克斯扮演了一个冰海大恐龙,同时还结识了橡皮鸭、船长这群平常只待在浴室中的新朋友。 / R  I4 j8 C/ W7 G: Y3 T: c7 r

# C8 Y& ~& C, e4 M" `1 e& z  邦妮走后,浴缸的水渐渐抽空,橡皮鸭们倍感无趣。自称派对之王的雷克斯决定打开水龙头,为新朋友们开一个超级大派对,但是派对却朝着失控的方向发展……( m6 O! Y2 U7 v) O0 _

- Y' x% a/ y" u" V. s; w- v3 P/ e# U0 w% {5 R3 Z% }- a
※※※※※※※ 参数信息 ※※※※※※※
  1. General+ V& R" ^+ [1 A4 x  ~" B
  2. Unique ID                                : 191394934768184597415480279018762269780 (0x8FFD52D7EF65B58C91068762D0A1F454)/ b3 c  W( M# Q1 V6 w: ?4 Q/ j9 O
  3. Complete name                            : O:\Partysaurus.Rex.2012.BluRay.720p.AC3.3Audio.x264-CMCT\Partysaurus.Rex.2012.BluRay.720P.AC3.3Audio.x264-CMCT.mkv
    6 O+ v- A" n1 C1 c3 l$ N+ }% O7 R4 x8 ~
  4. Format                                   : Matroska! u2 H" c$ k$ ^/ K& k# W3 v
  5. Format version                           : Version 4 / Version 23 x; i! K! M9 ~4 M, ~
  6. File size                                : 282 MiB
    / b8 [4 q$ q; B5 q) M. a! w
  7. Duration                                 : 6mn 34s" n5 Z+ W0 {  G4 b& z  P" q
  8. Overall bit rate                         : 6 003 Kbps/ q2 g$ A; J- v- v" H' a
  9. Encoded date                             : UTC 2014-08-16 13:33:20
    # U+ q1 K, z. y+ l  S9 i- t
  10. Writing application                      : mkvmerge v6.6.0 ('The Edge Of The In Between') built on Dec  1 2013 17:55:00* m2 F" w! P5 Z, j4 x
  11. Writing library                          : libebml v1.3.0 + libmatroska v1.4.11 p! _3 h" r7 o7 s
  12. 5 i2 ~9 r3 Z/ Y! T' D: {
  13. Video2 a. ~5 D# Z- b  s
  14. ID                                       : 1
    ! }& y, M* n8 m2 V2 U( L
  15. Format                                   : AVC0 m, n) J) B  y5 ^3 Q$ A
  16. Format/Info                              : Advanced Video Codec" k# I" l4 v( p2 m" L1 M# o
  17. Format profile                           : [email protected]
    - H# r# r/ E$ X
  18. Format settings, CABAC                   : Yes
    / F) C+ a# s6 h5 B7 I& }  h) u
  19. Format settings, ReFrames                : 9 frames
    9 l" r# c1 _( }) Q- B/ i
  20. Codec ID                                 : V_MPEG4/ISO/AVC
    + f: f0 g& t7 ~7 [5 s( R
  21. Duration                                 : 6mn 34s7 y1 [; l: p5 j  v
  22. Bit rate                                 : 4 000 Kbps$ e4 S* Y: b6 Y0 a* K
  23. Width                                    : 1 280 pixels
    0 ]2 {/ a! K: {5 h4 e
  24. Height                                   : 720 pixels# [  ^4 p) V& g; _% ~& t4 S2 |0 K) Y
  25. Display aspect ratio                     : 16:9% Y; \# H- W, ?8 V9 h& ]9 e
  26. Frame rate mode                          : Constant( ?5 f3 Z0 o% ?" _  y
  27. Frame rate                               : 23.976 fps
    ! c) j% |: D8 W* C" A/ G( d. }6 L
  28. Color space                              : YUV
    / p0 g1 I" s& K2 d- [6 B  Z2 J
  29. Chroma subsampling                       : 4:2:0
    # H2 R& n5 w: [9 c
  30. Bit depth                                : 8 bits2 W: l$ i, n! i
  31. Scan type                                : Progressive
    + |* n- G; {' w
  32. Bits/(Pixel*Frame)                       : 0.181
    1 @9 M/ B$ V# |# E7 ]
  33. Stream size                              : 186 MiB (66%)
    : e3 K/ i9 u% j* C6 a1 I
  34. Title                                    : Partysaurus Rex! b$ e# c, O0 F8 R& [2 a- M
  35. Writing library                          : x264 core 142 r2431 ac76440# x. j( `' H" m
  36. Encoding settings                        : cabac=1 / ref=9 / deblock=1:-1:-1 / analyse=0x3:0x113 / me=umh / subme=11 / psy=1 / psy_rd=1.10:0.15 / mixed_ref=1 / me_range=48 / chroma_me=1 / trellis=2 / 8x8dct=1 / cqm=0 / deadzone=21,11 / fast_pskip=0 / chroma_qp_offset=-3 / threads=16 / lookahead_threads=1 / sliced_threads=0 / nr=0 / decimate=1 / interlaced=0 / bluray_compat=0 / constrained_intra=0 / bframes=6 / b_pyramid=2 / b_adapt=2 / b_bias=0 / direct=3 / weightb=1 / open_gop=0 / weightp=2 / keyint=240 / keyint_min=23 / scenecut=40 / intra_refresh=0 / rc_lookahead=60 / rc=2pass / mbtree=1 / bitrate=4000 / ratetol=1.0 / qcomp=0.60 / qpmin=10 / qpmax=51 / qpstep=4 / cplxblur=20.0 / qblur=0.5 / vbv_maxrate=40000 / vbv_bufsize=30000 / nal_hrd=none / filler=0 / ip_ratio=1.40 / aq=1:1.00
    . J7 b% v) Z0 E$ k3 K( ?
  37. Default                                  : Yes
    1 J# P5 a) _. f8 U
  38. Forced                                   : No
    " C. _3 _) C$ I
  39. 5 z$ X" F: J8 K; k0 A5 Z
  40. Audio #1
    , A3 ]: ^; j0 m7 @% W
  41. ID                                       : 2) ^: d. e) U. Q; k- c
  42. Format                                   : AC-3
    6 Q7 Q6 o" ?+ i! d9 @
  43. Format/Info                              : Audio Coding 3$ [$ a9 H% _+ r: ]6 c& \5 p
  44. Mode extension                           : CM (complete main)
    1 v6 t4 L( C; Z, ]$ j# w# J
  45. Format settings, Endianness              : Big& S' W! [; K2 y3 t1 n/ P; h- f& i
  46. Codec ID                                 : A_AC3
    & T# N+ C5 x( e2 {
  47. Duration                                 : 6mn 34s
    7 r! q- A) R" q" R; Z: z
  48. Bit rate mode                            : Constant$ Y# Y* W. b6 @7 l; T. l
  49. Bit rate                                 : 640 Kbps1 H) t5 \- t' B# o" S5 Z8 a3 P
  50. Channel(s)                               : 6 channels% }+ c8 {3 f* I+ c) p
  51. Channel positions                        : Front: L C R, Side: L R, LFE
    6 T9 }" o# m* K$ X2 c, j, j
  52. Sampling rate                            : 48.0 KHz
    " ^" i& D% J5 a0 C' Z4 A
  53. Bit depth                                : 16 bits
    6 `; t5 g6 O8 z5 o1 G8 [' \
  54. Compression mode                         : Lossy/ e/ r' m* k+ Q3 R& ^) I% {
  55. Stream size                              : 30.1 MiB (11%)5 W/ U+ ]7 Y. ~- F  K  j
  56. Title                                    : DD5.1 640Kbps! C/ k; S5 K" m2 {( D
  57. Language                                 : English
    : r% R. T, M2 e8 E) f8 P
  58. Default                                  : Yes4 f. S$ f$ e  V; u/ N6 g! |  C4 U
  59. Forced                                   : No
    2 n, Y( D* U( `

  60. # X& a7 I5 T5 o0 D
  61. Audio #2
    * t- Z3 r. |0 Q) u! v
  62. ID                                       : 3/ J% k$ V) N8 h, J/ e2 w
  63. Format                                   : AC-3
    - x  \8 A0 F5 q, h0 ?; [$ y: O
  64. Format/Info                              : Audio Coding 36 F- A; S$ L  n" c3 u. \
  65. Mode extension                           : CM (complete main)
    ) N' B7 k( |" c' S3 \( B% w: Z
  66. Format settings, Endianness              : Big
    ; o, `- G7 {$ a( |* Z
  67. Codec ID                                 : A_AC3
    6 @/ Q4 z6 s: ^; O) h
  68. Duration                                 : 6mn 34s$ {) w$ e# I( R& S6 F6 d
  69. Bit rate mode                            : Constant' i" `: y/ s3 H
  70. Bit rate                                 : 640 Kbps
    # r. I+ z6 s0 a* f. H8 _
  71. Channel(s)                               : 6 channels
    1 Q9 J. ]6 _# D; z+ ?: n
  72. Channel positions                        : Front: L C R, Side: L R, LFE9 M4 E5 `$ h$ s
  73. Sampling rate                            : 48.0 KHz$ C* `( ?" G4 q
  74. Bit depth                                : 16 bits6 c1 d7 Y3 h% R3 v% W# [
  75. Compression mode                         : Lossy
    5 {# w" T/ K* m5 J. s
  76. Stream size                              : 30.1 MiB (11%). y* R/ m% _7 Y$ A/ a
  77. Title                                    : DD5.1 640Kbps(国语1)2 q1 _/ f% E3 e% R6 G( E. W
  78. Language                                 : Chinese" s! @# d9 ?9 [+ G8 ]6 A2 `
  79. Default                                  : No2 b! y( x  n$ E8 y1 \0 C1 G' H* c
  80. Forced                                   : No
    9 U8 U/ G9 u1 F0 s  |6 |, c6 Z
  81. $ E0 B( A1 n' O1 K
  82. Audio #3
    5 q4 q  s: ~2 |! V0 U5 e
  83. ID                                       : 4
    - x2 A/ b0 B- q$ s( w0 D) G
  84. Format                                   : AC-3
    8 A* F" i. c& f- A7 y
  85. Format/Info                              : Audio Coding 30 I; S- ?4 d$ V3 f8 U
  86. Mode extension                           : CM (complete main)
    0 ^" r3 r" a+ j* d1 ^6 m3 G
  87. Format settings, Endianness              : Big( c; t$ j4 E5 Z
  88. Codec ID                                 : A_AC3
    2 N& u! y% Z# @% z( n
  89. Duration                                 : 6mn 34s  L# I! d4 ~- C1 K
  90. Bit rate mode                            : Constant
    ' W1 R3 A0 Z. Q
  91. Bit rate                                 : 640 Kbps$ I% B; \, X7 L- f
  92. Channel(s)                               : 6 channels
    7 _' h4 o$ b- J* ~
  93. Channel positions                        : Front: L C R, Side: L R, LFE) ^$ ~, e' z/ X) H8 m7 g
  94. Sampling rate                            : 48.0 KHz1 t0 n6 M5 w- J  Y! ^, s
  95. Bit depth                                : 16 bits
    0 ]6 _6 Q! V' ~# N4 j+ {* ^& u' v- ^
  96. Compression mode                         : Lossy2 w9 f4 Q* V' J9 _: _0 Z+ C
  97. Stream size                              : 30.1 MiB (11%)) q: A0 q3 l! R2 _: f4 l1 M. s9 u
  98. Title                                    : DD5.1 640Kbps(国语2)
    6 J5 Z+ T6 j. c2 |8 N. o0 ?, j
  99. Language                                 : Chinese$ n7 B8 A6 l1 Z- u7 Z
  100. Default                                  : No( L* U6 L- `6 r' }3 N) N& Q9 Y
  101. Forced                                   : No3 x' a- z8 a1 x0 n( v7 j% n
  102. , O4 B/ B5 t: ~" u! t: r$ Y
  103. Text #1
    ) G3 W- r5 e- j
  104. ID                                       : 5& B# U- v* @% H
  105. Format                                   : PGS, J6 [, ^  @8 N  j8 ~: i, |0 X
  106. Muxing mode                              : zlib+ K$ H8 s% K) B# L! m* Y1 E
  107. Codec ID                                 : S_HDMV/PGS
    ' r! N" T* a# _
  108. Codec ID/Info                            : The same subtitle format used on BDs/HD-DVDs  Q/ [2 [# l: T/ `& X. ^7 K
  109. Title                                    : 原盘英文
    , {1 `* _" L- |1 @, r1 i2 N
  110. Language                                 : English
    3 ]4 L0 M2 U1 P0 y" K$ i, X3 I
  111. Default                                  : No
    & m* \: N# ]5 s& K- Z) w
  112. Forced                                   : No
    ; L# u1 Y9 v0 J, t3 s6 T1 f

  113. 7 K, T/ T3 F* ]- r2 y4 `
  114. Text #2
    + h3 T# [" E( S. g
  115. ID                                       : 6
    - O7 J( e. V  S$ s2 a! k
  116. Format                                   : PGS
    ) t0 T# \  u- P& g8 K
  117. Muxing mode                              : zlib; X" V9 h) V. B; \9 n# v
  118. Codec ID                                 : S_HDMV/PGS& Y4 q, ~1 i- w) O
  119. Codec ID/Info                            : The same subtitle format used on BDs/HD-DVDs
    ! s2 |- y, z( b2 \0 K* q, E
  120. Title                                    : 原盘简体中文1 o. e+ R2 x! \0 \0 c5 p
  121. Language                                 : Chinese, j; i0 F1 F! q" F% f
  122. Default                                  : Yes
    7 @+ Q: P& u- K9 e0 @, Z
  123. Forced                                   : No! q9 X7 ]$ K! J7 Q6 v& B" j
  124. 2 h9 E- R. h& ]
  125. Text #3( h0 H; J/ }  z" A4 b, A
  126. ID                                       : 71 a7 Z8 n* \; S# K% s, u  X% Y
  127. Format                                   : PGS; \" n9 z: {" c% T2 X% t- }! D  Z
  128. Muxing mode                              : zlib2 x4 f0 ]  E, }) |
  129. Codec ID                                 : S_HDMV/PGS
    / {& r& s! f7 b3 D1 E( M* E' E
  130. Codec ID/Info                            : The same subtitle format used on BDs/HD-DVDs
    ( o* X; v8 F' V0 K2 i! w  K& y
  131. Title                                    : 原盘简体中文(对应国语1)
    : I0 E: I6 H& x" \5 D% s8 J- @
  132. Language                                 : Chinese' `/ y% C5 ^3 e6 S5 N
  133. Default                                  : No
    ; l$ Y9 O6 S! b6 q" j2 ~" c
  134. Forced                                   : No0 v1 q6 B: z3 ~, o/ O* I

  135. , A5 W. B" o6 u( V; f( L
  136. Text #4
    ( `/ s. w2 l' s' [% X) B! d9 S, W
  137. ID                                       : 8
    1 o5 w8 a; x& W( f) ^5 k/ a" ~+ i
  138. Format                                   : PGS2 u) o3 m0 U* o# O9 R
  139. Muxing mode                              : zlib7 `2 k9 a& Q. h- X0 Z& t1 Q
  140. Codec ID                                 : S_HDMV/PGS
    6 R1 h, V2 D; [* F
  141. Codec ID/Info                            : The same subtitle format used on BDs/HD-DVDs8 |; K! q& b( K. o; k+ x+ }" q
  142. Title                                    : 原盘繁体中文(对应国语2)0 _; S+ U7 J+ m& U( F7 [
  143. Language                                 : Chinese
    0 v/ ?$ T/ t# \2 u/ L& B( n
  144. Default                                  : No
    : J4 J. P4 H" Q; K  @. m; |; C
  145. Forced                                   : No' B+ G! X$ |% e- n0 {
  146. + _  Y. x! G7 b1 D& y- U: |
  147. Text #56 w! L) L0 `: X& w, `
  148. ID                                       : 9
    ! \& ~3 g$ T3 Y+ ?
  149. Format                                   : PGS
    ) x  L! c! l& _$ b8 u7 g6 {
  150. Muxing mode                              : zlib
    + b6 K. G+ w2 U% e$ W1 b3 Z, T
  151. Codec ID                                 : S_HDMV/PGS
    8 H* N% A. `1 H5 u2 n; m2 i+ @
  152. Codec ID/Info                            : The same subtitle format used on BDs/HD-DVDs
    + C9 s- J7 }" n5 {% U) w9 a  @& O
  153. Title                                    : 原盘繁体中文7 p8 P4 H( n9 d
  154. Language                                 : Chinese
    8 Z. g. i2 w( N- C
  155. Default                                  : No" h/ z; F/ [' X; B- f/ p  K
  156. Forced                                   : No
复制代码
+ y! B0 @* H; q& h% [" q7 L% D
+ |; |- U: A0 N3 W' }( D- c
( i5 O2 K6 g; I; N/ X
游客,如果您要查看本帖隐藏内容请回复  捐助论坛可免回复查看隐藏内容详情请点击
最近访问 头像模式 列表模式
HD一条街,身边的一条街。
netfox2008 该用户已被删除
发表于 2014-8-18 12:04:20 | 显示全部楼层
提示: 作者被禁止或删除 内容自动屏蔽
HD一条街,身边的一条街。
发表于 2014-8-18 12:10:07 | 显示全部楼层
果断回帖,如果沉了就是我弄沉的很有成就感
HD一条街,身边的一条街。
发表于 2014-8-18 12:10:15 | 显示全部楼层
HD一条街,是我心中的一条街
HD一条街,身边的一条街。
发表于 2014-8-18 12:29:35 | 显示全部楼层
又是一部7分钟的小电影,我喜欢,谢谢。
HD一条街,身边的一条街。
发表于 2014-8-18 13:28:05 | 显示全部楼层
进来支持下吧
HD一条街,身边的一条街。
头像被屏蔽
发表于 2014-8-18 13:28:43 | 显示全部楼层
提示: 作者被禁止或删除 内容自动屏蔽
HD一条街,身边的一条街。
huadi 该用户已被删除
发表于 2014-8-18 14:27:49 | 显示全部楼层
提示: 作者被禁止或删除 内容自动屏蔽
HD一条街,身边的一条街。
发表于 2014-8-18 15:33:09 | 显示全部楼层
看看再说吧
HD一条街,身边的一条街。
您需要登录后才可以回帖 登录 | 立即注册

本版积分规则

手机版|小黑屋|有问题发邮件到admin#(换成@)hd1tj.org|微博|免责申明|HD一条街

GMT+8, 2016-12-8 17:55

Powered by Discuz! X3.1

© 2001-2013 Comsenz Inc.

快速回复 返回顶部 返回列表