开启辅助访问 切换到窄版

HD一条街论坛

 找回密码
 加入我们
查看: 502|回复: 26

[720p] 玩具总动员之派对恐龙/玩具总动员之恐龙雷克斯/玩具总动员之抱抱龙大英雄 [国英3音轨] [原盘简繁英SUP字幕]Toy.Story.Toons.Partysaurus.Rex.2012.BluRay.720P.AC3.3Audio.x264-[email protected] 282M

[复制链接]
发表于 2014-8-18 11:31:41 | 显示全部楼层 |阅读模式
* |- _- Q  W. q2 n# Z) K
                               
登录/注册后可看大图
7 z- v, M$ Y& @/ v! R
' l4 m6 @5 P$ b5 r- @6 P4 [7 e

9 N3 b3 a( _# j
本影片封装有五条SUP字幕:原盘英文一条,原盘简体中文、原盘繁体中文各两条。其中一条简体中文对应国语1与一条繁体中文对应国语2。关于SUP字幕的播放,如有需要,下载后请参考文件夹中的“SUP字幕简单播放方法”。

' c& n' b/ h1 L0 g& L8 W
1 x* X# U2 O" s& B' h# C; V
封装的SUP字幕,主要目的是让大家观影时多一个选择,但是如果你由于某种原因不满意,请无视它的存在。就当该影片没有封装任何字幕。你可以等待其他会员上传srt或ssa或ass字幕或自己制作字幕即可。
/ i, {9 w3 y( k- f4 J5 d- q

1 r( Y* }' @& K& k4 S& E4 [+ D/ R
# u: x- s6 H- F" N& H※※※※※※※ 影片信息 ※※※※※※※
5 Z! e2 A' N  [4 m9 ?/ T8 [- p1 |
$ B. X: N" n: V# c% @" ^5 n1 P◎片    名: Partysaurus Rex& S4 O& K( j$ W& @5 D! N2 i; K
◎译    名: 派对恐龙/恐龙雷克斯/抱抱龙大英雄3 k0 H. R2 ^5 c. [5 _! H
◎类    型: 喜剧 / 动画 / 短片
9 d" k0 d# J# a3 b/ W◎制片国家/地区: 美国" W1 D1 N+ l9 M4 O& Y4 j3 u; o' \7 C& A
◎语    言: 英语/普通话
1 e  }# a$ ?( b◎字    幕:英文/简体中文/繁体中文/
: n5 b4 Y6 c6 d1 U0 s' A# x◎上映日期: 2012-09-14(美国)+ o! P. [* R2 a; k& T  S
◎片    长: 7分钟, T& H- y: `8 N( T- _
◎IMDb链接: http://www.imdb.com/title/tt2340678! X4 l/ F2 G& y
◎IMDB评分:7.7/10 (1513 votes)
- s1 m* H# f5 w◎导    演: Mark A. Walsh
6 N' P) _* k# z◎主    演: 汤姆·汉克斯 / Corey Burton / Tony Cox / 华莱士·肖恩 / Emily Hahn
/ b3 L1 x5 U3 \0 L, o
  h, Y0 M1 O. |5 S! g6 K% h1 r0 D8 I4 h& b) I% i% u( x6 c
◎简  介( l" D  M0 r7 L

& c, P, G3 Z& r) @  ~+ \  与相濡以沫十几个年头的小主人告别后,胡迪、巴斯光年这群《玩具总动员》的好朋友们来到了新的小主人邦妮(艾米丽·哈恩 Emily Hahn 配音)家中继续他们的快乐生活。这一日,他们正在房间内游戏,可是笨乎乎的恐龙雷克斯(沃伦斯·肖恩 Wallace Shawn 配音)突然出现,搞砸了一切,蛋头先生气急败坏,甚至称它为“搞砸派对的雷克斯”。就在这时,邦妮决定找个玩具去洗澡,躲闪不及的雷克斯被她带入了浴室中。在邦妮的搜索游戏中,雷克斯扮演了一个冰海大恐龙,同时还结识了橡皮鸭、船长这群平常只待在浴室中的新朋友。
' |7 t. [3 @% M" W( j0 U, _& [4 z; V
  邦妮走后,浴缸的水渐渐抽空,橡皮鸭们倍感无趣。自称派对之王的雷克斯决定打开水龙头,为新朋友们开一个超级大派对,但是派对却朝着失控的方向发展……
: }( [5 E1 \1 x& W) q$ W3 [, O* L
2 q) m/ c' S: L; n) W9 e3 g
※※※※※※※ 参数信息 ※※※※※※※
  1. General7 r7 q+ o3 v7 |( u
  2. Unique ID                                : 191394934768184597415480279018762269780 (0x8FFD52D7EF65B58C91068762D0A1F454)3 h: O% t' \  a2 e) f
  3. Complete name                            : O:\Partysaurus.Rex.2012.BluRay.720p.AC3.3Audio.x264-CMCT\Partysaurus.Rex.2012.BluRay.720P.AC3.3Audio.x264-CMCT.mkv" r$ w/ ~. h# a# f1 M
  4. Format                                   : Matroska! Y! Q* i8 `+ s2 Z' x
  5. Format version                           : Version 4 / Version 2
    8 w. i+ ?  ^9 c# h% C
  6. File size                                : 282 MiB* S' N7 c' |4 o
  7. Duration                                 : 6mn 34s3 l2 t/ K; A# U' U- z) i
  8. Overall bit rate                         : 6 003 Kbps
    6 R# u$ E: r% P/ e0 a
  9. Encoded date                             : UTC 2014-08-16 13:33:208 Y6 k' }7 }) u/ z
  10. Writing application                      : mkvmerge v6.6.0 ('The Edge Of The In Between') built on Dec  1 2013 17:55:00
    ' l6 l0 {- q( o  s+ t
  11. Writing library                          : libebml v1.3.0 + libmatroska v1.4.14 }( k! O- S# P9 @
  12. 1 v- B2 c+ B9 ~! Z6 [; {. N# s. U
  13. Video5 ], V: V7 S6 m2 Z
  14. ID                                       : 16 m* E+ L* E, J  m6 x: o; m
  15. Format                                   : AVC
    : ^/ e4 F# @: k+ b8 e; M
  16. Format/Info                              : Advanced Video Codec
    " ]# c" Z, G; f! O# k. B
  17. Format profile                           : [email protected]9 m! t8 o# D/ M2 W6 Z
  18. Format settings, CABAC                   : Yes* U1 ~' M# S* B2 m& `
  19. Format settings, ReFrames                : 9 frames
    5 E6 q" q2 n% F& R; }5 H, v
  20. Codec ID                                 : V_MPEG4/ISO/AVC6 t# B' ]. Z. C8 D( {. |; K
  21. Duration                                 : 6mn 34s
    % w7 z. B6 t6 \
  22. Bit rate                                 : 4 000 Kbps
    & H! u! |7 R( j
  23. Width                                    : 1 280 pixels
    3 j- Z9 ^, `) R( g( S/ E& ]
  24. Height                                   : 720 pixels
    6 y  G3 ~# X* U; p6 O5 y
  25. Display aspect ratio                     : 16:9
    + C4 p, E- u. R' u
  26. Frame rate mode                          : Constant
    ) ^  }' o8 e" l6 c
  27. Frame rate                               : 23.976 fps  K  {/ H2 x4 w% F0 h: r
  28. Color space                              : YUV4 p7 l7 s9 U1 K$ f
  29. Chroma subsampling                       : 4:2:0* ~- D) U% A$ Y3 h5 h1 y6 d) g5 K
  30. Bit depth                                : 8 bits# m% G1 Z; L' U8 c7 b8 b3 d
  31. Scan type                                : Progressive/ u1 e: N) S7 B  R1 B
  32. Bits/(Pixel*Frame)                       : 0.181
    ' g/ K6 v# r5 u  P
  33. Stream size                              : 186 MiB (66%)
    : q! Q! C+ s+ i% m2 ?# A
  34. Title                                    : Partysaurus Rex+ W- ]3 r4 h: O8 j2 U. E8 g& g
  35. Writing library                          : x264 core 142 r2431 ac76440% j+ j3 }1 o& ?) s/ G- `9 n
  36. Encoding settings                        : cabac=1 / ref=9 / deblock=1:-1:-1 / analyse=0x3:0x113 / me=umh / subme=11 / psy=1 / psy_rd=1.10:0.15 / mixed_ref=1 / me_range=48 / chroma_me=1 / trellis=2 / 8x8dct=1 / cqm=0 / deadzone=21,11 / fast_pskip=0 / chroma_qp_offset=-3 / threads=16 / lookahead_threads=1 / sliced_threads=0 / nr=0 / decimate=1 / interlaced=0 / bluray_compat=0 / constrained_intra=0 / bframes=6 / b_pyramid=2 / b_adapt=2 / b_bias=0 / direct=3 / weightb=1 / open_gop=0 / weightp=2 / keyint=240 / keyint_min=23 / scenecut=40 / intra_refresh=0 / rc_lookahead=60 / rc=2pass / mbtree=1 / bitrate=4000 / ratetol=1.0 / qcomp=0.60 / qpmin=10 / qpmax=51 / qpstep=4 / cplxblur=20.0 / qblur=0.5 / vbv_maxrate=40000 / vbv_bufsize=30000 / nal_hrd=none / filler=0 / ip_ratio=1.40 / aq=1:1.00$ n  L' ~$ ]6 o* r: r$ C
  37. Default                                  : Yes4 X- o; J  n7 ]: x% m4 c7 t
  38. Forced                                   : No
    , _" k+ `3 I- L% L0 R" A
  39. 8 b- f5 I1 O4 p" J* t1 C2 d1 K1 ]8 a) }
  40. Audio #1
    3 A" g3 U3 w) A" B6 Y
  41. ID                                       : 2. B& B/ D/ J# s1 w6 R% A
  42. Format                                   : AC-30 o$ C- K5 i* u$ O8 v+ Z, v
  43. Format/Info                              : Audio Coding 32 C% W: t: [& F
  44. Mode extension                           : CM (complete main); F- d; `/ A2 [7 a) m
  45. Format settings, Endianness              : Big; `/ X5 H# P/ K; Z& c8 D
  46. Codec ID                                 : A_AC3# c& W! e. K$ @, p5 N9 w/ Q' J
  47. Duration                                 : 6mn 34s: h( i: N( Y4 X5 a
  48. Bit rate mode                            : Constant8 D$ \! V  A& E, K
  49. Bit rate                                 : 640 Kbps
    9 q7 y/ v1 s7 @: ?$ T. k
  50. Channel(s)                               : 6 channels2 C/ {, L  h: D7 X& w# g( U
  51. Channel positions                        : Front: L C R, Side: L R, LFE/ m7 Y5 T' G) X! g! n
  52. Sampling rate                            : 48.0 KHz. g& x: ]  b: s7 M( i+ p
  53. Bit depth                                : 16 bits$ d) [5 C) W( L  n' |
  54. Compression mode                         : Lossy
    4 s% V7 X: m; F# d0 a
  55. Stream size                              : 30.1 MiB (11%)- C/ y' e' P% f) k% u
  56. Title                                    : DD5.1 640Kbps( ], d2 C3 Z6 \& ~$ j7 e3 E
  57. Language                                 : English, t! o# T# O. n; M/ f# x6 m
  58. Default                                  : Yes: |9 i/ R0 H6 t( `: _
  59. Forced                                   : No/ \1 Z7 E+ W' c/ m( Q3 A7 G

  60. 0 M+ |4 G9 q' z. F
  61. Audio #2
    ! n$ O5 R3 ?% N3 o" x; j/ ]( T
  62. ID                                       : 3: n4 Z/ W) W* M7 Q  w# n6 D
  63. Format                                   : AC-3* c% p$ w7 H' J4 l, a) s2 T4 H
  64. Format/Info                              : Audio Coding 3% p* F) D5 B8 N! e  K' a9 x; w
  65. Mode extension                           : CM (complete main)+ t5 H3 i+ Y0 i0 Z  V
  66. Format settings, Endianness              : Big
    & I9 J" i2 X5 s* D
  67. Codec ID                                 : A_AC3
    ' |# d0 K. |) n3 t3 s. f0 X2 [' h5 ]
  68. Duration                                 : 6mn 34s! P" H) z; S7 i
  69. Bit rate mode                            : Constant
    7 K4 e8 M# V* i; I4 e1 `$ A- R
  70. Bit rate                                 : 640 Kbps
    . F1 M1 ~; S. Q; o
  71. Channel(s)                               : 6 channels2 N6 y6 d0 _" Q4 j% R: G' H8 ]
  72. Channel positions                        : Front: L C R, Side: L R, LFE
    5 k) @- H/ e- R* c! T% z8 r/ J
  73. Sampling rate                            : 48.0 KHz- T9 K) P( q1 C1 E) `' C4 w' V" Q
  74. Bit depth                                : 16 bits2 L: d! t( U9 z  q7 }) V2 \& O
  75. Compression mode                         : Lossy7 k( |( e0 T: J8 m& Z, |
  76. Stream size                              : 30.1 MiB (11%)# `2 l  K( |- l# J
  77. Title                                    : DD5.1 640Kbps(国语1)" j- B5 h& d3 V+ [4 }* r
  78. Language                                 : Chinese
    ! P! m6 z' g2 v' q$ w- G! ?
  79. Default                                  : No
    6 w' ~2 E% J' _% p" ?; U
  80. Forced                                   : No
    . M$ x% {4 E. B  w1 h0 A

  81. " {$ s7 T6 N! ]* b
  82. Audio #3
    ; R" i, v4 D7 F9 [6 j, @
  83. ID                                       : 4
    6 M3 g# d3 F6 m# c7 s, h: {
  84. Format                                   : AC-3
    % H3 m: S. W( A% |. i. ~# E
  85. Format/Info                              : Audio Coding 3  _, ?, C, C: X. y0 @* r+ }& k
  86. Mode extension                           : CM (complete main)
    / b1 m9 A3 R, z& \
  87. Format settings, Endianness              : Big+ ?  }$ C  J; M8 w: Z# E/ Z# [  {) x
  88. Codec ID                                 : A_AC3! J6 H( u- i! a. L: E2 ?
  89. Duration                                 : 6mn 34s: g4 u3 j3 w3 Z( i( P
  90. Bit rate mode                            : Constant8 l8 Z9 p" _- ]& M3 z% v# f
  91. Bit rate                                 : 640 Kbps
    - h" w; N, N( n, w# F
  92. Channel(s)                               : 6 channels, R6 |( E7 D( k
  93. Channel positions                        : Front: L C R, Side: L R, LFE4 n7 T% H$ F5 B- i" p
  94. Sampling rate                            : 48.0 KHz
    ' [' m; Z4 b0 A# J  p+ m
  95. Bit depth                                : 16 bits
    ) |3 o$ L3 z0 h( Z; r. }
  96. Compression mode                         : Lossy
    - e2 s6 a6 i% N6 B# n1 q, U
  97. Stream size                              : 30.1 MiB (11%)6 z6 V8 D  P4 X; S" v7 z
  98. Title                                    : DD5.1 640Kbps(国语2)
    % v4 u7 O* U! }* I8 X# C8 G
  99. Language                                 : Chinese/ Z3 Q* y0 C6 w2 M! R" n3 e( F
  100. Default                                  : No8 l' A6 C/ t- }
  101. Forced                                   : No' U* A6 c% ~; z9 e# h7 Z) B

  102. ( d( C- i& [2 i
  103. Text #12 @4 d& w1 i( w8 p8 e
  104. ID                                       : 5
    7 u0 a. F! \9 ?1 d. g7 E* B
  105. Format                                   : PGS% W1 r/ ~$ @& U6 I% `) Z0 r
  106. Muxing mode                              : zlib: r$ l6 m) ~4 o* M+ U( g, L
  107. Codec ID                                 : S_HDMV/PGS
    % h* f" P2 b9 [$ z7 v4 M
  108. Codec ID/Info                            : The same subtitle format used on BDs/HD-DVDs
    & T- O) t% z* Q6 D+ f
  109. Title                                    : 原盘英文& f' l2 o' z% J
  110. Language                                 : English  c! C4 j$ m6 ]' k  k
  111. Default                                  : No* R/ m6 c% ~( w
  112. Forced                                   : No. e* k. L: N) i9 h- O% ^! Y

  113. ; a! d: H$ g9 \- u6 f4 x
  114. Text #2) E, ^/ _/ }  v3 R: x) S: O4 J
  115. ID                                       : 6
    0 A8 g$ {. z, S1 T: f! `: L
  116. Format                                   : PGS
    ) b. E% x; o3 z: O) ?" a5 a
  117. Muxing mode                              : zlib" Z5 |2 Q/ c5 w& n
  118. Codec ID                                 : S_HDMV/PGS+ h# D' M8 _6 h6 w8 {- V
  119. Codec ID/Info                            : The same subtitle format used on BDs/HD-DVDs
    % H5 }% {7 k) S' ^
  120. Title                                    : 原盘简体中文$ D' i5 _" f  ]; o7 A) Y- U
  121. Language                                 : Chinese
    ! Y8 T/ q) k7 x: q1 V  F
  122. Default                                  : Yes' f9 F* v" V" u0 ~" q: t
  123. Forced                                   : No& ?1 x5 w/ W0 [) r4 F5 g

  124. 4 r1 S" m" _1 `, P6 y; L
  125. Text #33 N/ @. f- x3 a/ o# E
  126. ID                                       : 7
    2 u+ D  h# ^; k: v5 v% u3 z
  127. Format                                   : PGS
    # T1 {& ^" p' x5 Z/ X3 o+ W  }
  128. Muxing mode                              : zlib
    / A' O/ [; Y+ r: S5 g0 ]
  129. Codec ID                                 : S_HDMV/PGS+ J* f9 S. E! J2 Z& L0 b! Y
  130. Codec ID/Info                            : The same subtitle format used on BDs/HD-DVDs) E( }7 U! B  q; l) n6 F2 j
  131. Title                                    : 原盘简体中文(对应国语1)
    & V; d6 z" ]( Y+ B; Q$ o9 d& v- h
  132. Language                                 : Chinese
    ; v  [0 L% c& _+ u$ M* A3 G
  133. Default                                  : No
    8 y; f! ^# A$ ~% V0 P
  134. Forced                                   : No
    4 V( ]" r, a- W; R4 ?9 t& k2 ?
  135. 1 ~$ e1 o) D+ P
  136. Text #4
    4 [2 n* [7 Y7 e, E6 q
  137. ID                                       : 8
    " U9 n& k1 G( s2 D9 w! V3 C# J1 Y
  138. Format                                   : PGS& O% c& Z& E. G8 m) y
  139. Muxing mode                              : zlib% F* g' N+ D( O
  140. Codec ID                                 : S_HDMV/PGS
    4 ?4 b8 ^( ?8 F2 x% n% p; ?
  141. Codec ID/Info                            : The same subtitle format used on BDs/HD-DVDs
    6 r4 \2 ^$ X3 @- a7 p& [- Z
  142. Title                                    : 原盘繁体中文(对应国语2)5 i6 `8 ]9 Q0 f8 [8 s
  143. Language                                 : Chinese5 G9 @3 J2 A, i4 T0 U, F4 {- U; ~& q8 V
  144. Default                                  : No
    5 x0 l9 j8 k$ j) S9 b( m% \% U
  145. Forced                                   : No1 f  {8 X& v' n3 E

  146. 1 @8 e- I9 |" g- e1 K# P2 g
  147. Text #5
    3 j  ?7 ]% d" T
  148. ID                                       : 9  Y- n  V6 L  K9 Z: [$ \, v
  149. Format                                   : PGS
    - K# j$ O" a$ d
  150. Muxing mode                              : zlib
    $ t8 D5 J' U) @6 Z3 O, e
  151. Codec ID                                 : S_HDMV/PGS& R& V! c# G! N8 e( s# i3 s6 ~' y
  152. Codec ID/Info                            : The same subtitle format used on BDs/HD-DVDs
    ; }+ d: C2 r7 {( n
  153. Title                                    : 原盘繁体中文
    2 X( N1 |2 C1 r# U5 R# w
  154. Language                                 : Chinese2 y2 }) o* r  W& r- P: \( B+ }
  155. Default                                  : No
    $ r% ]2 O  u" X+ c" ]; @
  156. Forced                                   : No
复制代码
/ h! e4 b% X) g! y

  c: K* R/ O4 X- h
* c3 L& i2 ]6 |1 ?
游客,如果您要查看本帖隐藏内容请回复  捐助论坛可免回复查看隐藏内容 详情请点击
最近访问 头像模式 列表模式
HD一条街,身边的一条街。
netfox2008 该用户已被删除
发表于 2014-8-18 12:04:20 | 显示全部楼层
提示: 作者被禁止或删除 内容自动屏蔽
HD一条街,身边的一条街。
发表于 2014-8-18 12:10:07 | 显示全部楼层
果断回帖,如果沉了就是我弄沉的很有成就感
HD一条街,身边的一条街。
发表于 2014-8-18 12:10:15 | 显示全部楼层
HD一条街,是我心中的一条街
HD一条街,身边的一条街。
发表于 2014-8-18 12:29:35 | 显示全部楼层
又是一部7分钟的小电影,我喜欢,谢谢。
HD一条街,身边的一条街。
发表于 2014-8-18 13:28:05 | 显示全部楼层
进来支持下吧
HD一条街,身边的一条街。
头像被屏蔽
发表于 2014-8-18 13:28:43 | 显示全部楼层
提示: 作者被禁止或删除 内容自动屏蔽
HD一条街,身边的一条街。
huadi 该用户已被删除
发表于 2014-8-18 14:27:49 | 显示全部楼层
提示: 作者被禁止或删除 内容自动屏蔽
HD一条街,身边的一条街。
发表于 2014-8-18 15:33:09 | 显示全部楼层
看看再说吧
HD一条街,身边的一条街。
您需要登录后才可以回帖 登录 | 加入我们

本版积分规则

手机版|小黑屋|有问题发邮件到admin#(换成@)hd1tj.org|微博|免责申明|HD一条街

GMT+8, 2017-2-23 12:48

Powered by Discuz! X3.1

© 2001-2013 Comsenz Inc.

快速回复 返回顶部 返回列表