开启辅助访问 切换到窄版

HD一条街论坛

 找回密码
 加入我们
查看: 483|回复: 26

[720p] 玩具总动员之派对恐龙/玩具总动员之恐龙雷克斯/玩具总动员之抱抱龙大英雄 [国英3音轨] [原盘简繁英SUP字幕]Toy.Story.Toons.Partysaurus.Rex.2012.BluRay.720P.AC3.3Audio.x264-[email protected] 282M

[复制链接]
发表于 2014-8-18 11:31:41 | 显示全部楼层 |阅读模式
, ^, I1 p* j3 p
                               
登录/注册后可看大图
; x" @- D2 J2 w+ d3 @

& p: a6 e- q3 C, ^4 F  h& Q* c, g2 d! u
本影片封装有五条SUP字幕:原盘英文一条,原盘简体中文、原盘繁体中文各两条。其中一条简体中文对应国语1与一条繁体中文对应国语2。关于SUP字幕的播放,如有需要,下载后请参考文件夹中的“SUP字幕简单播放方法”。

. t$ g% [- G  p( J  Q3 X2 f/ w9 W& b( r2 W6 D
封装的SUP字幕,主要目的是让大家观影时多一个选择,但是如果你由于某种原因不满意,请无视它的存在。就当该影片没有封装任何字幕。你可以等待其他会员上传srt或ssa或ass字幕或自己制作字幕即可。
8 L$ [2 L; [1 O  {% q, a* Y
! X2 C. ]$ e9 g& u+ ]
2 r& l& U# E/ ^! r8 D; u+ A9 i
※※※※※※※ 影片信息 ※※※※※※※
- Q4 p* U/ Y& {; |6 E
1 E, h$ r# @2 E3 m% U# q$ [◎片    名: Partysaurus Rex
- O4 J7 O4 p% }. a. ?7 r9 ~3 o* ~◎译    名: 派对恐龙/恐龙雷克斯/抱抱龙大英雄
% p8 \8 b# Y& x+ c7 R◎类    型: 喜剧 / 动画 / 短片2 r! f$ ?! Y. f5 k: Y5 I
◎制片国家/地区: 美国
* D" g6 v( a  U& x0 v0 {◎语    言: 英语/普通话" F; |- e; t, W8 P0 ~2 e7 J' Q
◎字    幕:英文/简体中文/繁体中文/
, ~# f9 N6 h6 e1 N* a8 L5 B◎上映日期: 2012-09-14(美国)
# K" |4 E: W% _7 C◎片    长: 7分钟
% U3 Y- ]4 U. g& U; x0 B◎IMDb链接: http://www.imdb.com/title/tt23406781 l$ W2 S9 S; I- p
◎IMDB评分:7.7/10 (1513 votes)
( {5 B( f, l1 ]( D9 j" P6 B& \" s◎导    演: Mark A. Walsh
5 Q% I8 w9 r; Y9 e◎主    演: 汤姆·汉克斯 / Corey Burton / Tony Cox / 华莱士·肖恩 / Emily Hahn: \8 ?5 E& S5 R' A& M" ^  F

" T$ t# T+ P6 D  e: R- x, h* R1 _) x/ d7 @* T
◎简  介# {! Z1 v& ^; u+ W* d
3 R( [/ z# M0 R/ b, }  g+ I
  与相濡以沫十几个年头的小主人告别后,胡迪、巴斯光年这群《玩具总动员》的好朋友们来到了新的小主人邦妮(艾米丽·哈恩 Emily Hahn 配音)家中继续他们的快乐生活。这一日,他们正在房间内游戏,可是笨乎乎的恐龙雷克斯(沃伦斯·肖恩 Wallace Shawn 配音)突然出现,搞砸了一切,蛋头先生气急败坏,甚至称它为“搞砸派对的雷克斯”。就在这时,邦妮决定找个玩具去洗澡,躲闪不及的雷克斯被她带入了浴室中。在邦妮的搜索游戏中,雷克斯扮演了一个冰海大恐龙,同时还结识了橡皮鸭、船长这群平常只待在浴室中的新朋友。 " h; K7 T# w9 t) B  r) ]+ h( }
' a0 d- I' a0 n$ Z( c
  邦妮走后,浴缸的水渐渐抽空,橡皮鸭们倍感无趣。自称派对之王的雷克斯决定打开水龙头,为新朋友们开一个超级大派对,但是派对却朝着失控的方向发展……
  W. L+ {  ^" q: M+ T! I) t/ L5 r/ m$ Z$ `- `

1 S& e. @$ l5 o8 q& M※※※※※※※ 参数信息 ※※※※※※※
  1. General
    : b( n: _3 a2 s
  2. Unique ID                                : 191394934768184597415480279018762269780 (0x8FFD52D7EF65B58C91068762D0A1F454)
    6 b- ]9 p7 P6 ^' h4 i% T$ F  R. m! q
  3. Complete name                            : O:\Partysaurus.Rex.2012.BluRay.720p.AC3.3Audio.x264-CMCT\Partysaurus.Rex.2012.BluRay.720P.AC3.3Audio.x264-CMCT.mkv
    , d. z- {/ _1 g$ D
  4. Format                                   : Matroska# W- B+ @! v: S$ s
  5. Format version                           : Version 4 / Version 2! u" R* X. d+ R8 |$ H; C
  6. File size                                : 282 MiB" |7 V# J' k% H9 u3 s& g
  7. Duration                                 : 6mn 34s
    0 [3 T. B* f/ m. P5 ^. h9 U
  8. Overall bit rate                         : 6 003 Kbps, s8 m; ?, e  X! k0 f
  9. Encoded date                             : UTC 2014-08-16 13:33:20
    7 O, F0 @# o+ y+ M5 g0 M0 ?, U/ P1 z
  10. Writing application                      : mkvmerge v6.6.0 ('The Edge Of The In Between') built on Dec  1 2013 17:55:000 M  {/ z6 c0 ]7 m
  11. Writing library                          : libebml v1.3.0 + libmatroska v1.4.1
    6 \1 A/ L* e4 a- k- L% f5 x
  12. 5 o  y  A! L& Q2 g# `! Z1 R+ ^
  13. Video$ b$ {" e! ^% d; ~! Q
  14. ID                                       : 1
    / O/ |! e( q' y/ ?& P! W
  15. Format                                   : AVC+ l' W7 ]7 h& D  e
  16. Format/Info                              : Advanced Video Codec
    1 ], r* F" G' Q6 K% g5 K' ^
  17. Format profile                           : [email protected]$ t9 t! U% w' Q5 O( Q7 ^
  18. Format settings, CABAC                   : Yes9 v# B2 f, f, f; m
  19. Format settings, ReFrames                : 9 frames3 w( b( R0 \9 q4 n0 p
  20. Codec ID                                 : V_MPEG4/ISO/AVC
    1 Y" W7 A% }3 j' T$ E6 o" ]1 c- T
  21. Duration                                 : 6mn 34s9 m. q( B# V. s0 A8 H( k+ y
  22. Bit rate                                 : 4 000 Kbps
    - \$ |9 f  ]  u  F- d$ K
  23. Width                                    : 1 280 pixels/ B" u: J& K$ x( \9 X( R9 {
  24. Height                                   : 720 pixels0 p  D  r+ U3 m3 x* j' K0 V
  25. Display aspect ratio                     : 16:9
    " d9 u2 X% ^! p3 m
  26. Frame rate mode                          : Constant
    # a9 y* Q$ z" x
  27. Frame rate                               : 23.976 fps% _6 g, t1 f3 E/ v1 q  C8 ^
  28. Color space                              : YUV& F2 V$ r, q+ y1 H- k5 j( f! T1 F
  29. Chroma subsampling                       : 4:2:0- B+ M! z4 {8 H9 ^
  30. Bit depth                                : 8 bits
    ; R: u* [8 A5 J# ]' Q" c& D( _
  31. Scan type                                : Progressive% f3 t. C2 f- |/ x
  32. Bits/(Pixel*Frame)                       : 0.181$ P6 J+ \3 u) N5 ]
  33. Stream size                              : 186 MiB (66%)/ o+ \1 ~" [3 q( G
  34. Title                                    : Partysaurus Rex2 S* W  ~- Q! Q
  35. Writing library                          : x264 core 142 r2431 ac764405 c& _: g9 z9 N6 {5 ^
  36. Encoding settings                        : cabac=1 / ref=9 / deblock=1:-1:-1 / analyse=0x3:0x113 / me=umh / subme=11 / psy=1 / psy_rd=1.10:0.15 / mixed_ref=1 / me_range=48 / chroma_me=1 / trellis=2 / 8x8dct=1 / cqm=0 / deadzone=21,11 / fast_pskip=0 / chroma_qp_offset=-3 / threads=16 / lookahead_threads=1 / sliced_threads=0 / nr=0 / decimate=1 / interlaced=0 / bluray_compat=0 / constrained_intra=0 / bframes=6 / b_pyramid=2 / b_adapt=2 / b_bias=0 / direct=3 / weightb=1 / open_gop=0 / weightp=2 / keyint=240 / keyint_min=23 / scenecut=40 / intra_refresh=0 / rc_lookahead=60 / rc=2pass / mbtree=1 / bitrate=4000 / ratetol=1.0 / qcomp=0.60 / qpmin=10 / qpmax=51 / qpstep=4 / cplxblur=20.0 / qblur=0.5 / vbv_maxrate=40000 / vbv_bufsize=30000 / nal_hrd=none / filler=0 / ip_ratio=1.40 / aq=1:1.00
    7 B/ E) i% U. j: M9 P! x
  37. Default                                  : Yes( S$ h1 X. U: m3 }- g5 S
  38. Forced                                   : No# r% z' S$ x5 W1 G  a
  39. & S+ {. O& u* P7 o6 ?
  40. Audio #1" c5 @+ s+ p8 G- j/ W5 Q1 ~
  41. ID                                       : 2  G* w/ I4 b2 {+ g
  42. Format                                   : AC-3$ K2 m( R+ J5 a* p( E
  43. Format/Info                              : Audio Coding 39 n, z" U! y9 o) \" N: \
  44. Mode extension                           : CM (complete main)
    1 }/ F( U6 t: J/ k9 N! E
  45. Format settings, Endianness              : Big
    6 C, g9 ]. c5 h! U6 W4 x
  46. Codec ID                                 : A_AC3
    * {0 T. U6 _3 D: G/ |- K- e
  47. Duration                                 : 6mn 34s
    ( k" x5 [" U. Y- g% b
  48. Bit rate mode                            : Constant
    * J4 d1 Y& R, }( k7 Z8 W& p
  49. Bit rate                                 : 640 Kbps0 G8 H8 {0 {0 H* H( Q' h9 F7 a1 e
  50. Channel(s)                               : 6 channels
    5 B% f3 T. w" t0 `0 {
  51. Channel positions                        : Front: L C R, Side: L R, LFE1 [: P' e) Q: Y" X: p& x1 s
  52. Sampling rate                            : 48.0 KHz
    5 B' r3 r7 [" R& q0 h8 g3 v
  53. Bit depth                                : 16 bits. N, s1 K& C, v8 a0 j
  54. Compression mode                         : Lossy
      [* x0 ^4 l1 V3 V& E5 I
  55. Stream size                              : 30.1 MiB (11%)$ R9 l, k4 S( ~( k
  56. Title                                    : DD5.1 640Kbps0 Z7 [1 R7 v) J9 V- Q
  57. Language                                 : English
    6 f$ H+ f% R3 |& b7 ^; {
  58. Default                                  : Yes# @- b8 l. d( Q% j* E
  59. Forced                                   : No, W; p$ ~# }7 `/ k# i) }* U* X

  60. " d- f% B6 U9 U/ K+ p# D$ v
  61. Audio #2' U: ?' }* m4 v0 V) _
  62. ID                                       : 3% \8 y) b* C% a, v
  63. Format                                   : AC-3
    " u6 D1 v6 X0 `
  64. Format/Info                              : Audio Coding 31 ^' j. g$ E& G! Y: |8 a" m
  65. Mode extension                           : CM (complete main)
    , t: A% w, m3 b( d7 d7 U
  66. Format settings, Endianness              : Big( J% a: ^9 o: x6 i; S* I
  67. Codec ID                                 : A_AC3. h' r4 f# }$ z  |
  68. Duration                                 : 6mn 34s
    6 Z( F, C8 J1 n- O: o
  69. Bit rate mode                            : Constant3 I3 m+ w/ J  G7 l
  70. Bit rate                                 : 640 Kbps
    8 Q! r) K: M  x: p) x
  71. Channel(s)                               : 6 channels
    4 T9 F' y& @- b" F, l7 w
  72. Channel positions                        : Front: L C R, Side: L R, LFE5 |. k4 s( W4 E" N) W% G
  73. Sampling rate                            : 48.0 KHz
      b% J2 q. }7 [; m$ X9 |
  74. Bit depth                                : 16 bits$ N& e4 {' q6 U0 q/ p
  75. Compression mode                         : Lossy
    2 k/ i7 T/ u# r# F
  76. Stream size                              : 30.1 MiB (11%)
    / g- f) D" L6 P( k- p4 J- P/ b, I
  77. Title                                    : DD5.1 640Kbps(国语1)
    3 ^9 n' J/ X5 g5 _- Y
  78. Language                                 : Chinese
    , d) y/ {) T4 U9 a
  79. Default                                  : No
    " r8 x* x, Q8 R
  80. Forced                                   : No
    * F/ G0 s1 V" X. h0 ?

  81. 8 v& L" M4 @, {( h
  82. Audio #3
    8 n! w: S4 R' ]% m9 f" A/ n
  83. ID                                       : 4
    / U) r$ r$ M: v3 w7 E
  84. Format                                   : AC-3
    0 m, ~7 U  z' [/ ?6 e& H+ s$ D/ P5 {
  85. Format/Info                              : Audio Coding 3
    ' c% H) I+ ^: R" d+ T, ~8 Z" R
  86. Mode extension                           : CM (complete main)
    ( F$ O: V+ S( e9 o
  87. Format settings, Endianness              : Big
    " o. @# w- z' v, Q. `
  88. Codec ID                                 : A_AC3* X$ t) C: i' N1 Z1 ]' `. K
  89. Duration                                 : 6mn 34s
    % g$ D& X6 \8 J  U1 _  B
  90. Bit rate mode                            : Constant* C1 O8 f7 p0 i6 D8 I
  91. Bit rate                                 : 640 Kbps
    ! u7 C6 q0 I) k$ [! m
  92. Channel(s)                               : 6 channels
    % f. S7 W; B; e0 ~4 `% [
  93. Channel positions                        : Front: L C R, Side: L R, LFE/ \, L/ x6 k; \8 i0 d) Q2 ]
  94. Sampling rate                            : 48.0 KHz
    5 D/ i  y$ E8 V4 i2 T2 m$ c6 v# ?
  95. Bit depth                                : 16 bits5 k: v; n" t0 Y" X0 S
  96. Compression mode                         : Lossy
    # E' }2 v( j( E
  97. Stream size                              : 30.1 MiB (11%)
    ) A) F0 g3 t, v7 Z) L" Y
  98. Title                                    : DD5.1 640Kbps(国语2)
    / j! g# B" L5 l6 H7 e4 e+ H$ y
  99. Language                                 : Chinese
    7 P: t1 @. w& P' I2 y. R* e6 }
  100. Default                                  : No6 |' P  o$ h' o/ {, S# X6 ?
  101. Forced                                   : No5 x: H1 `# O5 x
  102. 6 v+ W2 h4 d% i9 r! `
  103. Text #11 _0 ]8 n- d, z* p2 @! Q1 w8 `- L
  104. ID                                       : 5
    8 b# Y' U( i  A! }: y! }: g+ w
  105. Format                                   : PGS9 O# h& K5 |0 x! E- n  w
  106. Muxing mode                              : zlib0 l; R2 C8 {1 n7 u# e  L  ^- [
  107. Codec ID                                 : S_HDMV/PGS. r2 j; A+ h1 C( z
  108. Codec ID/Info                            : The same subtitle format used on BDs/HD-DVDs
    : A* }$ S  q7 @; Q
  109. Title                                    : 原盘英文
    ; w* m/ g' m- g% }) _
  110. Language                                 : English
    ) b* {' V" S  {$ a3 w3 U& h' c. b
  111. Default                                  : No6 F# N. ?* A6 z
  112. Forced                                   : No. P8 k9 C& F% n9 G9 l! [4 P" S2 I

  113. ' R) z( o3 i5 u$ H. Z) U
  114. Text #2+ p6 |( E- o- B' Q7 ?
  115. ID                                       : 6
    1 q/ k. x7 p/ q" m
  116. Format                                   : PGS
    * B- Y' j  h' h7 L3 D2 T
  117. Muxing mode                              : zlib, Q! s! F, }% X5 V3 {' I
  118. Codec ID                                 : S_HDMV/PGS
    ; C6 c# s- M) p- t+ K" @+ K+ W
  119. Codec ID/Info                            : The same subtitle format used on BDs/HD-DVDs# ?5 \2 M& \  \$ z. Z: N9 X
  120. Title                                    : 原盘简体中文
    & \; ?2 D% f% K* x6 _$ N5 I
  121. Language                                 : Chinese
    + A" _1 h+ W) a" F3 G( |4 h; m
  122. Default                                  : Yes
    7 S- m- B! m2 a
  123. Forced                                   : No$ Z# ?( I- f, v1 N# q* e' I3 W

  124. $ n$ Z( _8 Q) g% K* k, o( F
  125. Text #3
    * m2 E* U, J- s  L7 f' s
  126. ID                                       : 7
    + Z' o1 t, K9 n
  127. Format                                   : PGS
    : W& q$ Q! D* p
  128. Muxing mode                              : zlib
    ) h  h$ l+ l& Y( ?% ^% D9 R
  129. Codec ID                                 : S_HDMV/PGS
    & n% _1 j$ X; I
  130. Codec ID/Info                            : The same subtitle format used on BDs/HD-DVDs
      m5 Y, g. U3 e+ i3 n" [; z* Q' @
  131. Title                                    : 原盘简体中文(对应国语1)+ z9 v! @5 k8 D
  132. Language                                 : Chinese
    2 K- u* t7 o6 C+ l* h8 z8 V
  133. Default                                  : No
    , y2 l2 c/ n# B2 ^4 y6 }2 h7 g4 X
  134. Forced                                   : No
    1 W; w0 f9 J$ x3 x8 z9 ?

  135. ; A  O; F8 I, l* ~) C, Z$ C% F
  136. Text #4
    9 n# L4 S+ p4 H  e
  137. ID                                       : 87 T  E- a% @; K2 n& L1 l, n
  138. Format                                   : PGS2 C# ^& O. j' y$ Y$ r5 V
  139. Muxing mode                              : zlib
    0 b2 ~# P) O% w" X! f0 O  \
  140. Codec ID                                 : S_HDMV/PGS
      R! _: k' O/ ?% l2 t3 o* q+ i( a
  141. Codec ID/Info                            : The same subtitle format used on BDs/HD-DVDs; X  m4 Z* S! m* ?6 Z
  142. Title                                    : 原盘繁体中文(对应国语2)
    8 I7 @0 ?7 o6 M8 e
  143. Language                                 : Chinese# {3 v* j. F% d
  144. Default                                  : No, s$ q" _7 l& ~+ Z6 a) G! w
  145. Forced                                   : No
    ( C" I% e& p# N( S6 ~- u
  146.   a5 R2 f' Q* n3 k% n  b* `8 d( g
  147. Text #5
    ! U' z5 M. n3 T; H2 v* o1 Z: D
  148. ID                                       : 9
    4 K0 r7 i7 z! F
  149. Format                                   : PGS
    - n( D! R1 A- w* Z, P0 a7 g* n1 |
  150. Muxing mode                              : zlib* u8 a3 }* P5 ^1 O
  151. Codec ID                                 : S_HDMV/PGS# q8 E4 x+ i1 N' ~
  152. Codec ID/Info                            : The same subtitle format used on BDs/HD-DVDs6 U% x) w) m! S' J" f$ q0 K
  153. Title                                    : 原盘繁体中文
    , h7 x1 d7 ]. X& q
  154. Language                                 : Chinese( ?8 v% X& j6 F- G
  155. Default                                  : No
    4 R2 o  O& K- ^. w  Z. S( R
  156. Forced                                   : No
复制代码
) E" {6 [& a. p, N! G$ n

0 j( ^4 z+ p4 U- E* e7 U  w5 s9 Z/ N* m( Y/ g9 L8 M
游客,如果您要查看本帖隐藏内容请回复  捐助论坛可免回复查看隐藏内容 详情请点击
最近访问 头像模式 列表模式
HD一条街,身边的一条街。
netfox2008 该用户已被删除
发表于 2014-8-18 12:04:20 | 显示全部楼层
提示: 作者被禁止或删除 内容自动屏蔽
HD一条街,身边的一条街。
发表于 2014-8-18 12:10:07 | 显示全部楼层
果断回帖,如果沉了就是我弄沉的很有成就感
HD一条街,身边的一条街。
发表于 2014-8-18 12:10:15 | 显示全部楼层
HD一条街,是我心中的一条街
HD一条街,身边的一条街。
发表于 2014-8-18 12:29:35 | 显示全部楼层
又是一部7分钟的小电影,我喜欢,谢谢。
HD一条街,身边的一条街。
发表于 2014-8-18 13:28:05 | 显示全部楼层
进来支持下吧
HD一条街,身边的一条街。
头像被屏蔽
发表于 2014-8-18 13:28:43 | 显示全部楼层
提示: 作者被禁止或删除 内容自动屏蔽
HD一条街,身边的一条街。
huadi 该用户已被删除
发表于 2014-8-18 14:27:49 | 显示全部楼层
提示: 作者被禁止或删除 内容自动屏蔽
HD一条街,身边的一条街。
发表于 2014-8-18 15:33:09 | 显示全部楼层
看看再说吧
HD一条街,身边的一条街。
您需要登录后才可以回帖 登录 | 加入我们

本版积分规则

手机版|小黑屋|有问题发邮件到admin#(换成@)hd1tj.org|微博|免责申明|HD一条街

GMT+8, 2017-1-25 05:17

Powered by Discuz! X3.1

© 2001-2013 Comsenz Inc.

快速回复 返回顶部 返回列表