开启辅助访问 切换到窄版

HD一条街论坛

 找回密码
 加入我们
查看: 520|回复: 26

[720p] 玩具总动员之派对恐龙/玩具总动员之恐龙雷克斯/玩具总动员之抱抱龙大英雄 [国英3音轨] [原盘简繁英SUP字幕]Toy.Story.Toons.Partysaurus.Rex.2012.BluRay.720P.AC3.3Audio.x264-[email protected] 282M

[复制链接]
发表于 2014-8-18 11:31:41 | 显示全部楼层 |阅读模式
2 J+ s3 z- N& P. z5 W7 J; x
                               
登录/注册后可看大图
/ T$ B1 [% ^1 @3 Q* R

1 p1 D! ?+ E4 C
8 A% W+ c5 k/ u8 F
本影片封装有五条SUP字幕:原盘英文一条,原盘简体中文、原盘繁体中文各两条。其中一条简体中文对应国语1与一条繁体中文对应国语2。关于SUP字幕的播放,如有需要,下载后请参考文件夹中的“SUP字幕简单播放方法”。

. w: m$ C% e+ ?. \. R( T1 X: l$ R
0 |4 i! J, n+ l& [5 d* v! k% d
封装的SUP字幕,主要目的是让大家观影时多一个选择,但是如果你由于某种原因不满意,请无视它的存在。就当该影片没有封装任何字幕。你可以等待其他会员上传srt或ssa或ass字幕或自己制作字幕即可。

; Q( u0 U, w: ~4 T  w4 n+ a' ^
* O( i: n" {! J0 @" h2 G4 W; T9 [# W7 o2 _, @, B) \; \) P
※※※※※※※ 影片信息 ※※※※※※※8 w, @! y$ d$ H0 U# q8 h. i
# u% J' }6 H: X( C, c
◎片    名: Partysaurus Rex
, D7 F" ~6 V5 [+ Y1 u9 x◎译    名: 派对恐龙/恐龙雷克斯/抱抱龙大英雄
, c9 O: c5 O5 C# Q2 D8 [◎类    型: 喜剧 / 动画 / 短片
6 {( `$ a& w4 O( G; `, k◎制片国家/地区: 美国
7 V4 J/ w  P; N; x◎语    言: 英语/普通话* M0 h9 M: `( M- Z/ I6 [
◎字    幕:英文/简体中文/繁体中文/
5 w& K* k; I0 m* m3 i◎上映日期: 2012-09-14(美国). ?! P/ e* [7 g- ]1 P) d8 }
◎片    长: 7分钟
$ P! G- G2 n$ F7 X, l◎IMDb链接: http://www.imdb.com/title/tt2340678
% \' k; U4 G( O( s  C- x- [( p# t◎IMDB评分:7.7/10 (1513 votes)$ Z, x8 Q+ v9 }9 p/ C& D& L- \
◎导    演: Mark A. Walsh
% n$ k+ e6 T  v6 e6 F: i◎主    演: 汤姆·汉克斯 / Corey Burton / Tony Cox / 华莱士·肖恩 / Emily Hahn
6 M2 |  H! V% ~( a9 B% P# V$ _; g3 ~8 H" p9 Z
3 n: N: ~$ g' c- i
◎简  介: M8 ?4 c+ H7 Q  V

) A6 Y! U1 E/ I* \& U2 i2 L  与相濡以沫十几个年头的小主人告别后,胡迪、巴斯光年这群《玩具总动员》的好朋友们来到了新的小主人邦妮(艾米丽·哈恩 Emily Hahn 配音)家中继续他们的快乐生活。这一日,他们正在房间内游戏,可是笨乎乎的恐龙雷克斯(沃伦斯·肖恩 Wallace Shawn 配音)突然出现,搞砸了一切,蛋头先生气急败坏,甚至称它为“搞砸派对的雷克斯”。就在这时,邦妮决定找个玩具去洗澡,躲闪不及的雷克斯被她带入了浴室中。在邦妮的搜索游戏中,雷克斯扮演了一个冰海大恐龙,同时还结识了橡皮鸭、船长这群平常只待在浴室中的新朋友。 ; [* I  D6 h2 ^: v* q

1 j  f% l! s# E$ k  邦妮走后,浴缸的水渐渐抽空,橡皮鸭们倍感无趣。自称派对之王的雷克斯决定打开水龙头,为新朋友们开一个超级大派对,但是派对却朝着失控的方向发展……$ s' g  G$ y8 w/ D8 x
* n. w2 M2 n' j) ~: \
* W& g$ X" C$ d1 r/ f
※※※※※※※ 参数信息 ※※※※※※※
  1. General
    3 f5 I& D4 ^5 d4 I
  2. Unique ID                                : 191394934768184597415480279018762269780 (0x8FFD52D7EF65B58C91068762D0A1F454)% C' p# F8 u5 B& j' d& f5 r
  3. Complete name                            : O:\Partysaurus.Rex.2012.BluRay.720p.AC3.3Audio.x264-CMCT\Partysaurus.Rex.2012.BluRay.720P.AC3.3Audio.x264-CMCT.mkv7 ^8 F: ?5 V9 L" A+ |* d
  4. Format                                   : Matroska+ h) [. l( V: w) H* [' X
  5. Format version                           : Version 4 / Version 2
      R; J$ g3 D3 r% y# o
  6. File size                                : 282 MiB
    * T9 ^( p) R6 `5 Q7 I) Q8 B. }1 y
  7. Duration                                 : 6mn 34s- s% B$ b% w* F* I* E: O# l5 ~
  8. Overall bit rate                         : 6 003 Kbps9 @% Y- ~7 D7 c2 q1 @
  9. Encoded date                             : UTC 2014-08-16 13:33:200 @' Q9 E1 i3 _( B9 n2 u7 B4 q
  10. Writing application                      : mkvmerge v6.6.0 ('The Edge Of The In Between') built on Dec  1 2013 17:55:00
    # |' h) V; K2 G! v  C4 K& L- {
  11. Writing library                          : libebml v1.3.0 + libmatroska v1.4.12 E  r) [: ~) ]+ k
  12.   A  F( L: f$ P: ?" b* I. {- J+ O/ z$ X) X
  13. Video
      V" Z' e, h& p
  14. ID                                       : 1
    9 A5 W: H# K- l. V" O
  15. Format                                   : AVC/ ]9 W6 A& n) e1 v  G% v& v, X
  16. Format/Info                              : Advanced Video Codec1 r( x, k- H' W* F6 U
  17. Format profile                           : [email protected]
    9 V3 H9 v+ A8 ~. k1 R
  18. Format settings, CABAC                   : Yes! }/ @# b8 K) N! Z! J' E
  19. Format settings, ReFrames                : 9 frames
    ( x9 _8 G, o& _6 j
  20. Codec ID                                 : V_MPEG4/ISO/AVC
    ' `9 e* ~( x' V0 l
  21. Duration                                 : 6mn 34s* ?6 o0 }3 U4 h+ O- ^9 D
  22. Bit rate                                 : 4 000 Kbps$ V2 l7 I$ ~! P9 {: l2 x0 }; m' T
  23. Width                                    : 1 280 pixels/ x6 N( u6 R: S9 }
  24. Height                                   : 720 pixels  s3 Y; H: a1 a' J6 J1 X% @" y9 y/ p
  25. Display aspect ratio                     : 16:9& J; {3 V, P( A
  26. Frame rate mode                          : Constant6 G% l5 _( @6 u6 Q5 G
  27. Frame rate                               : 23.976 fps
    7 \: N' S3 O  _' Y
  28. Color space                              : YUV" |0 X; l. S  m" T2 Q
  29. Chroma subsampling                       : 4:2:0, P' v8 P( H5 r$ {9 w) @. K( F( J
  30. Bit depth                                : 8 bits6 l/ R) [. @9 V. ~: G2 `; b5 [9 j. x2 t
  31. Scan type                                : Progressive
    & S4 Q2 X; \! r
  32. Bits/(Pixel*Frame)                       : 0.181
    / F, a& ]9 m0 v: \* ~0 x
  33. Stream size                              : 186 MiB (66%)
    $ e- F% Y: W. b9 }
  34. Title                                    : Partysaurus Rex$ ?' x& H; I1 g# T& H
  35. Writing library                          : x264 core 142 r2431 ac76440
    / f. j# o; c0 G7 u2 o5 M
  36. Encoding settings                        : cabac=1 / ref=9 / deblock=1:-1:-1 / analyse=0x3:0x113 / me=umh / subme=11 / psy=1 / psy_rd=1.10:0.15 / mixed_ref=1 / me_range=48 / chroma_me=1 / trellis=2 / 8x8dct=1 / cqm=0 / deadzone=21,11 / fast_pskip=0 / chroma_qp_offset=-3 / threads=16 / lookahead_threads=1 / sliced_threads=0 / nr=0 / decimate=1 / interlaced=0 / bluray_compat=0 / constrained_intra=0 / bframes=6 / b_pyramid=2 / b_adapt=2 / b_bias=0 / direct=3 / weightb=1 / open_gop=0 / weightp=2 / keyint=240 / keyint_min=23 / scenecut=40 / intra_refresh=0 / rc_lookahead=60 / rc=2pass / mbtree=1 / bitrate=4000 / ratetol=1.0 / qcomp=0.60 / qpmin=10 / qpmax=51 / qpstep=4 / cplxblur=20.0 / qblur=0.5 / vbv_maxrate=40000 / vbv_bufsize=30000 / nal_hrd=none / filler=0 / ip_ratio=1.40 / aq=1:1.00: z5 }0 |6 e; U* l
  37. Default                                  : Yes, P& ]3 x( h# \: o
  38. Forced                                   : No
    1 E* h# j7 {9 M; d2 N  G, j6 u5 w
  39. : k9 O" G) h% |( g
  40. Audio #1
    . f, ]) X: s$ N5 X
  41. ID                                       : 26 f* H& Q6 w) {5 F  t- H
  42. Format                                   : AC-3  f# Z; o3 l, u$ I1 w
  43. Format/Info                              : Audio Coding 3
    1 X0 F: z" N  m- j% i' {
  44. Mode extension                           : CM (complete main)
    7 u5 P) g4 u, e9 e, I$ f0 W# d
  45. Format settings, Endianness              : Big
    $ I' R! r* V) c6 i+ M
  46. Codec ID                                 : A_AC3% m, j* L: V8 m$ o2 V3 G
  47. Duration                                 : 6mn 34s
    6 t, [2 P) {) V8 [
  48. Bit rate mode                            : Constant
    # F( s: x, S+ `; H& D
  49. Bit rate                                 : 640 Kbps2 j# b% M! v$ q, _" ^( r& q" L; I
  50. Channel(s)                               : 6 channels9 I8 s7 x  P3 M) C% G
  51. Channel positions                        : Front: L C R, Side: L R, LFE
    ( M5 R9 g/ ]' T6 t: \
  52. Sampling rate                            : 48.0 KHz2 _$ e- |) U) _0 t3 c5 Y
  53. Bit depth                                : 16 bits. D* l4 E8 x3 e, B5 w2 b8 k0 `
  54. Compression mode                         : Lossy: `( o5 H* e) J# \6 ?1 _
  55. Stream size                              : 30.1 MiB (11%)
    ( u7 d* V8 `' n
  56. Title                                    : DD5.1 640Kbps) E8 O: k  q% o- G0 I5 D5 c) f
  57. Language                                 : English
    5 O8 U* S' _& ~+ a6 }
  58. Default                                  : Yes
    6 Z# |% p4 S5 N. g
  59. Forced                                   : No, `4 e5 `# e. q& ?
  60. ) ?) D1 [9 k9 V! s) z; H/ @
  61. Audio #2
    . w! m4 Q- Z- [, E
  62. ID                                       : 3, ~8 P- ]( w8 @
  63. Format                                   : AC-31 K3 k2 g: T) g& K, i/ `. ^
  64. Format/Info                              : Audio Coding 3
    & q, l% ]" z* _, s0 w
  65. Mode extension                           : CM (complete main)" J- ?/ d$ ?0 @7 X% ]* a
  66. Format settings, Endianness              : Big: B, B' q6 R- U. t) R
  67. Codec ID                                 : A_AC3
    7 {, ~5 V4 @# s0 s
  68. Duration                                 : 6mn 34s- A4 d6 r4 D1 x! o1 a2 X# {# L
  69. Bit rate mode                            : Constant3 d* x, h( q/ w' J* i
  70. Bit rate                                 : 640 Kbps9 P! K. t1 D5 _: ^
  71. Channel(s)                               : 6 channels) j+ o. ^4 `6 S
  72. Channel positions                        : Front: L C R, Side: L R, LFE
    ) h. T) \8 D5 w9 X# @. d
  73. Sampling rate                            : 48.0 KHz
    7 }" c0 t! I( Z* z
  74. Bit depth                                : 16 bits5 I; [7 y% ~: S3 W# s
  75. Compression mode                         : Lossy1 Q) e) x  Y, n1 @
  76. Stream size                              : 30.1 MiB (11%). H0 p8 T) s% g
  77. Title                                    : DD5.1 640Kbps(国语1)
    # z4 f* m8 _4 S1 `7 I: ~
  78. Language                                 : Chinese! \! e9 o& D3 F, w; B
  79. Default                                  : No
    , D2 o# Z; `9 U- @; ]2 C) d
  80. Forced                                   : No
    # K6 S( g! u& ~' Y
  81. 2 r' O0 i$ g( S  N& w/ a6 ~9 ^+ ]
  82. Audio #3
    " \' F- |! x3 ]$ A; V8 E, r
  83. ID                                       : 4. E/ t! h, R/ h( P; G& S
  84. Format                                   : AC-31 ~$ _/ I1 w' i# x4 W
  85. Format/Info                              : Audio Coding 3/ {+ P% c  a+ [5 d
  86. Mode extension                           : CM (complete main)
    9 I7 B5 B- b( {+ \" s
  87. Format settings, Endianness              : Big
    ' k% M% Y1 w: d+ A1 {- X
  88. Codec ID                                 : A_AC3
    1 V3 T( N, [% c5 e
  89. Duration                                 : 6mn 34s! @6 h7 W# U* a8 n: s( F6 h5 B
  90. Bit rate mode                            : Constant9 v4 q0 [2 h9 I, @% |
  91. Bit rate                                 : 640 Kbps
    . P2 R0 {& V6 ~
  92. Channel(s)                               : 6 channels" v, i# `* M- {  v+ q- Y$ b, a
  93. Channel positions                        : Front: L C R, Side: L R, LFE( P0 ?! n5 j. V7 R
  94. Sampling rate                            : 48.0 KHz
    8 R% U3 J9 u5 H/ U
  95. Bit depth                                : 16 bits
    5 r# h3 v) q! O
  96. Compression mode                         : Lossy
    & O' C! m8 j/ p% h
  97. Stream size                              : 30.1 MiB (11%)# {0 b6 n( }9 ^4 X% f' T% Y- ]
  98. Title                                    : DD5.1 640Kbps(国语2)
    2 z1 m. J$ y; y; u8 l3 g' E( v6 J
  99. Language                                 : Chinese
    8 ~% O( x$ B" g6 i1 G5 `' o
  100. Default                                  : No
    ( b6 d- R3 M/ P& |
  101. Forced                                   : No
    : R  H" M! q- Q$ ?% D* d8 C* x6 F

  102. ( ^1 d5 \, z9 ]1 \6 o7 W- r
  103. Text #1
    5 D* O) \/ q. @# W( P7 N9 _
  104. ID                                       : 5
      o. d" c% H/ S7 E6 O# d
  105. Format                                   : PGS
    0 Y2 q( {+ F4 b1 x9 U( _. r
  106. Muxing mode                              : zlib2 h9 x7 ]: ~+ d4 ~3 G4 [9 d0 P
  107. Codec ID                                 : S_HDMV/PGS
    2 I" W; b, x1 |* R
  108. Codec ID/Info                            : The same subtitle format used on BDs/HD-DVDs: U9 b. v: s, D7 O2 s( y) K
  109. Title                                    : 原盘英文! a3 I* a' ^, E3 a3 n/ J+ V
  110. Language                                 : English  n0 d" m& T' X
  111. Default                                  : No
    3 B+ D; G( p+ B  d6 e5 l
  112. Forced                                   : No
    : W& I+ i( c* ]
  113. ' m* Z' U3 ?2 K
  114. Text #2
    4 Z' l# p7 P8 T
  115. ID                                       : 6# B/ c% ~5 J3 V; q! F
  116. Format                                   : PGS
    1 b8 m1 k6 q: P7 k* P1 _( f
  117. Muxing mode                              : zlib
    ! k% w/ J! \3 k0 `. k6 c
  118. Codec ID                                 : S_HDMV/PGS
    4 w4 B8 h6 q/ t/ q
  119. Codec ID/Info                            : The same subtitle format used on BDs/HD-DVDs
    ) B/ ~7 q$ k3 T! e& k8 I6 P
  120. Title                                    : 原盘简体中文* X3 @7 Q1 V6 R1 o
  121. Language                                 : Chinese! T1 g" f) t# ^, E
  122. Default                                  : Yes7 a+ v$ I8 _0 o  ]0 {( {4 j
  123. Forced                                   : No! V! |. r2 f/ m# U6 K4 P) F

  124. 0 A  F: }% O6 M* g. R; \. j0 K( w
  125. Text #3
    ; s& ~: k% q' B0 l. U2 Q# s
  126. ID                                       : 7
    + o; U$ k) X7 b8 d' g. P
  127. Format                                   : PGS
    2 l8 |( t2 j) I
  128. Muxing mode                              : zlib7 z8 L1 }) R5 f1 T
  129. Codec ID                                 : S_HDMV/PGS4 _' G4 }2 Z( Z
  130. Codec ID/Info                            : The same subtitle format used on BDs/HD-DVDs: Y! k8 |1 s7 E& ~! [
  131. Title                                    : 原盘简体中文(对应国语1)7 u" x2 d' q2 T
  132. Language                                 : Chinese
    . M+ P6 w+ g- x4 n1 ^6 l
  133. Default                                  : No
    4 V/ z& {5 F6 _3 V/ q9 p' w
  134. Forced                                   : No
    0 D$ M- Z$ {4 l  y

  135. 2 C3 p6 j# c% M
  136. Text #4
    5 q! ^; H5 y: A- h8 u$ Z
  137. ID                                       : 8
    - w/ F* D* J) T% _/ Z
  138. Format                                   : PGS
    8 o% ^# z1 t7 q7 k5 j' Z; C
  139. Muxing mode                              : zlib
    ' ?7 |! h0 e  |! |6 a3 o1 [
  140. Codec ID                                 : S_HDMV/PGS
    8 L/ @0 a5 \# `" o* ^2 y
  141. Codec ID/Info                            : The same subtitle format used on BDs/HD-DVDs
    / @  ?) \% G- ]- A
  142. Title                                    : 原盘繁体中文(对应国语2)0 D* s7 G( u3 k$ T
  143. Language                                 : Chinese
    3 W  N1 e# K/ I) L
  144. Default                                  : No+ K2 u' o$ L4 b% D4 I8 t8 c
  145. Forced                                   : No
    3 e6 C* [# u+ a% V' y$ N

  146. 2 A/ v+ \6 P: C! r/ }) M
  147. Text #5$ e8 x& a. {7 s# p# S
  148. ID                                       : 9& K) u8 e' b0 o2 V3 C. Z% ^4 H& Q6 E
  149. Format                                   : PGS
    " p7 i/ M; _* S! K- o
  150. Muxing mode                              : zlib
    + H6 d, Z  g' E% C3 K
  151. Codec ID                                 : S_HDMV/PGS
    ) P9 g. v- B, b" G2 M
  152. Codec ID/Info                            : The same subtitle format used on BDs/HD-DVDs2 y, x4 g2 \3 s7 H  W. C2 V9 D
  153. Title                                    : 原盘繁体中文" ]/ f' G& ~& d' r
  154. Language                                 : Chinese7 G0 k3 q) G  Z: @/ Z4 N1 Z0 t9 G
  155. Default                                  : No
    2 ]# I$ x# b4 ]* j" l5 z% Q' b
  156. Forced                                   : No
复制代码
- G4 w7 j8 T, R; Z' E  f

' G; X# M' r# z0 \, Q/ n5 Z" B
, b, M0 F( z4 ~8 ~" P
游客,如果您要查看本帖隐藏内容请回复  捐助论坛可免回复查看隐藏内容 详情请点击
最近访问 头像模式 列表模式
HD一条街,身边的一条街。
netfox2008 该用户已被删除
发表于 2014-8-18 12:04:20 | 显示全部楼层
提示: 作者被禁止或删除 内容自动屏蔽
HD一条街,身边的一条街。
发表于 2014-8-18 12:10:07 | 显示全部楼层
果断回帖,如果沉了就是我弄沉的很有成就感
HD一条街,身边的一条街。
发表于 2014-8-18 12:10:15 | 显示全部楼层
HD一条街,是我心中的一条街
HD一条街,身边的一条街。
发表于 2014-8-18 12:29:35 | 显示全部楼层
又是一部7分钟的小电影,我喜欢,谢谢。
HD一条街,身边的一条街。
发表于 2014-8-18 13:28:05 | 显示全部楼层
进来支持下吧
HD一条街,身边的一条街。
头像被屏蔽
发表于 2014-8-18 13:28:43 | 显示全部楼层
提示: 作者被禁止或删除 内容自动屏蔽
HD一条街,身边的一条街。
huadi 该用户已被删除
发表于 2014-8-18 14:27:49 | 显示全部楼层
提示: 作者被禁止或删除 内容自动屏蔽
HD一条街,身边的一条街。
发表于 2014-8-18 15:33:09 | 显示全部楼层
看看再说吧
HD一条街,身边的一条街。

手机版|小黑屋|有问题发邮件到admin#(换成@)hd1tj.org|微博|免责申明|HD一条街

GMT+8, 2017-3-26 05:50

Powered by Discuz! X3.1

© 2001-2013 Comsenz Inc.

快速回复 返回顶部 返回列表