HD一条街

 找回密码
 立即注册
搜索
查看: 806|回复: 20

[演唱会] 艾爾頓約翰 凱撒宮-百萬鋼琴演唱會 Elton.John.The.Million.Dollar.Piano.2014.720p.BluRay.x264.DTS-

[复制链接]
发表于 2014-7-19 00:20:19 | 显示全部楼层 |阅读模式

马上注册,结交更多好友,享用更多功能,让你轻松玩转社区。

您需要 登录 才可以下载或查看,没有帐号?立即注册

x
% r, v; c0 y. i+ E0 z: ^& x) E- F
                               
登录/注册后可看大图
: |3 i  H1 ~. K7 J- |- V2 s% ]

$ a) n+ h5 s# O( x" l
/ i, ?" u) s* O8 B2 n' wInfo:( C/ t4 |( Q" _. ?7 U
Name: Elton John: The Million Dollar Piano
; _" V1 B6 j! A$ d$ k/ T+ U# A/ F  DYear: 2014
& }5 E" g* J! f- L3 C" ]Duration: 01:51:10.030
  e9 G$ b1 d; Y4 u7 lGenre: Rock, Pop Rock, Glam Rock, Soft Rock, R&B
: v; N4 \& V, P; _! E6 X* p/ Z; v, i% D7 O  A& a8 B
Description:
5 H# b$ c8 A" V5 B$ b; V/ VElton John’s “The Million Dollar Piano” is a residency at the Colosseum at Caesars Palace in Las Vegas. The show has been running since September 2011 with the most recent leg being 16 shows between March 29 and April 26 2014. The concerts are the culmination of Elton John’s decades long partnership with Yamaha pianos. This film features classic Elton John tracks from across his extraordinary career performed either with his band, with percussionist Ray Cooper or solo. The multimedia staging is extraordinary with vast screens behind the stage illustrating the songs and the piano itself acting as a screen for graphics and animations. Elton John is the ultimate live showman and this is the definitive Elton John concert experience.
0 m: p5 z! E. \/ a  T1 c/ H5 r& ^$ s& q9 t8 N
Tracklist:
$ i8 }& k: c5 K1 |, @! N0 o01. The Bitch Is Back9 _# N: l" y9 D$ F* ^
02. Bennie And The Jets. h. c1 f1 t! q
03. Rocket Man) d4 F# a. R' [% l. F( h+ l; c" r
04. Levon  Q) v  a. y7 C2 \. \2 p, T7 k
05. Tiny Dancer
' y: s% ]- m! @1 x* j, R& U06. Your Song
2 x$ y; [+ A- H7 C. a& B07. Mona Lisas And Mad Hatters% c4 a6 a+ X( `" i& |8 J* J* R0 w
08. Better Off Dead3 @. W/ q4 M2 _7 I3 h" m" V$ r! n
09. Indian Sunset
' m  `7 n+ s$ C. V10. Blue Eyes, I$ e7 s2 m4 }3 Q3 C
11. Goodbye #FF0000 Brick Road! ?0 F7 w) f0 r% ~1 e+ v6 o
12. I Guess That\'s Why They Call It The Blues
' q. u, ]# Q" s6 w9 q13. Don\'t Let The Sun Go Down On Me
3 T3 Q! u" M- H& H- g  b# S14. Philadelphia Freedom& A3 h! q1 _# T9 R; [& Z; M
15. I\'m Still Standing: S' h  f. `6 `' m6 U/ y2 ^8 e) k: J
16. Crocodile Rock* q* _- P1 ], V: |: E/ d8 [
17. Saturday Night\'s Alright For Fighting
" H1 Q- M2 X! r: g6 M18. Circle Of Life
  u- i* l! ?, f# V+ `) t19. Song For Guy
  1. Video
    ! L0 ^! B! L. r1 a5 t# ]
  2. ID                                       : 1, m4 }6 M" P. D( y+ U
  3. Format                                   : AVC0 B" ~( J5 g5 G# D2 _
  4. Format/Info                              : Advanced Video Codec
    & ~: u: U, C  f. ]& c8 V8 l
  5. Format profile                           : High@L4.1
    , y) e' ?) o& |' a# B8 }2 ?( Z
  6. Format settings, CABAC                   : Yes! c% R$ r/ O0 W  a8 @1 h
  7. Format settings, ReFrames                : 4 frames
    & I* Q& Y1 I6 N' S* I& g' j+ u
  8. Codec ID                                 : V_MPEG4/ISO/AVC' |; D( {$ l0 u* l. z
  9. Duration                                 : 1h 51mn+ A0 r' Y, ]; g6 S2 i! x' U
  10. Bit rate                                 : 5 500 Kbps2 C: O+ ~  ]4 W
  11. Width                                    : 1 280 pixels
    - r( u3 F- W! P; c
  12. Height                                   : 720 pixels
    ' O9 S. t9 K# @% L( {
  13. Display aspect ratio                     : 16:9! ?( m. o3 Z4 R5 N+ w$ U
  14. Frame rate mode                          : Constant7 x+ A- p' i% A, B+ T( d5 F
  15. Frame rate                               : 29.970 fps6 |( d2 I# E% @- Z" J8 `0 G
  16. Color space                              : YUV, L/ F) N; l8 }" y- X7 H
  17. Chroma subsampling                       : 4:2:0+ d$ E& R9 ]( p% V# u5 w; e
  18. Bit depth                                : 8 bits1 x. ?4 J$ K8 r; T2 {" f( [7 I8 D
  19. Scan type                                : Progressive
    " {! B; W" v( J2 n9 I
  20. Bits/(Pixel*Frame)                       : 0.199
    - ]2 J2 N- y. y- k* m% |3 i6 V
  21. Stream size                              : 4.16 GiB (76%)
    5 }9 X% \; J( m: s! b0 f
  22. Title                                    : Elton.John.The.Million.Dollar.Piano.2014.720p.BluRay.x264.DTS-RARBG
    5 k2 w  Y. E- r  b
  23. Writing library                          : x264 core 142 r2431 ac76440
    : F3 m: v2 N9 b2 O/ F1 m" f
  24. Default                                  : Yes
    9 v5 |% `! Y( {2 \
  25. Forced                                   : No% p3 K* V- `  V0 b& B  {
  26. Color primaries                          : BT.709, w8 S1 B' n5 c$ R( C* N- l  j
  27. Transfer characteristics                 : BT.7091 W, R0 U6 `- _, M& z* }- c: q: O
  28. Matrix coefficients                      : BT.7099 }0 v$ J' X+ H2 s
  29. 6 T1 y2 n2 D0 k
  30. Audio
    / e* Q' w! U; {" v. b8 _
  31. ID                                       : 2* @7 ~% D( A' y
  32. Format                                   : DTS
    & D9 W  p6 n6 W" d7 Z
  33. Format/Info                              : Digital Theater Systems; C9 o6 K# f! h7 C# t) F
  34. Mode                                     : 161 G! V/ c! C7 Q
  35. Format settings, Endianness              : Big5 b& \9 d: J% h3 x, G5 P3 H1 K
  36. Codec ID                                 : A_DTS" z8 ^* H( u% }! K% l
  37. Duration                                 : 1h 51mn5 M! D( K) e, ^" F
  38. Bit rate mode                            : Constant
    * n" N$ z+ c6 F
  39. Bit rate                                 : 1 509 Kbps3 v+ u: ~# a7 @# H) g8 I+ e
  40. Channel(s)                               : 6 channels& s7 J) a) r- J+ @+ g
  41. Channel positions                        : Front: L C R, Side: L R, LFE
    " m1 _- w. z, w' y$ L* P* @- N
  42. Sampling rate                            : 48.0 KHz
    ' s0 z6 [$ ~8 W: {
  43. Bit depth                                : 24 bits. {* M3 \) k  ?/ q3 c& y
  44. Compression mode                         : Lossy
    4 F, u; _% k( q; T/ P* X
  45. Stream size                              : 1.17 GiB (22%)
    " r' N* S2 L  \  d
  46. Title                                    : Elton.John.The.Million.Dollar.Piano.2014.720p.BluRay.x264.DTS-RARBG
    3 j. ~7 s- J. g" e, D9 ]* J
  47. Language                                 : English
    % d3 {$ w5 m( D  Y& Z
  48. Default                                  : Yes
      v7 g9 V+ L( \' X
  49. Forced                                   : No
复制代码
7 z9 H" c8 n8 L" t) Q0 V
! e  l! V& {8 M% h0 n/ [

2 S; n0 e& w5 i6 l- f" P% T6 n2 z+ `# B$ S  s% u) K% i

! k* I; x! J/ T* d' C2 g4 e( }$ g1 l: f: Q( o

% p" Z3 ]& O- B3 T& d3 b; d! M! i" L
( v. G8 I5 ^5 b9 F, `4 F% A1 Q6 V( C9 n6 d4 j( S

5 F% F1 e3 r5 ^# s8 p) p9 m
游客,如果您要查看本帖隐藏内容请回复  VIP可免回复查看隐藏内容 详情请点击
hjmiao 该用户已被删除
发表于 2014-7-19 08:30:34 | 显示全部楼层
提示: 作者被禁止或删除 内容自动屏蔽
发表于 2014-7-19 11:38:09 | 显示全部楼层
hao de bu de liao
发表于 2014-7-19 18:03:17 | 显示全部楼层
HD一条街,是我心中的一条街
发表于 2014-7-19 18:04:06 | 显示全部楼层
楼主,不论什么情况你一定要hold住!hold住就是胜利!
cnop9 该用户已被删除
发表于 2014-7-21 18:35:20 | 显示全部楼层
提示: 作者被禁止或删除 内容自动屏蔽
xgtde65 该用户已被删除
发表于 2014-7-21 20:32:43 来自手机 | 显示全部楼层
提示: 作者被禁止或删除 内容自动屏蔽
db2q8e 该用户已被删除
发表于 2014-7-21 21:53:51 | 显示全部楼层
提示: 作者被禁止或删除 内容自动屏蔽
felix5544 该用户已被删除
发表于 2014-7-21 22:08:07 | 显示全部楼层
提示: 作者被禁止或删除 内容自动屏蔽
kkok 该用户已被删除
发表于 2014-7-22 18:34:51 | 显示全部楼层
提示: 作者被禁止或删除 内容自动屏蔽
您需要登录后才可以回帖 登录 | 立即注册

本版积分规则

QQ|封号公示|有问题发邮件到admin#(换成@)hd1tj.org|微博|免责申明|HD一条街

GMT+8, 2021-4-13 21:44

快速回复 返回顶部 返回列表