开启辅助访问 切换到窄版

HD一条街论坛

 找回密码
 立即注册
搜索
查看: 705|回复: 24

[其它] 维多利亚一号/維多利亞壹號[粤语 英文字幕] Dream.Home.Wai.dor.lei.ah.yut.ho.2010.DVDRip.Xvid.Eng.Subtitles.LKRG 878M

[复制链接]
发表于 2014-5-15 22:43:03 | 显示全部楼层 |阅读模式

9 K, O' q4 A4 ^                               
登录/注册后可看大图

; Q! U) i3 }8 Q+ ~$ {
$ Y, s6 I& B3 \3 B  N7 j- \4 I( T5 Y- V+ r5 E, k  t
导演: 彭浩翔& u1 j8 L* I; @% M  k! S
编剧: 彭浩翔 / 曾国祥 / 尹志文3 v6 L( W- C6 t5 ?) U/ z7 v
主演: 何超仪 / 陈奕迅 / 周俊伟 / 曾国祥 / 单立文 / 王青 / 卢海鹏 / 麦浚龙 / 叶璇 / 徐少强 / 鲍起静 / 宋娟 / 周楚楚 / 骆应钧 / 陈伟雄
. z) H! k& j; a, m# Z类型: 剧情 / 动作 / 惊悚 / 犯罪: A7 b! \0 {8 ^) I' ~7 m, L+ ?
制片国家/地区: 香港) b" c- H& ]7 z0 `" [
语言: 粤语
1 E: W$ ~: K: O. A: b4 E上映日期: 2010-05-13$ B/ H9 G3 l( B# A/ W
片长: 96分钟" y7 _7 w0 R* b! t- W, w
又名: 维多利亚的港湾 / Dream Home
2 G1 b8 [: f/ B. a5 eIMDb链接: http://www.imdb.com/title/tt14079725 O  t9 u* x* `* X
# k/ e4 }* \$ v% B
维多利亚一号的剧情简介  ·  ·  ·  ·  ·  ·
5 H: h, K( @  ?3 s  某银行话务员邓丽嫦(何超仪 饰)自幼生长在一个平民家庭,她始终有一个情结,那就是努力赚钱买一套可以看得见大海的房子。为了这个目标,阿嫦努力工作,下班后还干着两份兼职,甚至和同事利用职务之便聚敛外快。眼看就要存够豪华大厦维多利亚一号的首付,但是偏偏赶上楼市疯涨的时候,签合同当天房主反悔,宁可赔付违约金也不愿按原价出售。为了房子而不懈努力的阿嫦遭受巨大打击,在万圣节前夜,这个几近崩溃的女子带着一身杀意走进了维多利亚一号……
0 b+ V. l% Q4 p  本片在香港上映时被评为三级片,港三正版DVD发行时正片删掉5分钟左右过激镜头,被删镜头以花絮形式附录DVD中
( ?* G; {5 u* v4 p7 }7 T$ [: r: `' l4 [4 j4 m
维多利亚一号 維多利亞壹號 获奖情况
$ a; U% R9 ^" L" M7 p3 a+ @第47届台北金马影展 (2010)
' w2 e& L! r$ y8 S
$ ?" |. d( o' m6 g8 z金马奖 最佳视觉效果(提名) 何培坚 / 梁伟杰 / Vitaya Deerattakul / 连凯 / 吴炫辉 / 王英豪
9 x6 h0 r- |+ v% H3 f2 M4 |第30届香港电影金像奖 (2011)
; _) d' ~+ a2 M6 v  c
" E' x# h* R& K" e: O最佳女主角(提名) 何超仪4 l5 Z5 h7 E# M/ u* K
最佳音响效果(提名) 杜笃之. v% ~% Z9 `; [* f$ i/ ?+ Q% V  i& `
最佳视觉效果(提名) 吴炫辉 / 王英豪 / 何培坚 / 连凯
  1. Runtime ..........: 1h 32mn
    : B* f; b. O& @! s
  2. # X9 v/ A, E% I. g  U# A
  3. File Size ........: 878 MB
    2 E( s* @. E( h' ^) ^* [" U
  4. 5 d" y+ H3 V8 p
  5. Resolution .......: 720 x 352, z) H7 l7 O/ ?! L  E; i
  6. ; w# ?) l. Q: n% W+ j; F
  7. IMDb URL .........: http://www.imdb.com/title/tt1407972/?ref_=nv_sr_2* p' l2 H" C; Q$ J6 J0 W+ w, E

  8. : t7 I& C4 U; e
  9. Genre ............: Horror,Drama
    ' v6 q. t% B8 o6 c  h

  10. % S) r( n0 X; S! B; [
  11. Language .........: Cantonese
    4 z; k  e  \7 S( h
  12. 8 n4 P9 J, w5 O' O( H. N, q+ B
  13. Subtitles ........: English0 |% H/ Q; y' V/ v

  14. % }5 {- V, z7 p# w4 L
  15. Complete name                            : Dream Home Wai dor lei ah yut ho 2010 DVDRip Xvid Eng Subtitles LKRG\DH_Wai dor lei ah yut ho_LKRG.avi& |9 g1 y9 g/ d9 _
  16. 7 i" R" Z1 K  |6 M. y7 F# g9 ]
  17. Format                                   : AVI
      E( v6 p- ]- `/ ~& [

  18. " w* N2 D$ l8 B# {9 \
  19. Format/Info                              : Audio Video Interleave% m  F- {( c# F$ O% N, [

  20. / ~; C% z9 }" s
  21. File size                                : 878 MiB
    8 k/ l# j( w4 [* D

  22. 6 h, P5 M8 O( A" \
  23. Duration                                 : 1h 32mn9 e% m) D# `9 c* C, ^
  24. 3 I( M* t8 J/ v" j4 ?$ w
  25. Overall bit rate                         : 1 329 Kbps
    ; ?7 @( F) _3 B1 T% \. T4 ]. e
  26. % J6 W3 o" _* d/ R% O
  27. Writing application                      : VirtualDubMod 1.5.10.2 (build 2540/release), _) }! v  o" J
  28. ' D. q" Y7 ~) c# y: u
  29. Writing library                          : VirtualDubMod build 2540/release' |& o1 ]: g9 o8 B; Z# s" w3 ^, h
  30. 0 o- s0 A( z+ {6 T- D+ k0 N
  31. Video+ i8 s, |6 c1 X7 @7 {. o

  32. 3 S  X0 d+ e9 G2 G" @
  33. ID                                       : 0
    / E' d/ G" O1 t6 k

  34. 8 Z& p3 t- a, Z& X
  35. Format                                   : MPEG-4 Visual% Q, r4 J2 V& Y& N8 F: H; `

  36. , H6 p* u0 C; B7 K
  37. Format profile                           : Advanced [email protected]* n: ?1 `7 M! D* N" z4 j

  38. , b6 k; ]" S5 Z. ?1 j9 Y. T5 |% W$ z  `
  39. Format settings, BVOP                    : 2* {7 \  V) p6 v  S

  40. ! V) {4 E9 B4 M; r. F
  41. Format settings, QPel                    : No$ \- h- x/ O: i* |8 G& l* O

  42. 3 n4 Y% B0 U$ p& F) `; w
  43. Format settings, GMC                     : No warppoints0 d/ w% S6 v4 O
  44. 4 x; P! X1 ~: n/ c2 [( J
  45. Format settings, Matrix                  : Default (H.263)  H- H' E) [  ~& e7 _  B3 ?, x

  46. 2 ]. }7 n6 q; s8 x, l2 y& p& S
  47. Muxing mode                              : Packed bitstream6 ~& ^, h$ N4 A' G3 D) C8 V% s
  48. 2 l: B0 m* c4 t+ x
  49. Codec ID                                 : XVID
    0 f  P7 b8 L- Q3 a! d" O
  50. 4 e+ r! ^4 [  @% L) G( b8 W
  51. Codec ID/Hint                            : XviD  d( }- y! p/ O3 _
  52. 0 b0 d$ w8 d8 U- k, c" b
  53. Duration                                 : 1h 32mn
    ; F4 C& o6 N4 Z5 I- e6 v0 B1 a) g
  54. 6 C# M5 v! ~1 ^$ g) m6 I
  55. Bit rate                                 : 869 Kbps' l% C; q. ?$ b; }6 y7 N; j
  56. + {" ?7 E' A4 @: Z% m) k
  57. Width                                    : 720 pixels& ~6 a2 @) p$ M+ {; P9 d
  58. : {6 d; l5 b, T0 q
  59. Height                                   : 352 pixels2 P! o0 e9 v8 {& ]) T  I2 |/ @% T0 u

  60. 8 [* f# [5 H* E( x
  61. Display aspect ratio                     : 6.2944 a6 A( O; b3 }6 Z. \6 t% c/ J

  62. " j/ z( W! b, i) i" D' V
  63. Frame rate                               : 29.970 fps1 I( C* v1 z* m0 F

  64. ; q5 i# r7 S2 D" S$ [
  65. Color space                              : YUV
    # U; [! L- s+ C, A. O# n" I- ]

  66. * K3 P" O# S+ @6 b
  67. Chroma subsampling                       : 4:2:0
    * a( i, K& m; T$ V0 R  F& @

  68. % w: U3 w% S5 |. `
  69. Bit depth                                : 8 bits: G( N6 L/ |& z" I
  70. 5 _5 l! \/ K: i7 S" W
  71. Scan type                                : Progressive# `/ S! T+ V# F

  72. 5 y* A; h( ?" L" K  h3 A1 ^" F/ l" u
  73. Compression mode                         : Lossy  ~4 C" E3 C& z8 P: [
  74. # `/ l" t7 V& G8 L2 r# _! J2 r
  75. Bits/(Pixel*Frame)                       : 0.1141 }$ ?4 X9 P* c6 j1 C. A( p" J

  76. ! ^; N4 \3 v! A) _) A
  77. Stream size                              : 574 MiB (65%)7 u' N0 s6 U* n9 T* |- [% {

  78.   H1 G/ h. H2 ]% J5 N4 l
  79. Writing library                          : XviD 1.2.1 (UTC 2008-12-04)* c* A3 Y% N! n# ^0 l7 Y
  80. - E5 u, |' _  s
  81. Audio
    6 B% Z* ^! E( Y! e0 c) E& l

  82.   |/ J7 `8 F" h8 q
  83. ID                                       : 1
    0 m, @1 n6 l( e9 v) T
  84. 4 \" y* P2 y" H8 W
  85. Format                                   : AC-30 u# B. c  A1 s6 b/ k
  86. 5 ~) \0 ~4 w8 f3 @  |
  87. Format/Info                              : Audio Coding 3
    ! L7 h* }/ ?3 y* V+ H' p
  88.   q* n/ K" l- e. {
  89. Mode extension                           : CM (complete main)3 W/ o  {2 q0 |0 a: x1 O+ Y$ A3 V
  90. 6 i) {, U0 k9 z& {" L8 C( n
  91. Format settings, Endianness              : Big
    ' a* u9 C$ |4 R! o& D* f
  92. ; W9 b( B3 J# x/ K& T# \- s) k
  93. Codec ID                                 : 2000
    ( J, I' c4 `, B+ N- F. V% z

  94. ; [% O! s1 O' Q( G# U# K
  95. Duration                                 : 1h 32mn* D! V7 c" N! T# e8 u

  96. # o; {- P4 q0 E- ?, p/ H
  97. Bit rate mode                            : Constant1 o4 ^: G5 r' J$ I' I- U

  98.   f/ K% z) E* E: \9 p5 Q4 z. r9 r( K8 P
  99. Bit rate                                 : 448 Kbps1 \+ f! @+ @1 _# l# C' d1 J
  100. " T* C8 \% `0 v- }: i* R
  101. Channel(s)                               : 6 channels
    4 m" U5 ]( e4 s* M3 w
  102. 3 k( j7 I* z! m0 U
  103. Channel positions                        : Front: L C R, Side: L R, LFE( n1 K6 r- {# v  L8 n- r

  104. 4 f/ s+ F1 N) l' A0 Q1 w
  105. Sampling rate                            : 48.0 KHz
    ( C0 b9 [* I% f8 A8 I5 Q7 T
  106. ( F6 M% O+ z' N* r
  107. Bit depth                                : 16 bits! g4 U) p7 k# G4 \( \: i1 H7 @

  108. * l4 K- x! `* L+ D$ d; t6 e/ F, B
  109. Compression mode                         : Lossy
    6 e& k& P  ]# X* K6 [1 n# F
  110. ! X, G+ p  L  S+ |( c  n# E8 R
  111. Stream size                              : 296 MiB (34%)
    " V& m& p" T+ e4 W- ?
  112. + L( q: x/ v0 c7 }$ e$ ^
  113. Alignment                                : Split accross interleaves  L2 |) P- u5 w" m
  114. 1 W6 B6 n+ ^- \* d
  115. Interleave, duration                     : 33 ms (1.00 video frame)+ C0 ?( `) k8 ?5 L1 |+ Z# V% X. \

  116. ' e) {7 {5 E8 u4 e: Q
  117. Interleave, preload duration             : 500 ms
复制代码
6 x# f. l$ W% m( y9 u; w
# x7 Q# X5 V/ A2 ^( X" X; Y6 a! f

7 I! M% Q5 S1 M- T$ Z                               
登录/注册后可看大图

# b. z) y; \/ F1 G
: K  d5 d7 T9 R* q+ i
+ W& H" M" H' o% u& ~  X
                               
登录/注册后可看大图
! c, G! r4 I5 U
+ [6 s5 w0 C# L/ n3 @

  n" l4 z4 g& O$ P4 a$ N3 R                               
登录/注册后可看大图
4 C' m& i& g9 U& L2 g. b# D# \

0 w4 v* c* L) |. H
4 N0 h, |  ]) ~
                               
登录/注册后可看大图

4 A4 U) T; A- Y9 E- ?2 i7 w$ r# J1 Z( ?2 P1 d3 P. t

" k+ X6 N  B8 U$ A& K$ ?                               
登录/注册后可看大图
7 ^4 i  i, W+ U

6 t; V" z3 O; R. t7 m  L$ x* w
3 q0 T0 \- ?: e$ k6 T/ O) R9 ~【下载地址】
* A' h0 D/ [  F9 W2 Q/ Y% I4 `
! m8 I9 }! C% h' {: p& ]
游客,如果您要查看本帖隐藏内容请回复  捐助论坛可免回复查看隐藏内容 详情请点击
最近访问 头像模式 列表模式
HD一条街,身边的一条街。
dny28e 该用户已被删除
发表于 2014-5-15 22:45:28 | 显示全部楼层
提示: 作者被禁止或删除 内容自动屏蔽
HD一条街,身边的一条街。
[email protected] 该用户已被删除
发表于 2014-5-15 22:54:38 | 显示全部楼层
提示: 作者被禁止或删除 内容自动屏蔽
HD一条街,身边的一条街。
╄→┊.開始 该用户已被删除
发表于 2014-5-15 23:38:31 | 显示全部楼层
提示: 作者被禁止或删除 内容自动屏蔽
HD一条街,身边的一条街。
发表于 2014-5-15 23:58:21 | 显示全部楼层
看海报就不是一般的片子,值得一看,希望有更高清的就好了
HD一条街,身边的一条街。
gary2105 该用户已被删除
发表于 2014-5-16 00:00:34 | 显示全部楼层
提示: 作者被禁止或删除 内容自动屏蔽
HD一条街,身边的一条街。
ele_hoe0612 该用户已被删除
发表于 2014-5-16 01:53:37 | 显示全部楼层
提示: 作者被禁止或删除 内容自动屏蔽
HD一条街,身边的一条街。
发表于 2014-5-16 07:16:49 | 显示全部楼层
HD一条街,是我心中的一条街
HD一条街,身边的一条街。
纯表情雍容 该用户已被删除
发表于 2014-5-16 08:32:36 来自手机 | 显示全部楼层
提示: 作者被禁止或删除 内容自动屏蔽
HD一条街,身边的一条街。

手机版|小黑屋|有问题发邮件到admin#(换成@)hd1tj.org|微博|免责申明|HD一条街

GMT+8, 2017-5-1 02:38

Powered by Discuz! X3.1

© 2001-2013 Comsenz Inc.

快速回复 返回顶部 返回列表