开启辅助访问 切换到窄版

HD一条街论坛

 找回密码
 立即注册
查看: 525|回复: 25

[国产] 央视4集纪录片 牡丹 第1集-唯有牡丹真国色 CCTV-1.The.Peony.1of4.720p.HDTV.x264.DD5.1-Conan06

[复制链接]
发表于 2014-4-9 21:13:30 | 显示全部楼层 |阅读模式
简介* J8 Q* E8 h/ W* J; Z
! I" V' t: c3 D  h* U% e" d- O: W$ m0 `
牡丹是中国著名的传统名花,不仅以形色富丽、雍容高贵而自古盛名,更承载着中华民族丰富的传统文化、精神象征和情感寄托。作为饮誉天下的“国花”,牡丹从栽培演化伊始就与中国政治、经济、文化结下了不解之缘,成为不可或缺的精神象征。一部牡丹的种植鉴赏史,几乎也是一部中国历史的演变史,一部中华文化的发展史。- n3 I( g; o% A7 e2 J; R# q
  千百年来,牡丹因其富丽、芬芳、尊贵成为幸福美好、繁荣昌盛的象征,而在尊荣娇艳的背后,牡丹历经风霜、不畏逆境、坚韧顽强的生命力,不懈追求并创造美好生活的精神,也契合了中华民族独有的气质和精神。今天,历经风雨的中国迎来了伟大的民族复兴,牡丹将再次见证一个盛世的辉煌。
  Y/ e* N/ ~0 o# ?# ]" r! j  牡丹是中国文化的一个标志性符号,现实的牡丹,以及牡丹背后的中华文化,是本片的着眼点。更重要的则是,由牡丹延伸出的中国人的生活和故事。3 n  A7 _# h. S  b
  本片用纪录片的手法,由牡丹和中国文化作为大背景,以细微鲜活的细节和人物故事为表现重点。以小见大,以点带面,把写实的牡丹写意化,把具象的牡丹抽象到生活和人物中去。最终将从三个层面探索并表现出牡丹这一中国独有的花卉,以及文化符号的形成和发扬。第一层面:牡丹的发展路线和生物性演变;第二层面:牡丹的文化特质和品牌塑造;第三层面:牡丹的精神特质和牡丹精神的传承。( u' N1 H! c0 f: X& W, M! Z
1 `' S) `3 j& z; x( {
 第1集:唯有牡丹真国色
0 e: |/ |8 G; `# c$ c( ]4 q$ n  第2集:独立人间第一香
5 y7 ?- {) N" K5 f  第3集:天下真花独牡丹4 Y' t* F( B( Q. ^, {$ O' T) x, _
  第4集:须是牡丹花盛发
  1. General% D0 ?$ e4 O( l
  2.     Complete name: CCTV-1.The.Peony.1of4.720p.HDTV.x264.DD5.1-Conan06.mp4% H- y7 h, k% C+ }1 O
  3.     Format: MPEG-47 W( g; M+ ^% L! N1 Q, o
  4.     Format profile: Base Media2 `' J: G, ]" g
  5.     Codec ID: isom( r/ {& i* O+ C7 ]6 [9 f
  6.     File size: 1.68 GiB
    4 ?. ~) J' T  j. ^) h) }* Q
  7.     Duration: 48mn 30s3 ]% j% u& N3 G3 A! P% e
  8.     Overall bit rate mode: Variable& S' Z+ Y- c; J- F3 f
  9.     Overall bit rate: 4 950 Kbps
    * i: `2 W. @/ M7 E4 [% ~" m" Y; Y
  10.     Encoded date: UTC 2014-04-09 02:17:42$ v3 y& p3 D; W/ o5 x/ C5 p
  11.     Tagged date: UTC 2014-04-09 02:17:42! V& J* t  o. k( t  ]

  12. " ^0 \# l2 U; F9 a5 r' h# |
  13. Video# b6 j+ I8 b" y3 y
  14.     ID : 1
    ) z( r1 ~& n5 c
  15.     Format: AVC
    ' y- ~2 H5 K+ n5 t
  16.     Format/Info: Advanced Video Codec; y7 _$ I% Z2 d) G2 W3 L
  17.     Format profile: [email protected]! e5 B3 m: P, `& n
  18.     Format settings, CABAC: Yes
    " i6 B% O$ }. \; p% |3 S
  19.     Format settings, ReFrames: 4 frames3 ~3 ~4 X" L1 l: }- ]% P; U) |
  20.     Frame mode: Frame doubling
    . o# u  M) {: V
  21.     Codec ID: avc1
    % l- r* W5 m# I4 ^/ O0 L
  22.     Codec ID/Info: Advanced Video Coding
    3 `0 R  c& h$ r# X8 Q
  23.     Duration: 48mn 30s; S7 J8 ]0 I1 F4 R, ~
  24.     Bit rate mode: Variable) Z( l  {& V+ H9 Z
  25.     Bit rate: 4 500 Kbps# Q% W& o3 j* N4 U) D# a' A
  26.     Maximum bit rate: 14.0 Mbps
    % {. F, q# I7 Q4 j' O- h
  27.     Width: 1 280 pixels
    7 c8 A- ~' O. B! P
  28.     Height: 720 pixels+ s8 B* t2 Y8 o
  29.     Display aspect ratio: 16:9
    , I8 N: e: w7 R  t
  30.     Frame rate mode: Constant
    1 @1 ?3 {) a# N! c) p/ J  Z$ x
  31.     Frame rate: 25.000 fps
    : S- l! ?6 A& b( B1 ~( T
  32.     Color space: YUV
    ' U+ ?& M- d& j* W, P1 p7 r: J
  33.     Chroma subsampling: 4:2:0# C6 v9 H( ?% T! w/ `
  34.     Bit depth: 8 bits) `5 L6 a8 a* O
  35.     Scan type: Progressive- i8 V. S8 M  f  f3 K+ z
  36.     Bits/(Pixel*Frame): 0.195
    ; I# T# x7 V! n" A: X1 Y/ S4 ?
  37.     Stream size: 1.52 GiB (91%)
    5 I$ F8 C# _1 r% p  ~5 K' e
  38.     Title: The Peony - #11 i; m5 u2 b; V" f- S+ L
  39.     Writing library: x264 core 129 r2230 1cffe9f4 Q, V& X. H. T: H- j
  40.     Encoding settings: cabac=1 / ref=5 / deblock=1:-1:-1 / analyse=0x3:0x133 / me=umh / subme=9 / psy=1 / psy_rd=1.00:0.15 / mixed_ref=1 / me_range=24 / chroma_me=1 / trellis=2 / 8x8dct=1 / cqm=0 / deadzone=21,11 / fast_pskip=0 / chroma_qp_offset=-3 / threads=6 / lookahead_threads=1 / sliced_threads=0 / slices=4 / nr=0 / decimate=1 / interlaced=0 / bluray_compat=1 / constrained_intra=0 / bframes=3 / b_pyramid=1 / b_adapt=1 / b_bias=0 / direct=1 / weightb=1 / open_gop=1 / weightp=1 / keyint=25 / keyint_min=1 / scenecut=40 / intra_refresh=0 / rc_lookahead=25 / rc=2pass / mbtree=1 / bitrate=4500 / ratetol=1.0 / qcomp=0.60 / qpmin=0 / qpmax=69 / qpstep=4 / cplxblur=20.0 / qblur=0.5 / vbv_maxrate=14000 / vbv_bufsize=14000 / nal_hrd=vbr / ip_ratio=1.40 / aq=1:1.00
    ' _% \# H) ]/ h/ S
  41.     Encoded date: UTC 2014-04-08 23:02:43
    ' @. s6 l1 Q- a+ R; r( S; S9 @1 I
  42.     Tagged date: UTC 2014-04-09 02:19:38
    0 N' U5 k, ?- u4 _/ S  Z1 S
  43.     Color primaries: BT.709  B6 Q% Z. ]" X3 k# W. G
  44.     Transfer characteristics: BT.709
    ; F$ i, e" s! a/ i
  45.     Matrix coefficients: BT.709
    , }0 h6 q! C+ A8 |* H3 W
  46. " A: v# m6 K+ `6 h& t" y' z7 h
  47. Audio# ^! K, w& r% L) p: @
  48.     ID: 2- D* G& ?; f4 ?5 J0 Z2 z- K/ x7 q
  49.     Format: AC-3; ^$ g; l# U, B9 ~. L3 n
  50.     Format/Info: Audio Coding 32 U+ c2 U/ T0 H4 B0 \
  51.     Mode extension: CM (complete main)
    ) @. p. V" `2 u3 \2 P
  52.     Format settings, Endianness: Big
    1 ~. r4 U5 p+ G" S3 }
  53.     Codec ID: ac-3
    7 {+ B2 M8 S$ I+ ?3 O9 w
  54.     Duration: 48mn 30s0 S: ^" A, D" X& F0 H' r$ N& o
  55.     Bit rate mode: Constant& Z9 ]4 F) H8 X" w* x) U8 [. g% n
  56.     Bit rate: 448 Kbps+ a0 l8 |) r/ l
  57.     Channel(s): 6 channels5 r/ x6 m+ |/ n' ?7 {
  58.     Channel positions: Front: L C R, Side: L R, LFE# m/ K5 M  `: j
  59.     Sampling rate: 48.0 KHz2 A) {" k3 N1 |- [. K
  60.     Bit depth: 16 bits
    3 f+ A/ A! ]2 p
  61.     Compression mode: Lossy
    $ N2 J9 x3 O0 \7 z; X6 ^, }( o
  62.     Stream size: 155 MiB (9%)- G0 `$ X+ `4 t* K
  63.     Title: Mandarin4 U7 u; J% i* b6 W6 l# c3 n8 M" Z
  64.     Language: Chinese+ m; h2 ]8 ^# p' \
  65.     Encoded date: UTC 2014-04-09 02:19:21, Y- j: u# F9 f0 W4 }
  66.     Tagged date: UTC 2014-04-09 02:19:381 X2 g$ T9 B' i5 f5 W$ l% P
  67. $ @$ x: w6 B- K  P
  68. Text
    4 ?  w$ ?  X4 T+ r% D. r
  69.     ID: 3( f' I. J: ~+ P* J$ w
  70.     Format: Timed Text
    1 i9 C$ R1 @+ L* v1 M* T* u
  71.     Codec ID: tx3g. S/ o6 Q' q8 A5 f5 U# X% |+ K9 N
  72.     Duration: 47mn 59s0 h$ }8 i; k+ k" \8 T+ a. N: _& @
  73.     Bit rate mode: Variable, O! m3 X' G% H2 K
  74.     Bit rate: 1 bps
    ; Z2 z) l4 |- p9 x% m; q. [
  75.     Stream size: 320 Bytes (0%)& G  h3 h$ Z# U, W9 P$ [
  76.     Title: Conan06
    3 @2 L6 U/ k- s: F
  77.     Language: Chinese9 d7 t3 L  J, v
  78.     Encoded date: UTC 2014-04-09 02:19:38
    6 e9 u: a5 F2 J: v# r. R1 c
  79.     Tagged date: UTC 2014-04-09 02:19:38: {* {" @) B" M; H" Z6 c: n

  80. , v4 K. R1 [! u( S
  81. Menu
    : `* J  j  a6 H2 }1 W0 H
  82.     00:00:00.000: Opening
    ( m4 S( l7 o, @/ }
  83.     00:01:35.080: Chapter 14 A( x8 v/ D1 `4 G: Z
  84.     00:16:03.000: Chapter 2
    5 k% J4 u$ y7 D  U& f
  85.     00:34:54.000: Chapter 3. Q* U1 v3 J5 `' m4 T' ]1 p  V
  86.     00:47:15.440: Preview7 D; z. V; g  h
  87.     00:48:00.000: Ending
复制代码

$ N: o4 X3 A% H
( ?' K+ W/ R2 Y9 ~  {; w# U& l3 i/ ?5 V+ k& N. L$ P8 }

" @. D1 ~/ j  U7 ^/ m5 M& c                               
登录/注册后可看大图
6 Y; z/ T( N$ l9 |1 p( Q
                               
登录/注册后可看大图

7 v' h6 Y& c, w# c; _

) ^3 r& z( O' f7 t, N) H/ ^) s                               
登录/注册后可看大图
9 D% c. w; P. ~- e3 l9 }
                               
登录/注册后可看大图
4 W3 v3 y% ^4 |; [: Q

4 L$ N, h1 B. h  o% s                               
登录/注册后可看大图

( K& b& i. |% c) L                               
登录/注册后可看大图
) M  l7 M. v) p& Y: f0 O

2 w1 [' ?' ^% u' i                               
登录/注册后可看大图

( H  n7 T/ z2 b. F3 Y2 Q6 q% S                               
登录/注册后可看大图

8 f& e, K! ~& F6 X6 d) S6 F$ H
$ t+ c/ H' p" M' [【下载地址】
- j' J0 r$ m3 C) R9 Q8 k  T5 L3 }2 C4 X* [* r
游客,如果您要查看本帖隐藏内容请回复  捐助论坛可免回复查看隐藏内容详情请点击
最近访问 头像模式 列表模式
HD一条街,身边的一条街。
pdimn89 该用户已被删除
发表于 2014-4-9 21:13:34 | 显示全部楼层
提示: 作者被禁止或删除 内容自动屏蔽
HD一条街,身边的一条街。
发表于 2014-4-9 21:33:02 | 显示全部楼层
为了维护HD一条街的和平,我必须打满这些字,拒绝灌水,拒绝广告,争做论坛良好公民!
HD一条街,身边的一条街。
发表于 2014-4-9 22:01:22 | 显示全部楼层
国色天香的牡丹
HD一条街,身边的一条街。
ele_hoe0612 该用户已被删除
发表于 2014-4-10 00:11:41 | 显示全部楼层
提示: 作者被禁止或删除 内容自动屏蔽
HD一条街,身边的一条街。
lxf83th 该用户已被删除
发表于 2014-4-10 07:48:35 | 显示全部楼层
提示: 作者被禁止或删除 内容自动屏蔽
HD一条街,身边的一条街。
发表于 2014-4-10 08:47:04 | 显示全部楼层
HD一条街,是我心中的一条街
HD一条街,身边的一条街。
5942888 该用户已被删除
发表于 2014-4-10 09:16:23 | 显示全部楼层
提示: 作者被禁止或删除 内容自动屏蔽
HD一条街,身边的一条街。
发表于 2014-4-10 09:40:43 | 显示全部楼层
不错,又占了一个沙发!
HD一条街,身边的一条街。
傲雪飞龙 该用户已被删除
发表于 2014-4-10 10:08:29 | 显示全部楼层
提示: 作者被禁止或删除 内容自动屏蔽
HD一条街,身边的一条街。
您需要登录后才可以回帖 登录 | 立即注册

本版积分规则

手机版|小黑屋|有问题发邮件到admin#(换成@)hd1tj.org|微博|免责申明|HD一条街

GMT+8, 2016-12-7 16:40

Powered by Discuz! X3.1

© 2001-2013 Comsenz Inc.

快速回复 返回顶部 返回列表