开启辅助访问 切换到窄版

HD一条街论坛

 找回密码
 立即注册
查看: 666|回复: 25

[港台] RTHK31 巡遊大世界/地球最后的净土 第10集[完] 粤、英双语 繁体硬字幕 Somewhere On Earth 2010.Pack.HDTV.1080i.H264.AC3-tbw 3.14G

[复制链接]
发表于 2014-3-24 13:00:08 | 显示全部楼层 |阅读模式
本帖最后由 让心灵去旅行 于 2014-3-24 19:45 编辑
& W( }; W  E6 Y) X3 Z# W6 O" j6 Y# C3 e4 n0 M4 z+ x$ u( h/ W
* X' d; l" m3 ?& D
                               
登录/注册后可看大图

/ F6 y' ~: J" t3 |) p! Z9 V
  U. F! q9 b' S  `9 t1 q2 K# [& E% B9 c
简介$ R" Z5 q+ W0 }' I- _
导演: Dominique PIPAT
. d& i8 \* N9 ]& U3 o- O( \类型: 纪录片6 m3 f$ |% z. @9 B0 S1 c7 u
官方网站: www.patlyproductions.com/, U# U% b' p  [
制片国家/地区: 法国
6 B; @, e7 ]( i- D$ ^语言: 英语
/ {* N; {3 L( O% I; w集数: 10( \: y: `5 w9 W- M
单集片长: 52分钟) c* o5 C' @' A! z: K/ T; r8 X
播出信息:港台电视31台(RTHK31)2014年1月16日起星期四晚上8时30分(首播)
& n2 K# H( G( b- M: x% V星期五凌晨0时30分(重温)
+ `& i* d8 j2 x1 i! P3 z( t8 [9 c4 }3 ]$ w6 ^: g
第1集  密克罗尼西亚Micronesia5 O; W# n, D( p, O8 i+ t7 m2 \
第2集  哥斯达黎加Costa Rica
5 f. V1 b  {3 C+ i2 ^7 D$ o  m第3集  阿拉斯加Alaska, R% R- J. q: J8 o7 x+ W" S
第4集  坦桑尼亚Tanzania
1 @1 |7 b& Z% M% |0 u% s+ E  @第5集  新西兰New Zealand . v" \+ F0 C* u; P
第6集  澳洲Australia http://www.hd4fans.org/details.php?id=2404&hit=1) s9 ?1 Q7 P" C1 [) B' _! m
第7集  马达加斯加Madagascar http://www.hd4fans.org/details.php?id=2624&hit=1
3 R6 U: v! V2 ^! Y8 ~第8集  埃及Egypt
- }2 Z, ^+ F/ a! j1 O% h, k" v第9集  摩洛哥Morocco
8 J0 `+ n# t2 @) M第10集 巴塔哥尼亚Patagonia " I6 _- U* P  e$ V- K- }

" j! a( s1 w/ h2 A   人类一向渴求寻找自己的根源。虽然可以征服的土地稀少,但总有值得我们探索的国度,接触的人们和他们的生活点滴。% a  H8 ~: k! i  ~

3 m' p3 Q. V- f# o& N   《巡游大世界》给我们带来了永恒和美丽的地方。在那些人迹罕至的地方,男女老幼的日常生活并没有跟随时间的巨轮转动,他们依照定律与大自然和谐共处。1 S; w: ^& X4 z- V& w9 y8 ]
7 {0 e' I; e: p
   每一格光影都是住在这些世外桃源的居民的真实写照。由他们作为导游,邀请我们用摄影机分享他们的世界。他们的故事,他们的日常生活与回忆均是影片内最珍贵的珠宝。每集围绕着三位居住在三个壮丽的地方的人,分享他们充满激情的大世界。  
5 k! ?0 C% w  H$ A' z' ~! k% R6 O
5 C* |- y. e4 F0 J* [  Somewhere on Earth is a series of documentary films whose aim is to shine the spotlight on some of the few places on earth where nature and man exist in harmony.
; u$ _* l. X- K1 O  地球最后的净土是一系列纪录片,其目的是聚焦地球上少数一些人和自然和谐相处的地方。
  1. J:\巡游大世界Somewhere On Earth.HDTV.1080i.H264.AC3-tbw\巡游大世界Somewhere On Earth.HDTV.1080i.H264.AC3.EP01-tbw.ts( Q- r) S  R' k% {% }
  2.   General #10 W7 d( j1 z4 H% @5 b; n6 U! v
  3.      ID : 1 (0x1)) T4 o$ g% G1 `$ U! r- x( l
  4.      Complete name : J:\巡游大世界Somewhere On Earth.HDTV.1080i.H264.AC3-tbw\巡游大世界Somewhere On Earth.HDTV.1080i.H264.AC3.EP01-tbw.ts" J; [# Y  ~* p2 C! x- t' A
  5.      Format : MPEG-TS
    9 K' h' n4 ~5 V5 ^
  6.      File size : 3.09 GiB! M0 A4 F% Q6 J. P) _0 w6 n: N
  7.      Duration : 51mn 58s* e8 o5 H0 ~$ \7 A( w2 W- k$ B
  8.      Overall bit rate : 8 514 Kbps# z" M- h' @7 m6 j6 T
  9.   Video #311, l# \) S$ ^! P$ P2 O% Y$ `
  10.      ID : 311 (0x137)
    - ?0 C& n6 K( N
  11.      Menu ID : 1 (0x1)
    ' \1 W6 {& N' P2 x1 r9 C
  12.      Format : AVC7 G. M+ D6 Q8 J0 }/ F* `  w+ c
  13.      Format/Info : Advanced Video Codec
    ( l$ Z+ Z2 X3 @3 U5 L) X; T" g5 `
  14.      Format profile : [email protected]8 h2 T8 ?. g4 w" Y7 h, G" n/ G
  15.      Format settings, CABAC : Yes+ c- c/ L% }  x5 d4 X5 V8 v
  16.      Format settings, ReFrames : 4 frames
      k3 w5 n2 u. a: Z7 x+ h0 u. i2 J
  17.      Codec ID : 27
    . b' u$ E$ O4 E
  18.      Duration : 51mn 59s
    ' ^! q& r6 B5 G7 X3 U- a5 ~3 [4 J" E
  19.      Bit rate : 7 834 Kbps
    % F+ x- C' W2 }6 H) d
  20.      Width : 1 920 pixels& m# y# J- p. }+ d6 ]0 `; n1 i
  21.      Height : 1 080 pixels
    ' _' @4 z( R* }- v; U% |
  22.      Display aspect ratio : 16:9
    - V, Z3 M) E2 \" v" B4 l) o. Q( ^' h, d
  23.      Frame rate : 25.000 fps  C! r6 ~0 ~" m4 X# i
  24.      Color space : YUV
    0 @* N3 ~3 h. ^, l* v9 f
  25.      Chroma subsampling : 4:2:0/ \3 ~, `1 I% B# G9 I2 H! x3 z
  26.      Bit depth : 8 bits
    3 J6 b/ j% |: s; j' f- `+ N4 i2 I
  27.      Scan type : MBAFF
    ) B( U8 Z+ N' z$ S$ O  \
  28.      Scan order : Top Field First
    + w' g0 z; w$ T* P( {1 v0 G) f
  29.      Bits/(Pixel*Frame) : 0.1512 Y2 `/ }# h9 A5 L4 K. U
  30.      Stream size : 2.84 GiB (92%)
    ( T9 Z& t/ d, F. c( @
  31.      Color primaries : BT.709-5, BT.1361, IEC 61966-2-4, SMPTE RP1770 W/ a( Q. I% A2 A
  32.      Transfer characteristics : BT.709-5, BT.1361
    ) p; L( v8 @$ H) u# B8 ^  e
  33.      Matrix coefficients : BT.709-5, BT.1361, IEC 61966-2-4 709, SMPTE RP177
    . E& p. j* A5 W. `( Q% n9 S, o1 B
  34.   Audio #312
      H( Y+ i6 g3 \
  35.      ID : 312 (0x138)5 L4 J# j6 T- P5 t9 g! g
  36.      Menu ID : 1 (0x1)  r7 n- b$ P6 i4 X. q0 C# x. w
  37.      Format : AC-3
    $ {3 n6 V- w6 h1 O  m
  38.      Format/Info : Audio Coding 31 A* I3 R) D9 t8 N& a; `: v
  39.      Mode extension : CM (complete main)
      w: K% I: D  p
  40.      Codec ID : 63 W) f9 E( E+ I: |( m; z: w
  41.      Duration : 51mn 59s
    / i3 `8 @* j; X/ k9 t
  42.      Bit rate mode : Constant* |8 ?% V) y, J9 M+ {9 v
  43.      Bit rate : 128 Kbps+ f4 Z5 f8 [+ j8 u) I( j. N, g9 t. \8 a
  44.      Channel(s) : 2 channels
    0 c2 ?8 P* O5 B4 P5 d
  45.      Channel positions : Front: L R
    # W) x! }4 z- n9 D( Y% j
  46.      Sampling rate : 48.0 KHz- \3 H) U' N* C8 C+ k
  47.      Bit depth : 16 bits- l1 A" R% K$ S' s
  48.      Compression mode : Lossy
    - M! z" _# |1 `( g0 q
  49.      Stream size : 47.6 MiB (2%)
    % v- G6 e3 ~' r0 Y
  50.      Language : English
    7 W. g6 R1 x& w( C$ |  @+ B
  51.   Audio #3134 Z: M0 V1 x& C( k4 z2 v4 h& T6 D
  52.      ID : 313 (0x139)
    : u: y0 L; k; k( ~
  53.      Menu ID : 1 (0x1)
    1 }) g1 }6 |5 o
  54.      Format : AC-31 i% s0 F2 b' _& d" z" {. a
  55.      Format/Info : Audio Coding 3; _. @" p, P, ?5 Z/ K% P
  56.      Mode extension : CM (complete main)/ S6 I5 d/ g; g: x+ q. |/ P' A
  57.      Codec ID : 65 x) U. t9 g5 g1 y
  58.      Duration : 51mn 58s
    ) ~) w  x" @+ u; h. q' {  @
  59.      Bit rate mode : Constant
    1 C6 b* ~- U6 d* l- ]4 e
  60.      Bit rate : 128 Kbps" I: d" u8 `6 J% L
  61.      Channel(s) : 2 channels
    + p# a+ j/ t5 W! [- U
  62.      Channel positions : Front: L R. h6 {8 Q; ^0 o& q+ U
  63.      Sampling rate : 48.0 KHz1 ]6 j" k4 N* w
  64.      Bit depth : 16 bits
    % e  X9 f; A5 B. u: J' r
  65.      Compression mode : Lossy
    & L+ ~3 K: e- p- O
  66.      Stream size : 47.6 MiB (2%); w0 C$ o  T' `$ A' p/ J
  67.      Language : English
复制代码

. j. t9 v; d+ P5 f3 k

" O- k* s2 x# e' p: r7 I                               
登录/注册后可看大图

0 Q. V& Q) G5 ]( l" w
  U* K' {& Y/ A& ~

( @/ m9 N# n4 E: u                               
登录/注册后可看大图

- C4 S& V" g( f4 h! y) |
$ H' ~7 c$ X1 H

8 j7 y. o  |( N4 w                               
登录/注册后可看大图
0 f  q! H- k5 K% j( q, E
! T' v& f2 z2 @9 G  h
6 h0 ]3 Z' S9 l: A& X, N- ?$ }
                               
登录/注册后可看大图
4 O& p0 @3 q' c% Z* e5 s% e
5 J3 \! Q1 o* J7 D9 ]5 i
- C' L& q) y' L
                               
登录/注册后可看大图

8 s, L3 w. Y! u$ w  g$ y4 v
2 L" b" }+ E+ y, B* n6 Z$ n

& W: q2 y1 y0 C                               
登录/注册后可看大图

& r3 B' o. p6 J! S- X/ E0 p5 H% H" Z2 G6 H4 K1 I% K

, `# Q0 Y- d5 @5 {! Z                               
登录/注册后可看大图
$ A, O. b* i( |

- N! T  p  S/ U, e& j# j6 I/ W

+ S$ S8 n" E3 \( G- l( K% ~1 Z                               
登录/注册后可看大图
4 I2 l) y4 Y! o  Z8 \) O( i4 s

3 ~! [. I% J7 r/ M- R: R/ L* r
: l* }6 V$ z. t5 q, @3 `, g
                               
登录/注册后可看大图
( o# E1 m5 m% [# I5 J

; F+ z' A4 o* I( i
+ |' I/ I2 l7 K+ \2 `" x
                               
登录/注册后可看大图
; }( U3 a# H+ X
9 P; |; o1 s9 r: `# g3 `! X0 o
【下载地址】& E, S4 P% o' ?. x
3 h( E$ f* V) P+ }* g3 n9 D
游客,如果您要查看本帖隐藏内容请回复  捐助论坛可免回复查看隐藏内容详情请点击
最近访问 头像模式 列表模式
HD一条街,身边的一条街。
djggs66 该用户已被删除
发表于 2014-3-24 13:07:43 | 显示全部楼层
提示: 作者被禁止或删除 内容自动屏蔽
HD一条街,身边的一条街。
发表于 2014-3-24 13:33:34 | 显示全部楼层
提示: 作者被禁止或删除 内容自动屏蔽
HD一条街,身边的一条街。
发表于 2014-3-24 13:42:32 | 显示全部楼层
终于等全了!谢谢楼主!
HD一条街,身边的一条街。
发表于 2014-3-24 13:43:03 | 显示全部楼层
终于等全了!谢谢楼主!
HD一条街,身边的一条街。
发表于 2014-3-24 14:35:54 | 显示全部楼层
分享高清资源,就来HD一条街!
HD一条街,身边的一条街。
xsk 该用户已被删除
发表于 2014-3-24 17:39:41 | 显示全部楼层
提示: 作者被禁止或删除 内容自动屏蔽
HD一条街,身边的一条街。
ele_hoe0612 该用户已被删除
发表于 2014-3-24 19:18:54 | 显示全部楼层
提示: 作者被禁止或删除 内容自动屏蔽
HD一条街,身边的一条街。
发表于 2014-3-25 11:19:57 | 显示全部楼层
回复看看,谢谢楼主分享
HD一条街,身边的一条街。
您需要登录后才可以回帖 登录 | 立即注册

本版积分规则

手机版|小黑屋|有问题发邮件到admin#(换成@)hd1tj.org|微博|免责申明|HD一条街

GMT+8, 2016-12-4 03:40

Powered by Discuz! X3.1

© 2001-2013 Comsenz Inc.

快速回复 返回顶部 返回列表