开启辅助访问 切换到窄版

HD一条街论坛

 找回密码
 立即注册
查看: 547|回复: 19

[港台] RTHK31 巡遊大世界/地球最后的净土 [第6集 粤/英双语 繁体硬字幕]Somewhere On Earth 2010.EP06.HDTV.1080i.H264.AC3-tbw 3.12G

[复制链接]
发表于 2014-3-14 21:06:55 | 显示全部楼层 |阅读模式
本帖最后由 让心灵去旅行 于 2014-3-15 11:24 编辑 ' b; w7 F- h: T. f9 e( e
! p1 P4 B9 u- [2 s
; S, \; P: u2 u' V( K( M8 [
                               
登录/注册后可看大图

% M( R8 g& v% E1 A- H; I) s& E8 e8 {7 E4 {, w! r
4 a# D% Y3 c+ @
简介
! K# B6 T7 L: g" _# t" d. `% c) Y导演: Dominique PIPAT
7 a( I% I/ L/ d0 o" v1 v4 l类型: 纪录片
2 h/ T/ m$ t( O& q  d* g! I' M官方网站: www.patlyproductions.com/
: q0 D% e" V" C% g  B1 r' I制片国家/地区: 法国
, D1 e* L# S1 @0 |2 e' ^  A& \语言: 英语
1 i0 q" L4 S) \4 v  ^7 u集数: 104 D% c1 n$ o* @3 Z/ [
单集片长: 52分钟7 c2 O; P/ J  m; A, Z0 e
播出信息:港台电视31台(RTHK31)2014年1月16日起星期四晚上8时30分(首播)
) f( E  A6 r# j/ ]- {星期五凌晨0时30分(重温)
( r8 h/ Y1 ~" p4 K: j' ^+ y2 H5 i9 R$ H9 }
' Z) j: w: e4 {' Y2 b  @. y, K0 O: F
第1集  密克罗尼西亚Micronesia
5 H* d6 P6 M- p1 Q1 W- ^6 V3 s第2集  哥斯达黎加Costa Rica 4 q* z0 c3 M5 C; I6 z/ R8 j) K; L
第3集  阿拉斯加Alaska# n! ~1 a  K- I" w% c
第4集  坦桑尼亚Tanzania
, v( W# r! ]% H' G! ]; }2 D& R第5集  新西兰New Zealand
% {6 s2 N1 ?" V( x9 R7 B第6集  澳洲Australia
% ?! ^$ Q/ H3 p: b3 D( \第7集  马达加斯加Madagascar
, `: z1 x5 v: q! y' P, S第8集  埃及Egypt+ O  p1 q( W( S
第9集  摩洛哥Morocco
$ k( O, g: C$ U( y2 ?& v第10集 巴塔哥尼亚Patagonia 6 t$ f  X  n" m5 @4 t0 x

/ R* B8 b. O8 s- V; G! l   人类一向渴求寻找自己的根源。虽然可以征服的土地稀少,但总有值得我们探索的国度,接触的人们和他们的生活点滴。
# Z. h/ g0 c9 u/ `$ O
8 Q0 Y9 j2 Y6 g   《巡游大世界》给我们带来了永恒和美丽的地方。在那些人迹罕至的地方,男女老幼的日常生活并没有跟随时间的巨轮转动,他们依照定律与大自然和谐共处。
3 Y1 Y+ ]* S1 M$ Y/ n) e
$ E- f# h3 m! }6 u   每一格光影都是住在这些世外桃源的居民的真实写照。由他们作为导游,邀请我们用摄影机分享他们的世界。他们的故事,他们的日常生活与回忆均是影片内最珍贵的珠宝。每集围绕着三位居住在三个壮丽的地方的人,分享他们充满激情的大世界。  # k! m  K1 E& M" S8 h5 I

' L- X2 R5 Y7 o! e8 z: s: x6 P5 m  Somewhere on Earth is a series of documentary films whose aim is to shine the spotlight on some of the few places on earth where nature and man exist in harmony. 9 A3 S2 m7 b. J) K" i
  地球最后的净土是一系列纪录片,其目的是聚焦地球上少数一些人和自然和谐相处的地方。
  1. J:\巡游大世界Somewhere On Earth.HDTV.1080i.H264.AC3-tbw\巡游大世界Somewhere On Earth.HDTV.1080i.H264.AC3.EP01-tbw.ts- a& p) w7 ?$ R  o( u
  2.   General #1
      @! j& ?% b0 a5 m4 |& z: q
  3.      ID : 1 (0x1)% }9 L( S4 G2 {$ J# @6 j# v% j; _# u
  4.      Complete name : J:\巡游大世界Somewhere On Earth.HDTV.1080i.H264.AC3-tbw\巡游大世界Somewhere On Earth.HDTV.1080i.H264.AC3.EP01-tbw.ts7 a$ |- b/ o) @- Q0 }+ A
  5.      Format : MPEG-TS
    ) |, G$ `" B# r' B* n2 a2 g( m
  6.      File size : 3.09 GiB
    3 K7 T6 x; s9 v8 Z# ~! C
  7.      Duration : 51mn 58s
    8 ~0 P7 l. o( q! |+ Y
  8.      Overall bit rate : 8 514 Kbps
    - M+ u  D8 }, A; {( A
  9.   Video #311, |9 l6 c" J$ [1 v8 Y+ n
  10.      ID : 311 (0x137)4 `# j& B5 F" s) h1 F. k9 ?: M
  11.      Menu ID : 1 (0x1)
    : G. Q0 z, Q. k3 e) [# l9 H/ I7 I' {
  12.      Format : AVC
    " T. K$ S! f0 P0 U6 o! y
  13.      Format/Info : Advanced Video Codec
    " X! O" M  t0 m" l4 P/ u- o
  14.      Format profile : [email protected]
    . N1 l2 J8 }2 O
  15.      Format settings, CABAC : Yes
    ; E2 H! a+ @7 L: U! R7 {5 l! s
  16.      Format settings, ReFrames : 4 frames
    ; `$ v0 r- W9 [- x; J
  17.      Codec ID : 27# T9 o4 _* M8 i: @" C! ~# F
  18.      Duration : 51mn 59s' D4 U* k8 w) C5 F1 t* N6 W
  19.      Bit rate : 7 834 Kbps
    " p9 {& e# Y- g0 ^6 ^# p. g
  20.      Width : 1 920 pixels" Y; e  \- ~2 a1 @
  21.      Height : 1 080 pixels. _: j, B6 i6 U& }. `& e6 X
  22.      Display aspect ratio : 16:9) a: ~" s, n* ?' m0 A
  23.      Frame rate : 25.000 fps
    $ _$ k5 j8 g6 E2 U- \
  24.      Color space : YUV- b# A7 u/ h$ j4 A
  25.      Chroma subsampling : 4:2:0
    . |" `. m2 g5 C7 G: e7 l% _6 a' [
  26.      Bit depth : 8 bits
    5 k( S7 i+ y7 T2 ]
  27.      Scan type : MBAFF3 t( s8 }; m1 c! K
  28.      Scan order : Top Field First
    ! l+ \- j5 R3 n9 [) w& N
  29.      Bits/(Pixel*Frame) : 0.151- G, |& Y+ E; B  z. M
  30.      Stream size : 2.84 GiB (92%)3 n$ d) D5 C: [2 ?2 p6 ^$ q; R
  31.      Color primaries : BT.709-5, BT.1361, IEC 61966-2-4, SMPTE RP177
    8 E$ L8 D8 o* m; l0 Z2 F
  32.      Transfer characteristics : BT.709-5, BT.1361
    8 c! ~+ j4 \5 r' J: a) u2 h! U9 O
  33.      Matrix coefficients : BT.709-5, BT.1361, IEC 61966-2-4 709, SMPTE RP1773 a) b# o- ~1 z- n
  34.   Audio #312
    6 K: y) _0 Z' U2 |9 ~" J
  35.      ID : 312 (0x138)
    , a7 M. J2 W: v) z/ Z$ @) ?/ h
  36.      Menu ID : 1 (0x1)% ~$ h4 t: K7 l9 O
  37.      Format : AC-3& ^6 x% Y6 C' u9 L3 e1 b& ]
  38.      Format/Info : Audio Coding 3
    ; ~' {5 O3 @% e  }
  39.      Mode extension : CM (complete main)3 J) W) |" G# U. f
  40.      Codec ID : 65 n+ C  R% I6 d1 k2 a  _
  41.      Duration : 51mn 59s
    ( c3 c! }4 p# z5 S0 r
  42.      Bit rate mode : Constant
    2 e% X* p+ D' j7 G2 E  l$ s+ |
  43.      Bit rate : 128 Kbps
    $ ^4 C9 ]  V" @
  44.      Channel(s) : 2 channels, I: }6 T/ W* |4 f
  45.      Channel positions : Front: L R8 T" E  r# p0 x. [% b9 v
  46.      Sampling rate : 48.0 KHz
    - a4 Y/ _  F0 [: w
  47.      Bit depth : 16 bits. r* d3 [( Y; e
  48.      Compression mode : Lossy
    0 p5 y( S5 x1 Z7 ^3 G
  49.      Stream size : 47.6 MiB (2%)$ _% e$ d. O1 f
  50.      Language : English* w) ^$ Z/ y) _( L0 _
  51.   Audio #313$ V2 `0 ?$ {- f6 k) z
  52.      ID : 313 (0x139)
    9 d1 z  K& O* W% t% t2 C
  53.      Menu ID : 1 (0x1)8 ~2 y! H3 C$ x2 ?
  54.      Format : AC-3
    1 B$ o1 r2 y. V- d9 W
  55.      Format/Info : Audio Coding 3
    , q- J. Q3 U5 P6 @3 r2 }% t
  56.      Mode extension : CM (complete main)
    7 ^. a- z4 V' t& \% u
  57.      Codec ID : 6/ B  B) y" l8 P
  58.      Duration : 51mn 58s
    ! c3 z- ~8 Y: g% x
  59.      Bit rate mode : Constant
    $ l) _( f3 ~/ r
  60.      Bit rate : 128 Kbps
    2 W4 l' n" c6 M# Z! _1 F
  61.      Channel(s) : 2 channels8 b+ E* N7 n( g# s* q) j
  62.      Channel positions : Front: L R
    & Y# R, G' L! a8 r& }2 ~
  63.      Sampling rate : 48.0 KHz0 T) H/ u2 o9 D0 T4 `
  64.      Bit depth : 16 bits" `0 v* ?; m5 b
  65.      Compression mode : Lossy
    ) p) j+ k! C5 q. Q9 `4 K& y
  66.      Stream size : 47.6 MiB (2%). k& J* j! d4 {
  67.      Language : English
复制代码

7 d1 J0 r0 S$ B4 i4 l$ x$ }
8 e- K) N$ W9 n1 V; O: y9 O$ r
+ y' ~8 z2 F, h' [
                               
登录/注册后可看大图

$ w/ p4 `& K( @6 O  q( U* U& C: F$ Z2 Q7 C/ D1 a* v3 `: p( a+ F
3 r+ |( z# `- b, I! m% t& W
                               
登录/注册后可看大图

8 g) ~% B" f& [1 q1 H7 e5 p5 U5 ?2 |) C
7 e! s( l% {: R
                               
登录/注册后可看大图
( F' x6 T7 f( D0 t

3 X  }6 l/ t. Q- D
% G  u7 m: U$ c# A3 d/ G, P2 j; I* Y
                               
登录/注册后可看大图

: S# [( m# L+ @; k  E2 I; C1 @5 L0 R
3 y2 @3 c0 P# Z9 B9 w$ z4 @
                               
登录/注册后可看大图

9 I/ A& O6 a, m3 X# i* k$ H1 W7 o
9 s' }2 S2 k+ B) e4 x/ ~1 G

( b. c9 f: c& _- W/ X1 P8 A! I; X                               
登录/注册后可看大图

6 Z% B: B" f( @! Y$ s5 u3 r! m& |: l* `& h

( H; }6 p' l0 \4 N                               
登录/注册后可看大图

$ P; t" z: g" c6 g+ J5 s: w0 J' G7 R' G( T* U6 X
7 E$ t) k. j, n; t3 i/ r/ B" s  T* w
                               
登录/注册后可看大图
+ F# }& d5 }- E4 ?: Q6 K' Z
7 H8 k; v# l/ f; P
' i; q; P* X* q6 V3 m
                               
登录/注册后可看大图

% {/ {; }. z  Q* \/ X) k  C" f
! J  y' V: N/ |【下载地址】- S8 ^! u: ]; V2 x/ f& N
; l# F/ g. m& i2 P
游客,如果您要查看本帖隐藏内容请回复  捐助论坛可免回复查看隐藏内容详情请点击
最近访问 头像模式 列表模式
HD一条街,身边的一条街。
dnshud 该用户已被删除
发表于 2014-3-14 21:07:40 | 显示全部楼层
提示: 作者被禁止或删除 内容自动屏蔽
HD一条街,身边的一条街。
发表于 2014-3-14 21:39:55 | 显示全部楼层
谢谢分享,开心了
HD一条街,身边的一条街。
雅蓉 该用户已被删除
发表于 2014-3-14 23:04:12 | 显示全部楼层
提示: 作者被禁止或删除 内容自动屏蔽
HD一条街,身边的一条街。
发表于 2014-3-15 03:06:35 | 显示全部楼层
影视资源尽在HD一条街中,
HD一条街,身边的一条街。
丿灬尛默丶 该用户已被删除
发表于 2014-3-15 03:13:00 | 显示全部楼层
提示: 作者被禁止或删除 内容自动屏蔽
HD一条街,身边的一条街。
发表于 2014-3-15 10:19:11 | 显示全部楼层
影视资源尽在HD一条街中,
HD一条街,身边的一条街。
发表于 2014-3-16 00:47:27 | 显示全部楼层
這是一部好片子
HD一条街,身边的一条街。
发表于 2014-3-16 00:48:10 | 显示全部楼层
這是一部好片子,要下全部
HD一条街,身边的一条街。
发表于 2014-3-17 10:00:22 | 显示全部楼层
回复看看,谢谢楼主分享
HD一条街,身边的一条街。
您需要登录后才可以回帖 登录 | 立即注册

本版积分规则

手机版|小黑屋|有问题发邮件到admin#(换成@)hd1tj.org|微博|免责申明|HD一条街

GMT+8, 2016-12-3 12:39

Powered by Discuz! X3.1

© 2001-2013 Comsenz Inc.

快速回复 返回顶部 返回列表