开启辅助访问 切换到窄版

HD一条街论坛

 找回密码
 立即注册
查看: 738|回复: 30

[港台] RTHK31 巡遊大世界 第1-5集 粤、英双语 繁体硬字幕 Somewhere On Earth HDTV 1080i H264 AC3 EP01-05-tbw

[复制链接]
发表于 2014-3-13 12:24:30 | 显示全部楼层 |阅读模式
8 ~7 I, ^* y+ w, g  ~" ~# ]% V
                               
登录/注册后可看大图
4 U9 `( u$ R* @# t

- m1 n' J- e; R3 q4 @" H3 a& I简介$ j- y( J1 n$ N5 [: T
第1集  密克罗尼西亚
% Z( e  z+ U$ S5 K第2集 哥斯达黎加
! M4 ~% ~6 O% X& h: [, ^第3集 阿拉斯加: c; x" g( s( S5 i- e' h1 W# A: Q
第4集 坦桑尼亚
( {+ j8 c4 t- B& s' H" t$ S7 T4 a第5集 新西兰# g0 M- b+ U( k! R! h/ W

3 j! e+ ~5 e: {5 {! ~' g% L) ?6 @
  1. J:\巡游大世界Somewhere On Earth.HDTV.1080i.H264.AC3-tbw\巡游大世界Somewhere On Earth.HDTV.1080i.H264.AC3.EP01-tbw.ts8 n: T4 S( _- b/ V
  2.   General #1
    3 ]$ a- c2 |2 W! o/ f& b
  3.      ID : 1 (0x1)
    - |% V8 L5 r0 O3 f$ h: }3 A5 m
  4.      Complete name : J:\巡游大世界Somewhere On Earth.HDTV.1080i.H264.AC3-tbw\巡游大世界Somewhere On Earth.HDTV.1080i.H264.AC3.EP01-tbw.ts
    ( _) i/ {- z; q* Z) J1 X# w0 N
  5.      Format : MPEG-TS, Y  j# z& v* d! w7 {
  6.      File size : 3.09 GiB6 a5 O$ m  R+ L' i# z9 S' f2 r& [
  7.      Duration : 51mn 58s
    ! v; `9 r0 ^2 }* s. O0 W
  8.      Overall bit rate : 8 514 Kbps
    : Q- f% P* f% N2 N3 t
  9.   Video #311" u) ^4 c% x: u3 Y. J6 N$ v
  10.      ID : 311 (0x137)
    ' S6 ~  ?4 P* H4 e& X, c
  11.      Menu ID : 1 (0x1)+ F! I8 }# w/ j2 N, M3 s7 [$ C
  12.      Format : AVC
    : O. W# {8 D, d0 \2 l
  13.      Format/Info : Advanced Video Codec( L" S, Z4 i% H% _! N
  14.      Format profile : [email protected]  b) R( W- N8 Z% F
  15.      Format settings, CABAC : Yes, t. B. l4 V6 g8 [1 P: I- ?' L
  16.      Format settings, ReFrames : 4 frames
    5 z* C2 g+ z" T' V0 L5 X4 e
  17.      Codec ID : 27! C$ d, N( Q% c8 J8 R/ N# _/ y7 Z
  18.      Duration : 51mn 59s
    4 h7 z) \3 I2 p1 N" S* }8 |, ~
  19.      Bit rate : 7 834 Kbps- ]1 S# q* `3 T( w3 F
  20.      Width : 1 920 pixels. Z, Y. F4 L) }
  21.      Height : 1 080 pixels
    + b+ p1 ^# F+ X: j
  22.      Display aspect ratio : 16:9
    # I) p6 S" r) Z% d5 E
  23.      Frame rate : 25.000 fps
    # y  t, m* ?4 D: N, S6 h
  24.      Color space : YUV
    1 J$ w  P1 r8 H# v$ Q4 e1 F
  25.      Chroma subsampling : 4:2:0
    % G2 M: ^2 S5 \% M$ i0 D
  26.      Bit depth : 8 bits( D  V- t4 B- u2 \' q- i
  27.      Scan type : MBAFF
    # f6 T1 B5 w. f0 W4 j
  28.      Scan order : Top Field First: V( o- K; p! i$ l: C7 Q) C/ j3 j
  29.      Bits/(Pixel*Frame) : 0.151
    * h6 q# g8 Y  g: X7 Y7 O2 Y# D- S# ~5 g
  30.      Stream size : 2.84 GiB (92%)! i  r5 N+ Y! z. _2 D8 m
  31.      Color primaries : BT.709-5, BT.1361, IEC 61966-2-4, SMPTE RP1773 T& x1 O$ x# M# E9 s8 {
  32.      Transfer characteristics : BT.709-5, BT.13617 q, n4 c9 x; a' D) f0 k
  33.      Matrix coefficients : BT.709-5, BT.1361, IEC 61966-2-4 709, SMPTE RP177" S4 a9 H( P1 M0 K# T' E6 G0 o
  34.   Audio #312
    , A8 Z9 q) E& j' O/ N) c
  35.      ID : 312 (0x138)3 b. E, A( l* [& T) I" ]& _2 h
  36.      Menu ID : 1 (0x1)
    ! L" W0 `+ a: Z# N6 B) O
  37.      Format : AC-3
    7 e% d  ~# u! o2 r- D9 T
  38.      Format/Info : Audio Coding 3+ D* H7 H/ [' G+ v
  39.      Mode extension : CM (complete main)
    6 F( C% M" t& t8 t
  40.      Codec ID : 6" `$ B3 N6 e( x8 Q
  41.      Duration : 51mn 59s7 J8 ?2 v( ]3 A# X% a: t
  42.      Bit rate mode : Constant
    " P8 {8 T2 L9 L) W/ W, ^
  43.      Bit rate : 128 Kbps8 `% e2 T5 Q1 B  l. D
  44.      Channel(s) : 2 channels! e7 J5 n( T1 C% `. _
  45.      Channel positions : Front: L R
    5 O0 y" l. h) p  D! z( b$ d
  46.      Sampling rate : 48.0 KHz
      O* f: m/ }: |; d
  47.      Bit depth : 16 bits6 i0 _( Z$ k$ p, V  }  ?, R  c6 c
  48.      Compression mode : Lossy
    ) d% i! T7 C' C
  49.      Stream size : 47.6 MiB (2%)
    & T) @1 C7 ^% L
  50.      Language : English4 _( B- o: q2 @& z
  51.   Audio #3137 l/ Z9 o( Z/ Q$ k  n
  52.      ID : 313 (0x139)& _4 A: Q7 Z- ?7 ^) \" [5 k) ?
  53.      Menu ID : 1 (0x1)
    ( o# N1 R& l6 u
  54.      Format : AC-3( n" q) i- O  N. d
  55.      Format/Info : Audio Coding 3
    ' b5 f% G, d( I
  56.      Mode extension : CM (complete main)
    ( _4 X$ n5 \8 E4 D
  57.      Codec ID : 6
    6 v1 C  i4 y/ f! \% F) r4 g+ e
  58.      Duration : 51mn 58s0 P5 [/ `  [5 Z/ i5 R
  59.      Bit rate mode : Constant
    9 q# \) |' r! ]1 P6 r8 j  [
  60.      Bit rate : 128 Kbps
    ) w8 J3 D$ D" u, ?$ k
  61.      Channel(s) : 2 channels" X- |# c0 r: n5 P3 m: q4 ?, e
  62.      Channel positions : Front: L R! R9 p5 R" k* B' T
  63.      Sampling rate : 48.0 KHz
    7 S; J8 q9 K& ~# `, z; Q$ [  s
  64.      Bit depth : 16 bits
    0 Y! o8 \2 f, r- K
  65.      Compression mode : Lossy
    0 e: l: E; w( A$ M7 s2 O
  66.      Stream size : 47.6 MiB (2%)6 Y8 o# P: J3 n) E, _3 c' X
  67.      Language : English
复制代码

9 H7 M8 U7 i. _- g' \6 p! |' J% ^$ q# s, t- k% X

6 O4 F: G! `; w( z: t: w                               
登录/注册后可看大图
' d: g& P5 x* p& @. P. y+ Y

+ R( V1 q6 ?0 L; K5 B

: D2 m$ Y& I+ T; z) y! a                               
登录/注册后可看大图

! r# f0 L8 p$ o- b# ~% q
4 q1 W8 R5 r0 [7 L2 L8 _
& D- ]/ B) W0 ^1 P
                               
登录/注册后可看大图

& k4 C# g' z  E4 y- }; ^8 @( W$ r$ J  f& e! f

: o/ `3 H$ m+ @# _5 E                               
登录/注册后可看大图

" ?1 T" J' U  v3 R1 P9 |
4 s7 Z( G/ B7 Z2 T

3 s- W% w3 g6 T& V                               
登录/注册后可看大图
- `1 t  ~% k% \% {
; u- Z; m6 p, w
4 X0 V9 c# m, @- ~% ^: H
                               
登录/注册后可看大图

1 O) w/ B( W/ J4 K( X1 c% n$ }' z4 F3 l( ^- B" F& h
2 ?% H6 y# h1 z  p1 A! M; l+ ~" m
                               
登录/注册后可看大图

' j7 o9 c" P% I& h6 W; N0 a1 s( `! |( E: Z/ E  g" ?$ X
1 s! t( U- s( J3 j) l* k0 G1 v
                               
登录/注册后可看大图

2 ~4 |) Q; x( Q* J( {/ z) R* _- h( g2 ~5 O5 s, s$ t2 k
【下载地址】/ j/ [9 j. f0 P( \

/ R$ P$ _( B; F0 A
游客,如果您要查看本帖隐藏内容请回复  捐助论坛可免回复查看隐藏内容详情请点击
最近访问 头像模式 列表模式
HD一条街,身边的一条街。
恋恋1983 该用户已被删除
发表于 2014-3-13 12:24:47 来自手机 | 显示全部楼层
提示: 作者被禁止或删除 内容自动屏蔽
HD一条街,身边的一条街。
发表于 2014-3-13 16:03:51 | 显示全部楼层
抵制论坛使用这个“ 幸运榜 / 衰神榜 ”垃圾插件
HD一条街,身边的一条街。
发表于 2014-3-13 16:22:25 | 显示全部楼层
影视资源尽在HD一条街中, 哦也!
HD一条街,身边的一条街。
发表于 2014-3-13 17:46:16 | 显示全部楼层
必须看,这辈子可能都不能去的地方
HD一条街,身边的一条街。
海豚的心事 该用户已被删除
发表于 2014-3-13 20:01:12 | 显示全部楼层
提示: 作者被禁止或删除 内容自动屏蔽
HD一条街,身边的一条街。
发表于 2014-3-14 11:57:29 | 显示全部楼层
影视资源尽在HD一条街中, 哦也!
HD一条街,身边的一条街。
的撒谎读的 该用户已被删除
发表于 2014-3-15 12:36:58 | 显示全部楼层
提示: 作者被禁止或删除 内容自动屏蔽
HD一条街,身边的一条街。
ytyutrtr 该用户已被删除
发表于 2014-3-15 23:52:10 | 显示全部楼层
提示: 作者被禁止或删除 内容自动屏蔽
HD一条街,身边的一条街。
发表于 2014-3-16 00:45:08 | 显示全部楼层
我要找到全部
HD一条街,身边的一条街。
您需要登录后才可以回帖 登录 | 立即注册

本版积分规则

手机版|小黑屋|有问题发邮件到admin#(换成@)hd1tj.org|微博|免责申明|HD一条街

GMT+8, 2016-12-11 18:02

Powered by Discuz! X3.1

© 2001-2013 Comsenz Inc.

快速回复 返回顶部 返回列表